<?xml version="1.0" standalone="no"?>
<!DOCTYPE svg PUBLIC "-//W3C//DTD SVG 1.1//EN" "http://www.w3.org/Graphics/SVG/1.1/DTD/svg11.dtd" >
<svg xmlns="http://www.w3.org/2000/svg" xmlns:xlink="http://www.w3.org/1999/xlink" version="1.1">
<metadata>
Created by FontForge 20170731 at Thu Jun 10 16:22:19 2021
 By Aleksey,,,
Copyright 2018 IBM Corp. All rights reserved.
</metadata>
<defs>
<font id="IBMPlexSansBold" horiz-adv-x="600" >
  <font-face
    font-family="IBM Plex Sans"
    font-weight="700"
    font-stretch="normal"
    units-per-em="1000"
    panose-1="2 11 8 3 5 2 3 0 2 3"
    ascent="780"
    descent="-220"
    x-height="525"
    cap-height="698"
    bbox="-307 -275 1332 1150"
    underline-thickness="100"
    underline-position="-216"
    unicode-range="U+000D-FB02"
  />
<missing-glyph horiz-adv-x="472"
d="M32 0v780h408v-780h-408zM132 100h208v580h-208v-580z" />
    <glyph glyph-name="fi" unicode="fi" horiz-adv-x="647"
d="M95 410h-74v115h74v62q0 76 40 114.5t117 38.5h96v-115h-105v-100h335v-525h-148v410h-187v-410h-148v410zM504 581q-45 0 -65.5 20.5t-20.5 52.5v22q0 32 20.5 52.5t65.5 20.5t65.5 -20.5t20.5 -52.5v-22q0 -32 -20.5 -52.5t-65.5 -20.5z" />
    <glyph glyph-name=".notdef" horiz-adv-x="472"
d="M32 0v780h408v-780h-408zM132 100h208v580h-208v-580z" />
    <glyph glyph-name=".null" horiz-adv-x="0"
 />
    <glyph glyph-name=".null" horiz-adv-x="0"
 />
    <glyph glyph-name="uni000D" unicode="&#xd;" horiz-adv-x="236"
 />
    <glyph glyph-name="space" unicode=" " horiz-adv-x="236"
 />
    <glyph glyph-name="exclam" unicode="!" horiz-adv-x="320"
d="M130 220l-47 284v194h156v-194l-46 -284h-63zM160 -12q-48 0 -68.5 22t-20.5 54v24q0 32 20.5 54t68.5 22t68.5 -22t20.5 -54v-24q0 -32 -20.5 -54t-68.5 -22z" />
    <glyph glyph-name="quotedbl" unicode="&#x22;" horiz-adv-x="493"
d="M68 414v326h132v-326h-132zM293 414v326h132v-326h-132z" />
    <glyph glyph-name="numbersign" unicode="#" horiz-adv-x="632"
d="M366 173h-160l-30 -173h-94l30 173h-101v90h117l29 172h-101v90h117l30 173h93l-30 -173h160l30 173h94l-30 -173h101v-90h-117l-29 -172h101v-90h-117l-30 -173h-93zM381 263l30 172h-160l-30 -172h160z" />
    <glyph glyph-name="dollar" unicode="$" horiz-adv-x="601"
d="M250 -82v92q-76 7 -128 35t-90 70l90 82q29 -30 64 -49.5t77 -25.5v180q-113 23 -162 72t-49 122q0 79 50.5 129t147.5 61v94h114v-94q60 -7 105 -29.5t78 -60.5l-91 -82q-18 20 -43 36t-61 24v-166q106 -24 156.5 -69t50.5 -122q0 -74 -47.5 -130t-147.5 -73v-96h-114z
M190 500q0 -29 17.5 -45t55.5 -27v148q-38 -8 -55.5 -27.5t-17.5 -48.5zM421 206q0 22 -13 42.5t-56 33.5v-158q35 10 52 31.5t17 50.5z" />
    <glyph glyph-name="percent" unicode="%" horiz-adv-x="974"
d="M179 0l484 698h132l-484 -698h-132zM230 314q-88 0 -134 50t-46 148t46 148t134 50t134 -50t46 -148t-46 -148t-134 -50zM230 400q26 0 39 20.5t13 65.5v52q0 45 -13 65.5t-39 20.5t-39 -20.5t-13 -65.5v-52q0 -45 13 -65.5t39 -20.5zM744 -12q-88 0 -134 50t-46 148
t46 148t134 50t134 -50t46 -148t-46 -148t-134 -50zM744 74q26 0 39 20.5t13 65.5v52q0 45 -13 65.5t-39 20.5t-39 -20.5t-13 -65.5v-52q0 -45 13 -65.5t39 -20.5z" />
    <glyph glyph-name="ampersand" unicode="&#x26;" horiz-adv-x="721"
d="M487 57q-33 -27 -80 -48t-120 -21q-58 0 -102 14.5t-74 41t-45.5 62t-15.5 77.5q0 36 10.5 64t29 51t44.5 42t56 37q-15 16 -29 35t-25 40t-17.5 44t-6.5 47q0 34 14.5 64.5t42 53.5t66 36t86.5 13q43 0 79.5 -10.5t63.5 -31t42.5 -50.5t15.5 -68q0 -33 -11 -60
t-30 -49.5t-44.5 -41.5t-53.5 -36l108 -117q13 32 20 68t9 71h167v-123h-63q-17 -64 -45 -111l139 -151h-179zM317 597q-27 0 -45.5 -15t-18.5 -42v-4q0 -20 13 -39.5t44 -54.5q35 21 53 42.5t18 51.5v4q0 27 -18.5 42t-45.5 15zM309 111q59 0 101 28l-147 159
q-34 -20 -48 -41t-14 -48v-10q0 -38 27 -63t81 -25z" />
    <glyph glyph-name="quotesingle" unicode="'" horiz-adv-x="268"
d="M68 414v326h132v-326h-132z" />
    <glyph glyph-name="parenleft" unicode="(" horiz-adv-x="338"
d="M37 312q0 72 13.5 139t36.5 124.5t55 104.5t70 80h139q-81 -75 -127.5 -180.5t-46.5 -233.5v-70q0 -133 47 -237t127 -177h-140q-36 31 -68 78t-55.5 105.5t-37 126t-13.5 140.5z" />
    <glyph glyph-name="parenright" unicode=")" horiz-adv-x="338"
d="M301 312q0 -73 -13.5 -140.5t-37 -126t-55.5 -105.5t-68 -78h-140q80 73 127 177t47 237v70q0 128 -46.5 233.5t-127.5 180.5h139q38 -33 70 -80t55 -104.5t36.5 -124.5t13.5 -139z" />
    <glyph glyph-name="asterisk" unicode="*" horiz-adv-x="601"
d="M192 238l-104 70l127 153l-183 55l39 114l174 -73l-9 190h129l-9 -190l174 73l39 -114l-183 -55l126 -153l-104 -69l-108 162z" />
    <glyph glyph-name="plus" unicode="+"
d="M236 63v184h-169v118h169v184h128v-184h169v-118h-169v-184h-128z" />
    <glyph glyph-name="comma" unicode="," horiz-adv-x="310"
d="M155 169q45 0 66.5 -22.5t21.5 -57.5v-20q0 -61 -29.5 -120t-77.5 -96h-100q35 33 60 65.5t38 72.5q-35 6 -51 27.5t-16 50.5v20q0 35 21.5 57.5t66.5 22.5z" />
    <glyph glyph-name="hyphen" unicode="-" horiz-adv-x="403"
d="M53 233v144h297v-144h-297z" />
    <glyph glyph-name="period" unicode="." horiz-adv-x="310"
d="M155 -11q-45 0 -66.5 22.5t-21.5 57.5v20q0 35 21.5 57.5t66.5 22.5t66.5 -22.5t21.5 -57.5v-20q0 -35 -21.5 -57.5t-66.5 -22.5z" />
    <glyph glyph-name="slash" unicode="/" horiz-adv-x="460"
d="M3 -151l298 891h122l-298 -891h-122z" />
    <glyph glyph-name="zero" unicode="0"
d="M300 -12q-137 0 -203 95t-66 266t66 266t203 95t203 -95t66 -266t-66 -266t-203 -95zM300 115q60 0 83 44t23 124v132q0 80 -23 124t-83 44t-83 -44t-23 -124v-132q0 -80 23 -124t83 -44z" />
    <glyph glyph-name="one" unicode="1"
d="M94 0v121h188v468h-9l-142 -186l-96 75l167 220h230v-577h148v-121h-486z" />
    <glyph glyph-name="two" unicode="2"
d="M551 0h-494v137l215 184q29 25 49 45.5t32.5 40t18 38.5t5.5 41v14q0 20 -8 35t-21 25t-29.5 15t-33.5 5q-25 0 -43.5 -8t-32 -21.5t-22.5 -31t-14 -37.5l-131 50q12 36 33 68.5t52.5 57t74.5 38.5t97 14q57 0 101 -16t74.5 -44t46.5 -66.5t16 -83.5t-15 -82t-40.5 -69.5
t-59.5 -61.5t-71 -59l-130 -102h330v-126z" />
    <glyph glyph-name="three" unicode="3"
d="M262 422q56 0 81.5 21.5t25.5 53.5v7q0 38 -24.5 61t-69.5 23q-42 0 -79 -21.5t-63 -61.5l-94 88q20 26 43 47.5t52 37t65 24t81 8.5q56 0 101.5 -13t78 -37.5t50 -58.5t17.5 -76q0 -33 -10.5 -60t-29 -47t-42.5 -32.5t-51 -17.5v-6q31 -6 57.5 -19.5t46 -34.5
t30.5 -49.5t11 -64.5q0 -47 -19 -85t-54 -65t-84 -41.5t-108 -14.5q-53 0 -94 11t-71.5 29.5t-53 42.5t-39.5 51l111 86q23 -43 56.5 -70.5t90.5 -27.5q51 0 79.5 25.5t28.5 69.5v6q0 43 -32.5 64.5t-89.5 21.5h-63v125h65z" />
    <glyph glyph-name="four" unicode="4"
d="M337 0v134h-307v128l272 436h178v-448h88v-116h-88v-134h-143zM150 250h187v293h-10z" />
    <glyph glyph-name="five" unicode="5"
d="M522 567h-317l-15 -221h8q10 25 22.5 45.5t29.5 35t41 22.5t57 8q45 0 84 -15t68 -43.5t46 -70t17 -93.5q0 -53 -17.5 -98.5t-52 -78.5t-84.5 -51.5t-114 -18.5q-51 0 -90 11t-69 29.5t-52 42.5t-38 51l109 86q23 -41 55 -69.5t86 -28.5t81.5 31t27.5 82v8q0 48 -28 76
t-77 28q-41 0 -67.5 -16.5t-40.5 -32.5l-123 17l26 395h427v-131z" />
    <glyph glyph-name="six" unicode="6"
d="M304 -12q-62 0 -111 19.5t-82.5 56t-51 87.5t-17.5 114q0 73 22.5 138.5t58 121t80 99.5t89.5 74h207q-64 -46 -115 -87.5t-88.5 -83.5t-62 -85.5t-34.5 -93.5l9 -3q9 20 21.5 39t31 33.5t43.5 23.5t58 9q43 0 80.5 -15.5t65 -43.5t43 -68.5t15.5 -89.5q0 -54 -18.5 -99
t-53 -77.5t-82.5 -50.5t-108 -18zM304 105q50 0 78 27.5t28 78.5v18q0 51 -28 78.5t-78 27.5t-78 -27.5t-28 -78.5v-18q0 -51 28 -78.5t78 -27.5z" />
    <glyph glyph-name="seven" unicode="7"
d="M166 0l234 576h-218v-127h-127v249h494v-130l-225 -568h-158z" />
    <glyph glyph-name="eight" unicode="8"
d="M300 -12q-62 0 -110.5 15.5t-81.5 42.5t-50.5 64t-17.5 81q0 67 37 109.5t100 59.5v8q-51 19 -83.5 58t-32.5 100q0 40 15.5 74t46 58.5t75 38t102.5 13.5t102.5 -13.5t75 -38t46 -58.5t15.5 -74q0 -61 -32.5 -100t-83.5 -58v-8q63 -17 100 -59.5t37 -109.5
q0 -44 -17.5 -81t-50.5 -64t-81.5 -42.5t-110.5 -15.5zM300 103q50 0 76.5 23.5t26.5 65.5v20q0 42 -26.5 65.5t-76.5 23.5t-76.5 -23.5t-26.5 -65.5v-20q0 -42 26.5 -65.5t76.5 -23.5zM300 411q48 0 73 22.5t25 61.5v16q0 39 -25 61.5t-73 22.5t-73 -22.5t-25 -61.5v-16
q0 -39 25 -61.5t73 -22.5z" />
    <glyph glyph-name="nine" unicode="9"
d="M558 433q0 -74 -22.5 -139t-58 -120.5t-80 -99.5t-89.5 -74h-207q64 46 115 87.5t88.5 83.5t61.5 85.5t35 93.5l-9 3q-9 -20 -21.5 -39t-31 -33.5t-43.5 -23.5t-58 -9q-43 0 -80.5 15.5t-65 43.5t-43 68t-15.5 90q0 54 18.5 99t53 77.5t82.5 50.5t108 18q62 0 111 -19.5
t82.5 -56t51 -87.5t17.5 -114zM296 363q50 0 78 27.5t28 78.5v18q0 51 -28 78.5t-78 27.5t-78 -27.5t-28 -78.5v-18q0 -51 28 -78.5t78 -27.5z" />
    <glyph glyph-name="colon" unicode=":" horiz-adv-x="330"
d="M165 -11q-45 0 -66.5 22.5t-21.5 57.5v20q0 35 21.5 57.5t66.5 22.5t66.5 -22.5t21.5 -57.5v-20q0 -35 -21.5 -57.5t-66.5 -22.5zM165 356q-45 0 -66.5 22.5t-21.5 57.5v20q0 35 21.5 57.5t66.5 22.5t66.5 -22.5t21.5 -57.5v-20q0 -35 -21.5 -57.5t-66.5 -22.5z" />
    <glyph glyph-name="semicolon" unicode=";" horiz-adv-x="330"
d="M165 169q45 0 66.5 -22.5t21.5 -57.5v-20q0 -61 -29.5 -120t-77.5 -96h-100q35 33 60 65.5t38 72.5q-35 6 -51 27.5t-16 50.5v20q0 35 21.5 57.5t66.5 22.5zM165 356q-45 0 -66.5 22.5t-21.5 57.5v20q0 35 21.5 57.5t66.5 22.5t66.5 -22.5t21.5 -57.5v-20
q0 -35 -21.5 -57.5t-66.5 -22.5z" />
    <glyph glyph-name="less" unicode="&#x3c;"
d="M103 258v87l394 259v-149l-238 -150v-7l238 -150v-150z" />
    <glyph glyph-name="equal" unicode="="
d="M67 362v118h466v-118h-466zM67 130v118h466v-118h-466z" />
    <glyph glyph-name="greater" unicode="&#x3e;"
d="M103 148l238 150v7l-238 150v149l394 -258v-87l-394 -261v150z" />
    <glyph glyph-name="question" unicode="?" horiz-adv-x="500"
d="M158 233v153q79 3 118.5 26.5t39.5 79.5v14q0 38 -22.5 58t-58.5 20q-39 0 -64.5 -24t-34.5 -61l-122 51q9 30 26 58.5t44.5 51t66 36.5t89.5 14q52 0 95 -15t74 -42t47.5 -65t16.5 -84q0 -42 -14 -76t-38 -59.5t-56 -41.5t-67 -22v-72h-140zM230 -12q-48 0 -68.5 22
t-20.5 54v24q0 32 20.5 54t68.5 22t68.5 -22t20.5 -54v-24q0 -32 -20.5 -54t-68.5 -22z" />
    <glyph glyph-name="at" unicode="@" horiz-adv-x="903"
d="M672 -121h-210q-95 0 -169.5 30t-126 84.5t-78.5 130t-27 167.5q0 91 28 168t80 132.5t126 86.5t167 31q86 0 157 -26.5t121.5 -75t78 -118t27.5 -154.5q0 -120 -50.5 -186.5t-136.5 -66.5q-54 0 -88 26t-37 68h-5q-10 -42 -37.5 -67t-77.5 -25q-66 0 -110 52.5
t-44 154.5t44 154.5t110 52.5q42 0 68 -22.5t35 -55.5h5v69h111v-269q0 -50 44 -50q34 0 55 36.5t21 113.5v28q0 64 -21.5 115t-60 86t-92 54t-117.5 19q-71 0 -127.5 -23t-97 -64.5t-62 -99t-21.5 -125.5v-38q0 -68 21.5 -124.5t62 -96.5t97 -62t127.5 -22h210v-88z
M455 175q26 0 46.5 19.5t20.5 42.5v116q0 23 -20.5 38.5t-46.5 15.5q-36 0 -57.5 -23t-21.5 -59v-68q0 -36 21.5 -59t57.5 -23z" />
    <glyph glyph-name="A" unicode="A" horiz-adv-x="685"
d="M507 0l-50 166h-233l-50 -166h-154l230 698h188l227 -698h-158zM342 560h-5l-77 -265h160z" />
    <glyph glyph-name="B" unicode="B" horiz-adv-x="667"
d="M77 698h339q87 0 135.5 -49t48.5 -130q0 -40 -10.5 -68t-28 -46t-41 -26.5t-50.5 -9.5v-6q25 0 52.5 -9t50.5 -28.5t38.5 -50.5t15.5 -76q0 -41 -13.5 -77.5t-37.5 -63.5t-57 -42.5t-72 -15.5h-370v698zM229 128h175q30 0 47.5 16.5t17.5 46.5v34q0 30 -17.5 46.5
t-47.5 16.5h-175v-160zM229 412h151q30 0 47 17t17 47v30q0 30 -17 47t-47 17h-151v-158z" />
    <glyph glyph-name="C" unicode="C" horiz-adv-x="651"
d="M359 -12q-71 0 -128 22.5t-97 67t-62 111t-22 155.5q0 88 22 156.5t62 115t97 70.5t128 24q97 0 160 -39.5t101 -124.5l-131 -68q-14 44 -43.5 70.5t-86.5 26.5q-67 0 -107.5 -43.5t-40.5 -126.5v-112q0 -83 40.5 -126.5t107.5 -43.5q56 0 89.5 30.5t49.5 73.5l124 -72
q-39 -80 -102.5 -123.5t-160.5 -43.5z" />
    <glyph glyph-name="D" unicode="D" horiz-adv-x="697"
d="M77 698h263q69 0 126 -22t97 -65.5t62 -109t22 -152.5t-22 -152.5t-62 -109t-97 -65.5t-126 -22h-263v698zM340 135q68 0 107 38t39 122v108q0 84 -39 122t-107 38h-111v-428h111z" />
    <glyph glyph-name="E" unicode="E" horiz-adv-x="607"
d="M77 0v698h475v-135h-323v-143h277v-134h-277v-151h323v-135h-475z" />
    <glyph glyph-name="F" unicode="F" horiz-adv-x="585"
d="M77 0v698h463v-135h-311v-143h265v-134h-265v-286h-152z" />
    <glyph glyph-name="G" unicode="G" horiz-adv-x="719"
d="M520 111h-5q-8 -53 -54 -88t-125 -35q-60 0 -112 23t-91 68t-61 112t-22 155t23 156t64.5 114t99.5 70t129 24q94 0 162 -40.5t107 -121.5l-124 -71q-16 41 -50 69.5t-95 28.5q-71 0 -113 -41t-42 -129v-112q0 -87 42 -128.5t113 -41.5q28 0 53 6.5t44 20t29.5 32.5
t10.5 45v35h-130v127h275v-389h-128v111z" />
    <glyph glyph-name="H" unicode="H" horiz-adv-x="724"
d="M495 286h-266v-286h-152v698h152v-278h266v278h152v-698h-152v286z" />
    <glyph glyph-name="I" unicode="I" horiz-adv-x="432"
d="M50 0v121h90v456h-90v121h332v-121h-90v-456h90v-121h-332z" />
    <glyph glyph-name="J" unicode="J" horiz-adv-x="559"
d="M486 698v-496q0 -48 -15.5 -87.5t-45.5 -67t-72.5 -43t-96.5 -15.5q-52 0 -91.5 14t-68 40t-46.5 62t-25 80l142 28q17 -91 87 -91q33 0 56.5 21t23.5 66v367h-212v122h364z" />
    <glyph glyph-name="K" unicode="K" horiz-adv-x="696"
d="M320 304l-91 -110v-194h-152v698h152v-332h6l99 135l157 197h172l-235 -287l256 -411h-179z" />
    <glyph glyph-name="L" unicode="L" horiz-adv-x="530"
d="M77 0v698h152v-563h266v-135h-418z" />
    <glyph glyph-name="M" unicode="M" horiz-adv-x="819"
d="M599 458h-3l-51 -102l-136 -247l-133 246l-53 110h-3v-465h-143v698h161l171 -327h2l169 327h162v-698h-143v458z" />
    <glyph glyph-name="N" unicode="N" horiz-adv-x="724"
d="M290 330l-67 140h-3v-470h-143v698h166l191 -330l67 -140h3v470h143v-698h-166z" />
    <glyph glyph-name="O" unicode="O" horiz-adv-x="714"
d="M357 -12q-69 0 -126 23t-97 68.5t-62 113t-22 156.5t22 156.5t62 113t97 68.5t126 23t126 -23t97 -68.5t62 -113t22 -156.5t-22 -156.5t-62 -113t-97 -68.5t-126 -23zM357 123q69 0 107.5 45t38.5 129v104q0 84 -38.5 129t-107.5 45t-107.5 -45t-38.5 -129v-104
q0 -84 38.5 -129t107.5 -45z" />
    <glyph glyph-name="P" unicode="P" horiz-adv-x="656"
d="M77 0v698h330q49 0 88 -16.5t66.5 -45.5t42.5 -70.5t15 -90.5q0 -50 -15 -91t-42.5 -70t-66.5 -45.5t-88 -16.5h-178v-252h-152zM229 384h160q34 0 53.5 17.5t19.5 51.5v44q0 34 -19.5 51.5t-53.5 17.5h-160v-182z" />
    <glyph glyph-name="Q" unicode="Q" horiz-adv-x="714"
d="M542 -184h-94q-81 0 -118 38t-37 110v29q-112 20 -177.5 109.5t-65.5 246.5q0 89 22 156.5t62 113t97 68.5t126 23t126 -23t97 -68.5t62 -113t22 -156.5q0 -152 -61.5 -241t-167.5 -112v-56h107v-124zM357 123q69 0 107.5 45t38.5 129v104q0 84 -38.5 129t-107.5 45
t-107.5 -45t-38.5 -129v-104q0 -84 38.5 -129t107.5 -45z" />
    <glyph glyph-name="R" unicode="R" horiz-adv-x="674"
d="M229 0h-152v698h331q48 0 87 -16t66.5 -45.5t42.5 -70.5t15 -91q0 -71 -31.5 -124t-95.5 -77l137 -274h-169l-122 256h-109v-256zM389 384q34 0 53.5 17.5t19.5 51.5v44q0 34 -19.5 51.5t-53.5 17.5h-160v-182h160z" />
    <glyph glyph-name="S" unicode="S" horiz-adv-x="624"
d="M303 -12q-92 0 -156 31.5t-109 81.5l100 101q71 -80 175 -80q56 0 83 23t27 61q0 29 -16 48.5t-65 26.5l-69 9q-111 14 -162.5 67t-51.5 141q0 47 18 86t51.5 67t82 43.5t110.5 15.5q79 0 139 -25t103 -73l-101 -102q-25 29 -60.5 47.5t-89.5 18.5q-51 0 -76 -18t-25 -50
q0 -36 19.5 -52t63.5 -23l69 -11q108 -17 160 -66.5t52 -140.5q0 -50 -18 -92t-52.5 -72t-85.5 -46.5t-116 -16.5z" />
    <glyph glyph-name="T" unicode="T" horiz-adv-x="584"
d="M368 563v-563h-152v563h-189v135h530v-135h-189z" />
    <glyph glyph-name="U" unicode="U" horiz-adv-x="694"
d="M221 698v-428q0 -74 29 -110.5t97 -36.5t97 36.5t29 110.5v428h148v-412q0 -77 -14.5 -133.5t-47.5 -93t-85 -54t-127 -17.5t-127 17.5t-85 54t-47.5 93t-14.5 133.5v412h148z" />
    <glyph glyph-name="V" unicode="V" horiz-adv-x="650"
d="M239 0l-225 698h154l104 -335l55 -219h3l53 219l104 335h149l-227 -698h-170z" />
    <glyph glyph-name="W" unicode="W" horiz-adv-x="973"
d="M187 0l-158 698h150l66 -335l37 -194h3l44 194l77 335h166l78 -335l43 -194h3l37 194l67 335h144l-162 -698h-173l-88 378l-34 153h-3l-35 -153l-88 -378h-174z" />
    <glyph glyph-name="X" unicode="X" horiz-adv-x="673"
d="M657 0h-176l-151 257h-3l-147 -257h-164l224 361l-213 337h177l136 -236h3l138 236h164l-215 -340z" />
    <glyph glyph-name="Y" unicode="Y" horiz-adv-x="649"
d="M248 0v273l-239 425h170l150 -278h2l144 278h165l-239 -424v-274h-153z" />
    <glyph glyph-name="Z" unicode="Z" horiz-adv-x="607"
d="M568 0h-529v135l344 428h-327v135h504v-135l-345 -428h353v-135z" />
    <glyph glyph-name="bracketleft" unicode="[" horiz-adv-x="334"
d="M77 -138v898h207v-104h-70v-690h70v-104h-207z" />
    <glyph glyph-name="backslash" unicode="\" horiz-adv-x="460"
d="M334 -151l-298 891h122l298 -891h-122z" />
    <glyph glyph-name="bracketright" unicode="]" horiz-adv-x="334"
d="M257 760v-898h-207v104h70v690h-70v104h207z" />
    <glyph glyph-name="asciicircum" unicode="^"
d="M440 277l-140 260h-6l-140 -260l-112 57l200 364h120l197 -364z" />
    <glyph glyph-name="underscore" unicode="_" horiz-adv-x="556"
d="M30 -190v123h496v-123h-496z" />
    <glyph glyph-name="grave" unicode="`"
d="M150 755l123 61l99 -194l-88 -43z" />
    <glyph glyph-name="a" unicode="a" horiz-adv-x="569"
d="M457 0q-40 0 -66.5 25t-33.5 67h-6q-12 -51 -53 -77.5t-101 -26.5q-79 0 -121 42t-42 111q0 83 60.5 123.5t164.5 40.5h83v33q0 38 -20 60.5t-67 22.5q-44 0 -70 -19t-43 -43l-88 78q32 47 80.5 73.5t131.5 26.5q112 0 168 -49t56 -143v-230h49v-115h-82zM252 91
q37 0 63.5 16t26.5 52v62h-72q-87 0 -87 -59v-15q0 -29 18 -42.5t51 -13.5z" />
    <glyph glyph-name="b" unicode="b" horiz-adv-x="608"
d="M69 740h148v-303h5q11 44 50.5 72t90.5 28q100 0 151 -70t51 -204t-51 -204.5t-151 -70.5q-26 0 -49 7.5t-41.5 21t-31.5 32t-19 39.5h-5v-88h-148v740zM314 108q42 0 69.5 29.5t27.5 79.5v91q0 50 -27.5 79.5t-69.5 29.5t-69.5 -20.5t-27.5 -56.5v-155q0 -36 27.5 -56.5
t69.5 -20.5z" />
    <glyph glyph-name="c" unicode="c" horiz-adv-x="517"
d="M281 -12q-59 0 -105 19.5t-77 55t-47 86.5t-16 114t16 113.5t47 86.5t77 55t105 19q80 0 133.5 -36t76.5 -101l-120 -52q-7 30 -29 51t-61 21q-45 0 -68 -29.5t-23 -79.5v-98q0 -50 23 -79t68 -29q40 0 63.5 21.5t34.5 56.5l115 -50q-26 -75 -80.5 -110t-132.5 -35z" />
    <glyph glyph-name="d" unicode="d" horiz-adv-x="608"
d="M391 88h-5q-6 -21 -19 -39.5t-31.5 -32t-42 -21t-48.5 -7.5q-100 0 -151 70.5t-51 204.5t51 204t151 70q51 0 90.5 -28t50.5 -72h5v303h148v-740h-148v88zM294 108q42 0 69.5 20.5t27.5 56.5v155q0 36 -27.5 56.5t-69.5 20.5t-69.5 -29.5t-27.5 -79.5v-91
q0 -50 27.5 -79.5t69.5 -29.5z" />
    <glyph glyph-name="e" unicode="e" horiz-adv-x="562"
d="M288 -12q-60 0 -107 19.5t-79.5 55t-49 86.5t-16.5 114q0 62 16 112.5t47.5 86.5t77.5 55.5t105 19.5q65 0 111.5 -22t76 -59t43 -85.5t13.5 -101.5v-44h-337v-8q0 -52 28 -82.5t88 -30.5q46 0 75 18.5t54 44.5l74 -92q-35 -41 -91.5 -64t-128.5 -23zM285 428
q-45 0 -70.5 -29.5t-25.5 -78.5v-8h184v9q0 48 -21.5 77.5t-66.5 29.5z" />
    <glyph glyph-name="f" unicode="f" horiz-adv-x="361"
d="M95 410h-74v115h74v62q0 76 40 114.5t117 38.5h96v-115h-105v-100h105v-115h-105v-410h-148v410z" />
    <glyph glyph-name="g" unicode="g" horiz-adv-x="552"
d="M555 -38q0 -42 -14.5 -74t-47.5 -54.5t-87.5 -34t-134.5 -11.5q-68 0 -115.5 8.5t-77 24t-43 38t-13.5 51.5q0 44 26 69t72 31v11q-38 7 -57 32.5t-19 59.5q0 21 8.5 36.5t22 27t31.5 18.5t36 11v4q-48 22 -71 60.5t-23 89.5q0 80 55.5 128.5t169.5 48.5q52 0 89 -10v20
q0 42 20.5 60.5t58.5 18.5h83v-110h-116v-6q46 -22 68 -60.5t22 -89.5q0 -79 -55.5 -126.5t-169.5 -47.5q-51 0 -93 11q-23 -15 -23 -42q0 -19 14.5 -29.5t48.5 -10.5h152q96 0 139.5 -40t43.5 -113zM416 -58q0 23 -18 35t-63 12h-180q-10 -10 -14.5 -22.5t-4.5 -24.5
q0 -29 25 -42.5t85 -13.5h60q60 0 85 13.5t25 42.5zM273 283q44 0 65.5 18.5t21.5 53.5v12q0 35 -21.5 53.5t-65.5 18.5t-65.5 -18.5t-21.5 -53.5v-12q0 -35 21.5 -53.5t65.5 -18.5z" />
    <glyph glyph-name="h" unicode="h" horiz-adv-x="596"
d="M69 740h148v-304h6q14 41 49 71t97 30q81 0 122.5 -54t41.5 -154v-329h-148v317q0 51 -16 75.5t-57 24.5q-18 0 -35 -4.5t-30.5 -14.5t-21.5 -24.5t-8 -33.5v-340h-148v740z" />
    <glyph glyph-name="i" unicode="i" horiz-adv-x="286"
d="M143 581q-45 0 -65.5 20.5t-20.5 52.5v22q0 32 20.5 52.5t65.5 20.5t65.5 -20.5t20.5 -52.5v-22q0 -32 -20.5 -52.5t-65.5 -20.5zM69 525h148v-525h-148v525z" />
    <glyph glyph-name="j" unicode="j" horiz-adv-x="286"
d="M69 525h148v-581q0 -70 -35 -107t-113 -37h-78v115h78v610zM143 581q-45 0 -65.5 20.5t-20.5 52.5v22q0 32 20.5 52.5t65.5 20.5t65.5 -20.5t20.5 -52.5v-22q0 -32 -20.5 -52.5t-65.5 -20.5z" />
    <glyph glyph-name="k" unicode="k" horiz-adv-x="577"
d="M69 740h148v-437h6l65 97l105 125h164l-175 -201l195 -324h-176l-118 222l-66 -74v-148h-148v740z" />
    <glyph glyph-name="l" unicode="l" horiz-adv-x="303"
d="M216 0q-76 0 -111.5 37t-35.5 107v596h148v-625h66v-115h-67z" />
    <glyph glyph-name="m" unicode="m" horiz-adv-x="894"
d="M69 0v525h148v-89h6q14 42 48 71.5t93 29.5q54 0 92 -27t55 -79h3q7 22 21.5 41.5t35.5 33.5t47 22.5t56 8.5q76 0 116.5 -54t40.5 -154v-329h-148v317q0 100 -72 100q-33 0 -60 -19t-27 -58v-340h-148v317q0 100 -72 100q-16 0 -31.5 -4.5t-28 -14.5t-20 -24.5
t-7.5 -33.5v-340h-148z" />
    <glyph glyph-name="n" unicode="n" horiz-adv-x="596"
d="M69 0v525h148v-89h6q14 41 49 71t97 30q81 0 122.5 -54t41.5 -154v-329h-148v317q0 51 -16 75.5t-57 24.5q-18 0 -35 -4.5t-30.5 -14.5t-21.5 -24.5t-8 -33.5v-340h-148z" />
    <glyph glyph-name="o" unicode="o" horiz-adv-x="564"
d="M282 -12q-58 0 -103.5 19t-77 55t-48.5 87t-17 114t17 114t48.5 86.5t77 54.5t103.5 19t103.5 -19t77 -54.5t48.5 -86.5t17 -114t-17 -114t-48.5 -87t-77 -55t-103.5 -19zM282 105q44 0 68 27t24 77v107q0 50 -24 77t-68 27t-68 -27t-24 -77v-107q0 -50 24 -77t68 -27z
" />
    <glyph glyph-name="p" unicode="p" horiz-adv-x="608"
d="M69 525h148v-88h5q11 44 50.5 72t90.5 28q100 0 151 -70t51 -204t-51 -204.5t-151 -70.5q-26 0 -49 7.5t-41.5 21t-31.5 32t-19 39.5h-5v-288h-148v725zM314 108q42 0 69.5 29.5t27.5 79.5v91q0 50 -27.5 79.5t-69.5 29.5t-69.5 -20.5t-27.5 -56.5v-155q0 -36 27.5 -56.5
t69.5 -20.5z" />
    <glyph glyph-name="q" unicode="q" horiz-adv-x="608"
d="M391 88h-5q-6 -21 -19 -39.5t-31.5 -32t-42 -21t-48.5 -7.5q-100 0 -151 70.5t-51 204.5t51 204t151 70q51 0 90.5 -28t50.5 -72h5v88h148v-725h-148v288zM294 108q42 0 69.5 20.5t27.5 56.5v155q0 36 -27.5 56.5t-69.5 20.5t-69.5 -29.5t-27.5 -79.5v-91
q0 -50 27.5 -79.5t69.5 -29.5z" />
    <glyph glyph-name="r" unicode="r" horiz-adv-x="404"
d="M69 0v525h148v-114h5q4 22 14 42.5t26.5 36.5t39.5 25.5t54 9.5h26v-138h-37q-65 0 -96.5 -17t-31.5 -63v-307h-148z" />
    <glyph glyph-name="s" unicode="s" horiz-adv-x="504"
d="M247 -12q-76 0 -128 24.5t-93 69.5l87 88q28 -31 62 -49t77 -18q44 0 61 13.5t17 36.5q0 37 -53 44l-57 7q-177 22 -177 162q0 38 14.5 69.5t41 54t64 35t84.5 12.5q41 0 72.5 -5.5t56 -16t45 -26t40.5 -34.5l-85 -87q-25 25 -56.5 39.5t-64.5 14.5q-38 0 -54 -12
t-16 -32q0 -21 11.5 -32.5t43.5 -16.5l59 -8q173 -23 173 -158q0 -38 -16 -70t-45.5 -55.5t-71 -36.5t-92.5 -13z" />
    <glyph glyph-name="t" unicode="t" horiz-adv-x="383"
d="M253 0q-77 0 -116.5 39t-39.5 114v257h-74v115h37q30 0 41 14.5t11 41.5v86h133v-142h104v-115h-104v-295h96v-115h-88z" />
    <glyph glyph-name="u" unicode="u" horiz-adv-x="596"
d="M379 88h-5q-7 -20 -18.5 -38t-29.5 -32t-42.5 -22t-56.5 -8q-81 0 -122.5 53.5t-41.5 153.5v330h148v-317q0 -48 17 -74t58 -26q17 0 34 5t30 14.5t21 23.5t8 33v341h148v-525h-148v88z" />
    <glyph glyph-name="v" unicode="v" horiz-adv-x="538"
d="M181 0l-172 525h146l65 -212l49 -190h8l49 190l63 212h140l-172 -525h-176z" />
    <glyph glyph-name="w" unicode="w" horiz-adv-x="841"
d="M19 525h143l51 -212l36 -160h4l42 160l60 212h135l61 -212l43 -160h4l36 160l51 212h137l-145 -525h-155l-64 222l-37 136h-3l-36 -136l-64 -222h-152z" />
    <glyph glyph-name="x" unicode="x" horiz-adv-x="560"
d="M18 0l173 267l-171 258h168l98 -165h4l95 165h156l-174 -263l175 -262h-168l-101 171h-4l-97 -171h-154z" />
    <glyph glyph-name="y" unicode="y" horiz-adv-x="534"
d="M390 525h138l-202 -606q-20 -61 -56.5 -90t-104.5 -29h-92v115h99l18 58l-184 552h147l77 -245l38 -152h6l39 152z" />
    <glyph glyph-name="z" unicode="z" horiz-adv-x="518"
d="M39 0v117l261 293h-252v115h424v-116l-262 -294h269v-115h-440z" />
    <glyph glyph-name="braceleft" unicode="{" horiz-adv-x="372"
d="M213 -138q-41 0 -69 26t-28 75v203q0 44 -27.5 66.5t-69.5 22.5v113q42 0 69.5 22.5t27.5 66.5v202q0 49 28 75t69 26h109v-104h-69v-215q0 -24 -8.5 -45.5t-22.5 -38.5t-33 -28.5t-40 -15.5v-4q21 -4 40 -15.5t33 -28.5t22.5 -38.5t8.5 -45.5v-215h69v-104h-109z" />
    <glyph glyph-name="bar" unicode="|" horiz-adv-x="402"
d="M138 -138v898h126v-898h-126z" />
    <glyph glyph-name="braceright" unicode="}" horiz-adv-x="372"
d="M159 760q41 0 69 -26t28 -75v-202q0 -44 27.5 -66.5t69.5 -22.5v-113q-42 0 -69.5 -22.5t-27.5 -66.5v-203q0 -49 -28 -75t-69 -26h-109v104h69v216q0 24 8.5 45.5t22.5 38.5t33 28.5t40 15.5v4q-21 4 -40 15.5t-33 28.5t-22.5 38.5t-8.5 45.5v214h-69v104h109z" />
    <glyph glyph-name="asciitilde" unicode="~"
d="M416 212q-37 0 -65 9.5t-61 26.5q-27 14 -53 23.5t-57 9.5q-23 0 -39.5 -6.5t-38.5 -20.5l-49 84q18 26 50 44t81 18q37 0 65 -9.5t61 -26.5q27 -14 53 -23.5t57 -9.5q23 0 39.5 6.5t38.5 20.5l49 -84q-18 -26 -50 -44t-81 -18z" />
    <glyph glyph-name="uni00A0" unicode="&#xa0;" horiz-adv-x="236"
 />
    <glyph glyph-name="exclamdown" unicode="&#xa1;" horiz-adv-x="320"
d="M82 -173v194l46 284h63l47 -284v-194h-156zM160 361q-48 0 -68.5 22t-20.5 54v24q0 32 20.5 54t68.5 22t68.5 -22t20.5 -54v-24q0 -32 -20.5 -54t-68.5 -22z" />
    <glyph glyph-name="cent" unicode="&#xa2;" horiz-adv-x="552"
d="M237 -114v107q-94 18 -145 87t-51 178t51.5 178.5t144.5 86.5v107h110v-106q61 -10 100 -42t61 -80l-106 -58q-10 22 -25.5 40t-38.5 27v-307q26 9 43.5 27.5t29.5 41.5l105 -59q-23 -48 -64.5 -80.5t-104.5 -41.5v-106h-110zM182 216q0 -40 16.5 -68.5t48.5 -41.5v304
q-32 -13 -48.5 -41.5t-16.5 -68.5v-84z" />
    <glyph glyph-name="sterling" unicode="&#xa3;" horiz-adv-x="582"
d="M66 0v136q38 17 60.5 48t22.5 74q0 18 -4 33h-111v120h66q-8 21 -13 44.5t-5 49.5q0 46 17.5 84t50.5 65t79 41.5t103 14.5q81 0 138.5 -30.5t97.5 -90.5l-110 -77q-28 36 -57 51.5t-65 15.5q-49 0 -75 -25.5t-26 -72.5q0 -20 4 -36.5t10 -33.5h196v-120h-150
q1 -7 1.5 -13.5t0.5 -14.5q0 -26 -7 -46.5t-18.5 -36t-25 -26t-26.5 -17.5v-9h334v-128h-488z" />
    <glyph glyph-name="currency" unicode="&#xa4;" horiz-adv-x="628"
d="M314 107q-38 0 -72 8t-60 22l-91 -92l-81 80l91 91q-32 55 -32 133t32 133l-91 91l81 80l91 -92q26 14 60 22t72 8t72 -8t60 -22l91 92l81 -80l-91 -91q32 -55 32 -133t-32 -133l91 -91l-81 -80l-91 92q-26 -14 -60 -22t-72 -8zM314 214q46 0 71.5 28t25.5 79v56
q0 51 -25.5 79t-71.5 28t-71.5 -28t-25.5 -79v-56q0 -51 25.5 -79t71.5 -28z" />
    <glyph glyph-name="yen" unicode="&#xa5;" horiz-adv-x="650"
d="M399 133v-133h-153v133h-168v90h168v68h-168v90h110l-169 317h172l138 -275h2l137 275h163l-174 -317h110v-90h-168v-68h168v-90h-168z" />
    <glyph glyph-name="brokenbar" unicode="&#xa6;" horiz-adv-x="402"
d="M138 401v359h126v-359h-126zM138 -138v359h126v-359h-126z" />
    <glyph glyph-name="section" unicode="&#xa7;" horiz-adv-x="569"
d="M488 13q0 -41 -16 -73t-44.5 -54.5t-68.5 -34.5t-88 -12q-52 0 -104 16t-95 56l72 88q26 -26 58 -40.5t71 -14.5q41 0 66 16t25 47q0 28 -21 43.5t-66 27.5l-77 21q-42 12 -71 28t-46.5 35.5t-25 41t-7.5 43.5q0 43 26 79t81 59v17q-35 23 -56 57.5t-21 81.5
q0 41 16 72.5t44.5 53t68.5 32.5t87 11q54 0 105.5 -15.5t95.5 -56.5l-73 -88q-26 26 -56.5 40.5t-74.5 14.5q-38 0 -63.5 -13.5t-25.5 -45.5q0 -26 21 -41t66 -27l77 -21q42 -12 71 -28.5t47 -36t25.5 -41.5t7.5 -44q0 -43 -26 -79t-82 -59v-16q35 -23 56 -57.5t21 -82.5z
M396 262q0 26 -16 47.5t-64 35.5l-76 21q-18 5 -32 10q-17 -20 -26.5 -40.5t-9.5 -43.5q0 -25 16 -46t64 -35l76 -21q8 -2 16.5 -5t16.5 -6q17 20 26 40t9 43z" />
    <glyph glyph-name="dieresis" unicode="&#xa8;"
d="M190 600q-45 0 -62.5 18.5t-17.5 44.5v25q0 26 17.5 44.5t62.5 18.5t62.5 -18.5t17.5 -44.5v-25q0 -26 -17.5 -44.5t-62.5 -18.5zM410 600q-45 0 -62.5 18.5t-17.5 44.5v25q0 26 17.5 44.5t62.5 18.5t62.5 -18.5t17.5 -44.5v-25q0 -26 -17.5 -44.5t-62.5 -18.5z" />
    <glyph glyph-name="copyright" unicode="&#xa9;" horiz-adv-x="792"
d="M396 -12q-76 0 -140 25t-110 72t-72 113.5t-26 150.5t26 150.5t72 113.5t110 72t140 25t140 -25t110 -72t72 -113.5t26 -150.5t-26 -150.5t-72 -113.5t-110 -72t-140 -25zM396 52q60 0 110 20.5t86.5 55.5t57 83t20.5 104v68q0 55 -20.5 103.5t-57 83.5t-86.5 55.5
t-110 20.5t-110 -20.5t-86.5 -55.5t-57 -83.5t-20.5 -103.5v-68q0 -56 20.5 -104t57 -83t86.5 -55.5t110 -20.5zM403 134q-49 0 -87.5 15.5t-65.5 43.5t-41 67.5t-14 88.5t14 88.5t41 67.5t65.5 43.5t87.5 15.5q73 0 117 -31t64 -82l-100 -48q-12 26 -30 42t-51 16
t-52 -19.5t-19 -52.5v-80q0 -33 19 -52.5t52 -19.5t54 16.5t34 41.5l101 -47q-11 -23 -26.5 -43.5t-38.5 -36.5t-53.5 -25t-70.5 -9z" />
    <glyph glyph-name="ordfeminine" unicode="&#xaa;" horiz-adv-x="449"
d="M405 330h-60q-25 0 -46.5 13.5t-26.5 50.5h-4q-10 -35 -38.5 -52.5t-69.5 -17.5q-51 0 -82.5 28.5t-31.5 80.5q0 57 41 84t119 27h56v19q0 33 -14 49t-49 16q-32 0 -52.5 -12.5t-34.5 -32.5l-56 50q18 32 56.5 51.5t98.5 19.5q72 0 113.5 -34t41.5 -103v-162h39v-75z
M209 488q-62 0 -62 -43v-14q0 -20 14.5 -29.5t38.5 -9.5q26 0 44 13t18 39v44h-53z" />
    <glyph glyph-name="guillemotleft" unicode="&#xab;" horiz-adv-x="558"
d="M224 49l-186 160v126l186 160l43 -92l-120 -131l120 -131zM465 49l-186 160v126l186 160l43 -92l-120 -131l120 -131z" />
    <glyph glyph-name="logicalnot" unicode="&#xac;"
d="M412 78v169h-360v118h481v-287h-121z" />
    <glyph glyph-name="uni00AD" unicode="&#xad;" horiz-adv-x="403"
d="M53 233v144h297v-144h-297z" />
    <glyph glyph-name="registered" unicode="&#xae;" horiz-adv-x="464"
d="M232 298q-42 0 -79 15.5t-64.5 43t-43 65.5t-15.5 82t15.5 82t43 65.5t64.5 43t79 15.5t79 -15.5t64.5 -43t43 -65.5t15.5 -82t-15.5 -82t-43 -65.5t-64.5 -43t-79 -15.5zM232 345q30 0 57 9.5t47 28t32 45t12 60.5v32q0 34 -12 60.5t-32 45t-47 28t-57 9.5t-57 -9.5
t-47 -28t-32 -45t-12 -60.5v-32q0 -34 12 -60.5t32 -45t47 -28t57 -9.5zM209 400h-64v209h102q42 0 61 -20t19 -50q0 -25 -10 -41.5t-27 -24.5l43 -73h-69l-32 61h-23v-61zM234 508q28 0 28 23v7q0 23 -28 23h-25v-53h25z" />
    <glyph glyph-name="macron" unicode="&#xaf;"
d="M147 727h306v-103h-306v103z" />
    <glyph glyph-name="degree" unicode="&#xb0;" horiz-adv-x="470"
d="M235 334q-39 0 -73 14t-59 39.5t-39 59.5t-14 75q0 40 14 74.5t39 60t59 39.5t73 14t73 -14t59 -39.5t39 -60t14 -74.5q0 -41 -14 -75t-39 -59.5t-59 -39.5t-73 -14zM235 429q38 0 61 26.5t23 66.5t-23 66.5t-61 26.5t-61 -26.5t-23 -66.5t23 -66.5t61 -26.5z" />
    <glyph glyph-name="plusminus" unicode="&#xb1;"
d="M236 184v167h-169v119h169v165h128v-165h169v-119h-169v-167h-128zM67 0v119h466v-119h-466z" />
    <glyph glyph-name="twosuperior" unicode="&#xb2;" horiz-adv-x="347"
d="M322 329h-289v88l109 83q19 14 31.5 24.5t20.5 20t11.5 18.5t3.5 20v1q0 20 -14.5 27t-28.5 7q-25 0 -37.5 -13.5t-17.5 -31.5l-89 33q14 42 52.5 70t101.5 28q68 0 105 -32t37 -82q0 -26 -9.5 -47t-25.5 -38.5t-36.5 -32.5t-42.5 -27l-59 -33h177v-83z" />
    <glyph glyph-name="threesuperior" unicode="&#xb3;" horiz-adv-x="345"
d="M151 558q27 0 39 8t12 19v4q0 14 -11.5 25t-33.5 11q-21 0 -42.5 -11t-37.5 -32l-62 59q26 31 59 47t86 16q71 0 110.5 -28t39.5 -73q0 -35 -22.5 -56t-53.5 -25v-4q38 -6 60 -28t22 -57q0 -51 -43.5 -80.5t-113.5 -29.5q-65 0 -100 22t-55 53l76 58q11 -23 30 -38.5
t49 -15.5q23 0 36.5 11t13.5 29v2q0 17 -17 24.5t-44 7.5h-31v82h34z" />
    <glyph glyph-name="acute" unicode="&#xb4;"
d="M316 579l-88 43l99 194l123 -61z" />
    <glyph glyph-name="mu" unicode="&#xb5;" horiz-adv-x="602"
d="M69 -200v725h148v-319q0 -48 17 -73t57 -25q18 0 34.5 5t30 14.5t21.5 24t8 33.5v340h148v-525h-148v88h-5q-13 -41 -42 -70.5t-74 -29.5q-29 0 -46.5 12t-25.5 30h-5l30 -136v-94h-148z" />
    <glyph glyph-name="paragraph" unicode="&#xb6;" horiz-adv-x="677"
d="M242 260q-44 0 -82.5 17.5t-67 47t-45 69.5t-16.5 85t16.5 85t45 69.5t67 47t82.5 17.5h382v-106h-66v-741h-109v741h-98v-741h-109v409z" />
    <glyph glyph-name="periodcentered" unicode="&#xb7;" horiz-adv-x="358"
d="M179 213q-45 0 -66.5 22.5t-21.5 57.5v20q0 35 21.5 57.5t66.5 22.5t66.5 -22.5t21.5 -57.5v-20q0 -35 -21.5 -57.5t-66.5 -22.5z" />
    <glyph glyph-name="cedilla" unicode="&#xb8;"
d="M314 -212q-52 0 -81.5 14.5t-42.5 29.5l46 56q10 -12 26.5 -20.5t39.5 -8.5q19 0 31.5 6t12.5 19q0 6 -3 12t-11.5 11.5t-23 10t-37.5 6.5l-21 2l22 104h67l-18 -85l4 -4q12 3 24 5t24 2q30 0 51.5 -16t21.5 -53q0 -26 -11 -43t-29.5 -28t-42.5 -15.5t-49 -4.5z" />
    <glyph glyph-name="onesuperior" unicode="&#xb9;" horiz-adv-x="344"
d="M49 329v79h93v210h-6l-61 -83l-67 48l85 115h150v-290h81v-79h-275z" />
    <glyph glyph-name="ordmasculine" unicode="&#xba;" horiz-adv-x="433"
d="M217 324q-85 0 -132 51t-47 139t47 139t132 51t132 -51t47 -139t-47 -139t-132 -51zM217 402q34 0 53 20.5t19 62.5v58q0 42 -19 62.5t-53 20.5t-53 -20.5t-19 -62.5v-58q0 -42 19 -62.5t53 -20.5z" />
    <glyph glyph-name="guillemotright" unicode="&#xbb;" horiz-adv-x="558"
d="M50 141l120 131l-120 131l43 92l186 -160v-126l-186 -160zM291 141l120 131l-120 131l43 92l186 -160v-126l-186 -160z" />
    <glyph glyph-name="onequarter" unicode="&#xbc;" horiz-adv-x="837"
d="M49 329v79h93v210h-6l-61 -83l-67 48l85 115h150v-290h81v-79h-275zM114 0l529 698h108l-529 -698h-108zM674 0v70h-166v85l149 214h115v-223h46v-76h-46v-70h-98zM674 259h-7l-80 -113h87v113z" />
    <glyph glyph-name="onehalf" unicode="&#xbd;" horiz-adv-x="859"
d="M49 329v79h93v210h-6l-61 -83l-67 48l85 115h150v-290h81v-79h-275zM114 0l529 698h108l-529 -698h-108zM834 0h-289v88l109 83q19 14 31.5 24.5t20.5 20t11.5 18.5t3.5 20v1q0 20 -14.5 27t-28.5 7q-25 0 -37.5 -13.5t-17.5 -31.5l-89 33q14 42 52.5 70t101.5 28
q68 0 105 -32t37 -82q0 -26 -9.5 -47t-25.5 -38.5t-36.5 -32.5t-42.5 -27l-59 -33h177v-83z" />
    <glyph glyph-name="threequarters" unicode="&#xbe;" horiz-adv-x="828"
d="M151 558q27 0 39 8t12 19v4q0 14 -11.5 25t-33.5 11q-21 0 -42.5 -11t-37.5 -32l-62 59q26 31 59 47t86 16q71 0 110.5 -28t39.5 -73q0 -35 -22.5 -56t-53.5 -25v-4q38 -6 60 -28t22 -57q0 -51 -43.5 -80.5t-113.5 -29.5q-65 0 -100 22t-55 53l76 58q11 -23 30 -38.5
t49 -15.5q23 0 36.5 11t13.5 29v2q0 17 -17 24.5t-44 7.5h-31v82h34zM105 0l529 698h108l-529 -698h-108zM665 0v70h-166v85l149 214h115v-223h46v-76h-46v-70h-98zM665 259h-7l-80 -113h87v113z" />
    <glyph glyph-name="questiondown" unicode="&#xbf;" horiz-adv-x="494"
d="M260 -185q-53 0 -95.5 15t-73.5 42t-47.5 65t-16.5 84q0 42 14 76t38 59.5t56 41.5t67 22v72h140v-153q-79 -3 -118.5 -26.5t-39.5 -79.5v-14q0 -38 22.5 -58t58.5 -20q39 0 64.5 24t34.5 61l122 -51q-9 -30 -26 -59t-44.5 -51.5t-66 -36t-89.5 -13.5zM270 361
q-48 0 -68.5 22t-20.5 54v24q0 32 20.5 54t68.5 22t68.5 -22t20.5 -54v-24q0 -32 -20.5 -54t-68.5 -22z" />
    <glyph glyph-name="Agrave" unicode="&#xc0;" horiz-adv-x="685"
d="M507 0l-50 166h-233l-50 -166h-154l230 698h188l227 -698h-158zM342 560h-5l-77 -265h160zM189 916l123 61l99 -194l-88 -43z" />
    <glyph glyph-name="Aacute" unicode="&#xc1;" horiz-adv-x="685"
d="M507 0l-50 166h-233l-50 -166h-154l230 698h188l227 -698h-158zM342 560h-5l-77 -265h160zM355 740l-88 43l99 194l123 -61z" />
    <glyph glyph-name="Acircumflex" unicode="&#xc2;" horiz-adv-x="685"
d="M507 0l-50 166h-233l-50 -166h-154l230 698h188l227 -698h-158zM342 560h-5l-77 -265h160zM401 956l132 -159l-73 -58l-121 115l-121 -115l-73 58l132 159h124z" />
    <glyph glyph-name="Atilde" unicode="&#xc3;" horiz-adv-x="685"
d="M507 0l-50 166h-233l-50 -166h-154l230 698h188l227 -698h-158zM342 560h-5l-77 -265h160zM415 762q-23 0 -40.5 6t-36.5 14q-22 9 -40 15.5t-38 6.5q-17 0 -30 -6t-29 -19l-52 68q18 27 46 45.5t68 18.5q23 0 40.5 -6t36.5 -14q22 -9 40 -15.5t38 -6.5q17 0 30 6t29 19
l52 -68q-18 -27 -46 -45.5t-68 -18.5z" />
    <glyph glyph-name="Adieresis" unicode="&#xc4;" horiz-adv-x="685"
d="M507 0l-50 166h-233l-50 -166h-154l230 698h188l227 -698h-158zM342 560h-5l-77 -265h160zM229 761q-45 0 -62.5 18.5t-17.5 44.5v25q0 26 17.5 44.5t62.5 18.5t62.5 -18.5t17.5 -44.5v-25q0 -26 -17.5 -44.5t-62.5 -18.5zM449 761q-45 0 -62.5 18.5t-17.5 44.5v25
q0 26 17.5 44.5t62.5 18.5t62.5 -18.5t17.5 -44.5v-25q0 -26 -17.5 -44.5t-62.5 -18.5z" />
    <glyph glyph-name="Aring" unicode="&#xc5;" horiz-adv-x="685"
d="M507 0l-50 166h-233l-50 -166h-154l230 698h188l227 -698h-158zM342 560h-5l-77 -265h160zM339 719q-31 0 -58 10.5t-47 29.5t-31.5 45.5t-11.5 57.5t11.5 57.5t31.5 45.5t47 29.5t58 10.5t58 -10.5t47 -29.5t31.5 -45.5t11.5 -57.5t-11.5 -57.5t-31.5 -45.5t-47 -29.5
t-58 -10.5zM339 794q25 0 38 14t13 37v34q0 23 -13 37t-38 14t-38 -14t-13 -37v-34q0 -23 13 -37t38 -14z" />
    <glyph glyph-name="AE" unicode="&#xc6;" horiz-adv-x="968"
d="M438 166h-209l-78 -166h-152l341 698h573v-135h-324v-143h278v-134h-278v-151h324v-135h-475v166zM415 563l-125 -268h148v268h-23z" />
    <glyph glyph-name="Ccedilla" unicode="&#xc7;" horiz-adv-x="651"
d="M359 575q-67 0 -107.5 -43.5t-40.5 -126.5v-112q0 -83 40.5 -126.5t107.5 -43.5q56 0 89.5 30.5t49.5 73.5l124 -72q-39 -80 -102 -123.5t-156 -43.5l-9 -43l4 -4q12 3 24 5t24 2q30 0 51.5 -16t21.5 -53q0 -26 -11 -43t-29.5 -28t-42.5 -15.5t-49 -4.5q-52 0 -81.5 14.5
t-42.5 29.5l46 56q10 -12 26.5 -20.5t39.5 -8.5q19 0 31.5 6t12.5 19q0 6 -3 12t-11.5 11.5t-23 10t-37.5 6.5l-21 2l14 67q-115 17 -181.5 105.5t-66.5 245.5q0 88 22 156.5t62 115t97 70.5t128 24q97 0 160 -39.5t101 -124.5l-131 -68q-14 44 -43.5 70.5t-86.5 26.5z" />
    <glyph glyph-name="Egrave" unicode="&#xc8;" horiz-adv-x="607"
d="M77 0v698h475v-135h-323v-143h277v-134h-277v-151h323v-135h-475zM165 916l123 61l99 -194l-88 -43z" />
    <glyph glyph-name="Eacute" unicode="&#xc9;" horiz-adv-x="607"
d="M77 0v698h475v-135h-323v-143h277v-134h-277v-151h323v-135h-475zM331 740l-88 43l99 194l123 -61z" />
    <glyph glyph-name="Ecircumflex" unicode="&#xca;" horiz-adv-x="607"
d="M77 0v698h475v-135h-323v-143h277v-134h-277v-151h323v-135h-475zM377 956l132 -159l-73 -58l-121 115l-121 -115l-73 58l132 159h124z" />
    <glyph glyph-name="Edieresis" unicode="&#xcb;" horiz-adv-x="607"
d="M77 0v698h475v-135h-323v-143h277v-134h-277v-151h323v-135h-475zM205 761q-45 0 -62.5 18.5t-17.5 44.5v25q0 26 17.5 44.5t62.5 18.5t62.5 -18.5t17.5 -44.5v-25q0 -26 -17.5 -44.5t-62.5 -18.5zM425 761q-45 0 -62.5 18.5t-17.5 44.5v25q0 26 17.5 44.5t62.5 18.5
t62.5 -18.5t17.5 -44.5v-25q0 -26 -17.5 -44.5t-62.5 -18.5z" />
    <glyph glyph-name="Igrave" unicode="&#xcc;" horiz-adv-x="432"
d="M50 0v121h90v456h-90v121h332v-121h-90v-456h90v-121h-332zM67 916l123 61l99 -194l-88 -43z" />
    <glyph glyph-name="Iacute" unicode="&#xcd;" horiz-adv-x="432"
d="M50 0v121h90v456h-90v121h332v-121h-90v-456h90v-121h-332zM233 740l-88 43l99 194l123 -61z" />
    <glyph glyph-name="Icircumflex" unicode="&#xce;" horiz-adv-x="432"
d="M50 0v121h90v456h-90v121h332v-121h-90v-456h90v-121h-332zM279 956l132 -159l-73 -58l-121 115l-121 -115l-73 58l132 159h124z" />
    <glyph glyph-name="Idieresis" unicode="&#xcf;" horiz-adv-x="432"
d="M50 0v121h90v456h-90v121h332v-121h-90v-456h90v-121h-332zM107 761q-45 0 -62.5 18.5t-17.5 44.5v25q0 26 17.5 44.5t62.5 18.5t62.5 -18.5t17.5 -44.5v-25q0 -26 -17.5 -44.5t-62.5 -18.5zM327 761q-45 0 -62.5 18.5t-17.5 44.5v25q0 26 17.5 44.5t62.5 18.5
t62.5 -18.5t17.5 -44.5v-25q0 -26 -17.5 -44.5t-62.5 -18.5z" />
    <glyph glyph-name="Eth" unicode="&#xd0;" horiz-adv-x="702"
d="M82 297h-75v114h75v287h263q69 0 126 -22t97 -65.5t62 -109t22 -152.5t-22 -152.5t-62 -109t-97 -65.5t-126 -22h-263v297zM345 135q68 0 107 38t39 122v108q0 84 -39 122t-107 38h-111v-152h119v-114h-119v-162h111z" />
    <glyph glyph-name="Ntilde" unicode="&#xd1;" horiz-adv-x="724"
d="M290 330l-67 140h-3v-470h-143v698h166l191 -330l67 -140h3v470h143v-698h-166zM437 762q-23 0 -40.5 6t-36.5 14q-22 9 -40 15.5t-38 6.5q-17 0 -30 -6t-29 -19l-52 68q18 27 46 45.5t68 18.5q23 0 40.5 -6t36.5 -14q22 -9 40 -15.5t38 -6.5q17 0 30 6t29 19l52 -68
q-18 -27 -46 -45.5t-68 -18.5z" />
    <glyph glyph-name="Ograve" unicode="&#xd2;" horiz-adv-x="714"
d="M357 -12q-69 0 -126 23t-97 68.5t-62 113t-22 156.5t22 156.5t62 113t97 68.5t126 23t126 -23t97 -68.5t62 -113t22 -156.5t-22 -156.5t-62 -113t-97 -68.5t-126 -23zM357 123q69 0 107.5 45t38.5 129v104q0 84 -38.5 129t-107.5 45t-107.5 -45t-38.5 -129v-104
q0 -84 38.5 -129t107.5 -45zM207 916l123 61l99 -194l-88 -43z" />
    <glyph glyph-name="Oacute" unicode="&#xd3;" horiz-adv-x="714"
d="M357 -12q-69 0 -126 23t-97 68.5t-62 113t-22 156.5t22 156.5t62 113t97 68.5t126 23t126 -23t97 -68.5t62 -113t22 -156.5t-22 -156.5t-62 -113t-97 -68.5t-126 -23zM357 123q69 0 107.5 45t38.5 129v104q0 84 -38.5 129t-107.5 45t-107.5 -45t-38.5 -129v-104
q0 -84 38.5 -129t107.5 -45zM373 740l-88 43l99 194l123 -61z" />
    <glyph glyph-name="Ocircumflex" unicode="&#xd4;" horiz-adv-x="714"
d="M357 -12q-69 0 -126 23t-97 68.5t-62 113t-22 156.5t22 156.5t62 113t97 68.5t126 23t126 -23t97 -68.5t62 -113t22 -156.5t-22 -156.5t-62 -113t-97 -68.5t-126 -23zM357 123q69 0 107.5 45t38.5 129v104q0 84 -38.5 129t-107.5 45t-107.5 -45t-38.5 -129v-104
q0 -84 38.5 -129t107.5 -45zM419 956l132 -159l-73 -58l-121 115l-121 -115l-73 58l132 159h124z" />
    <glyph glyph-name="Otilde" unicode="&#xd5;" horiz-adv-x="714"
d="M357 -12q-69 0 -126 23t-97 68.5t-62 113t-22 156.5t22 156.5t62 113t97 68.5t126 23t126 -23t97 -68.5t62 -113t22 -156.5t-22 -156.5t-62 -113t-97 -68.5t-126 -23zM357 123q69 0 107.5 45t38.5 129v104q0 84 -38.5 129t-107.5 45t-107.5 -45t-38.5 -129v-104
q0 -84 38.5 -129t107.5 -45zM433 762q-23 0 -40.5 6t-36.5 14q-22 9 -40 15.5t-38 6.5q-17 0 -30 -6t-29 -19l-52 68q18 27 46 45.5t68 18.5q23 0 40.5 -6t36.5 -14q22 -9 40 -15.5t38 -6.5q17 0 30 6t29 19l52 -68q-18 -27 -46 -45.5t-68 -18.5z" />
    <glyph glyph-name="Odieresis" unicode="&#xd6;" horiz-adv-x="714"
d="M357 -12q-69 0 -126 23t-97 68.5t-62 113t-22 156.5t22 156.5t62 113t97 68.5t126 23t126 -23t97 -68.5t62 -113t22 -156.5t-22 -156.5t-62 -113t-97 -68.5t-126 -23zM357 123q69 0 107.5 45t38.5 129v104q0 84 -38.5 129t-107.5 45t-107.5 -45t-38.5 -129v-104
q0 -84 38.5 -129t107.5 -45zM247 761q-45 0 -62.5 18.5t-17.5 44.5v25q0 26 17.5 44.5t62.5 18.5t62.5 -18.5t17.5 -44.5v-25q0 -26 -17.5 -44.5t-62.5 -18.5zM467 761q-45 0 -62.5 18.5t-17.5 44.5v25q0 26 17.5 44.5t62.5 18.5t62.5 -18.5t17.5 -44.5v-25
q0 -26 -17.5 -44.5t-62.5 -18.5z" />
    <glyph glyph-name="multiply" unicode="&#xd7;"
d="M300 217l-139 -146l-82 82l139 146l-139 146l82 82l139 -146l139 146l82 -82l-139 -146l139 -146l-82 -82z" />
    <glyph glyph-name="Oslash" unicode="&#xd8;" horiz-adv-x="714"
d="M357 -12q-84 0 -150 34l-53 -78l-92 59l61 90q-35 45 -54 109t-19 147q0 89 22 156.5t62 113t97 68.5t126 23q84 0 150 -34l53 78l92 -59l-61 -90q35 -45 54 -109t19 -147q0 -89 -22 -156.5t-62 -113t-97 -68.5t-126 -23zM204 294q0 -47 12 -83l223 354q-33 21 -82 21
q-72 0 -112.5 -47t-40.5 -135v-110zM510 404q0 47 -12 83l-223 -354q33 -21 82 -21q72 0 112.5 47t40.5 135v110z" />
    <glyph glyph-name="Ugrave" unicode="&#xd9;" horiz-adv-x="694"
d="M221 698v-428q0 -74 29 -110.5t97 -36.5t97 36.5t29 110.5v428h148v-412q0 -77 -14.5 -133.5t-47.5 -93t-85 -54t-127 -17.5t-127 17.5t-85 54t-47.5 93t-14.5 133.5v412h148zM197 916l123 61l99 -194l-88 -43z" />
    <glyph glyph-name="Uacute" unicode="&#xda;" horiz-adv-x="694"
d="M221 698v-428q0 -74 29 -110.5t97 -36.5t97 36.5t29 110.5v428h148v-412q0 -77 -14.5 -133.5t-47.5 -93t-85 -54t-127 -17.5t-127 17.5t-85 54t-47.5 93t-14.5 133.5v412h148zM363 740l-88 43l99 194l123 -61z" />
    <glyph glyph-name="Ucircumflex" unicode="&#xdb;" horiz-adv-x="694"
d="M221 698v-428q0 -74 29 -110.5t97 -36.5t97 36.5t29 110.5v428h148v-412q0 -77 -14.5 -133.5t-47.5 -93t-85 -54t-127 -17.5t-127 17.5t-85 54t-47.5 93t-14.5 133.5v412h148zM409 956l132 -159l-73 -58l-121 115l-121 -115l-73 58l132 159h124z" />
    <glyph glyph-name="Udieresis" unicode="&#xdc;" horiz-adv-x="694"
d="M221 698v-428q0 -74 29 -110.5t97 -36.5t97 36.5t29 110.5v428h148v-412q0 -77 -14.5 -133.5t-47.5 -93t-85 -54t-127 -17.5t-127 17.5t-85 54t-47.5 93t-14.5 133.5v412h148zM237 761q-45 0 -62.5 18.5t-17.5 44.5v25q0 26 17.5 44.5t62.5 18.5t62.5 -18.5t17.5 -44.5
v-25q0 -26 -17.5 -44.5t-62.5 -18.5zM457 761q-45 0 -62.5 18.5t-17.5 44.5v25q0 26 17.5 44.5t62.5 18.5t62.5 -18.5t17.5 -44.5v-25q0 -26 -17.5 -44.5t-62.5 -18.5z" />
    <glyph glyph-name="Yacute" unicode="&#xdd;" horiz-adv-x="649"
d="M248 0v273l-239 425h170l150 -278h2l144 278h165l-239 -424v-274h-153zM341 740l-88 43l99 194l123 -61z" />
    <glyph glyph-name="Thorn" unicode="&#xde;" horiz-adv-x="656"
d="M77 0v698h152v-120h178q49 0 88 -16.5t66.5 -46t42.5 -70.5t15 -90t-15 -90t-42.5 -70.5t-66.5 -46t-88 -16.5h-178v-132h-152zM229 264h160q34 0 53.5 17.5t19.5 51.5v44q0 34 -19.5 51.5t-53.5 17.5h-160v-182z" />
    <glyph glyph-name="germandbls" unicode="&#xdf;" horiz-adv-x="692"
d="M667 173q0 -43 -14.5 -77t-40 -58t-61 -37t-78.5 -13q-63 0 -110 18t-76 57l84 86q23 -27 47 -39t53 -12q27 0 43.5 14.5t16.5 42.5q0 26 -15.5 39.5t-50.5 24.5l-31 10q-52 17 -82 50.5t-30 94.5q0 60 37 100t104 55v2q0 58 -27.5 84.5t-82.5 26.5t-82.5 -26.5
t-27.5 -84.5v-531h-148v410h-74v115h74v4q0 52 18.5 93.5t52 70.5t80.5 44t103 15t102 -15t79 -43t51 -69.5t18 -93.5v-97h-56q-47 0 -66 -10.5t-19 -36.5q0 -24 15 -34.5t47 -21.5l31 -10q54 -17 85 -51.5t31 -96.5z" />
    <glyph glyph-name="agrave" unicode="&#xe0;" horiz-adv-x="569"
d="M457 0q-40 0 -66.5 25t-33.5 67h-6q-12 -51 -53 -77.5t-101 -26.5q-79 0 -121 42t-42 111q0 83 60.5 123.5t164.5 40.5h83v33q0 38 -20 60.5t-67 22.5q-44 0 -70 -19t-43 -43l-88 78q32 47 80.5 73.5t131.5 26.5q112 0 168 -49t56 -143v-230h49v-115h-82zM252 91
q37 0 63.5 16t26.5 52v62h-72q-87 0 -87 -59v-15q0 -29 18 -42.5t51 -13.5zM119 755l123 61l99 -194l-88 -43z" />
    <glyph glyph-name="aacute" unicode="&#xe1;" horiz-adv-x="569"
d="M457 0q-40 0 -66.5 25t-33.5 67h-6q-12 -51 -53 -77.5t-101 -26.5q-79 0 -121 42t-42 111q0 83 60.5 123.5t164.5 40.5h83v33q0 38 -20 60.5t-67 22.5q-44 0 -70 -19t-43 -43l-88 78q32 47 80.5 73.5t131.5 26.5q112 0 168 -49t56 -143v-230h49v-115h-82zM252 91
q37 0 63.5 16t26.5 52v62h-72q-87 0 -87 -59v-15q0 -29 18 -42.5t51 -13.5zM285 579l-88 43l99 194l123 -61z" />
    <glyph glyph-name="acircumflex" unicode="&#xe2;" horiz-adv-x="569"
d="M457 0q-40 0 -66.5 25t-33.5 67h-6q-12 -51 -53 -77.5t-101 -26.5q-79 0 -121 42t-42 111q0 83 60.5 123.5t164.5 40.5h83v33q0 38 -20 60.5t-67 22.5q-44 0 -70 -19t-43 -43l-88 78q32 47 80.5 73.5t131.5 26.5q112 0 168 -49t56 -143v-230h49v-115h-82zM252 91
q37 0 63.5 16t26.5 52v62h-72q-87 0 -87 -59v-15q0 -29 18 -42.5t51 -13.5zM331 795l132 -159l-73 -58l-121 115l-121 -115l-73 58l132 159h124z" />
    <glyph glyph-name="atilde" unicode="&#xe3;" horiz-adv-x="569"
d="M457 0q-40 0 -66.5 25t-33.5 67h-6q-12 -51 -53 -77.5t-101 -26.5q-79 0 -121 42t-42 111q0 83 60.5 123.5t164.5 40.5h83v33q0 38 -20 60.5t-67 22.5q-44 0 -70 -19t-43 -43l-88 78q32 47 80.5 73.5t131.5 26.5q112 0 168 -49t56 -143v-230h49v-115h-82zM252 91
q37 0 63.5 16t26.5 52v62h-72q-87 0 -87 -59v-15q0 -29 18 -42.5t51 -13.5zM345 601q-23 0 -40.5 6t-36.5 14q-22 9 -40 15.5t-38 6.5q-17 0 -30 -6t-29 -19l-52 68q18 27 46 45.5t68 18.5q23 0 40.5 -6t36.5 -14q22 -9 40 -15.5t38 -6.5q17 0 30 6t29 19l52 -68
q-18 -27 -46 -45.5t-68 -18.5z" />
    <glyph glyph-name="adieresis" unicode="&#xe4;" horiz-adv-x="569"
d="M457 0q-40 0 -66.5 25t-33.5 67h-6q-12 -51 -53 -77.5t-101 -26.5q-79 0 -121 42t-42 111q0 83 60.5 123.5t164.5 40.5h83v33q0 38 -20 60.5t-67 22.5q-44 0 -70 -19t-43 -43l-88 78q32 47 80.5 73.5t131.5 26.5q112 0 168 -49t56 -143v-230h49v-115h-82zM252 91
q37 0 63.5 16t26.5 52v62h-72q-87 0 -87 -59v-15q0 -29 18 -42.5t51 -13.5zM159 600q-45 0 -62.5 18.5t-17.5 44.5v25q0 26 17.5 44.5t62.5 18.5t62.5 -18.5t17.5 -44.5v-25q0 -26 -17.5 -44.5t-62.5 -18.5zM379 600q-45 0 -62.5 18.5t-17.5 44.5v25q0 26 17.5 44.5
t62.5 18.5t62.5 -18.5t17.5 -44.5v-25q0 -26 -17.5 -44.5t-62.5 -18.5z" />
    <glyph glyph-name="aring" unicode="&#xe5;" horiz-adv-x="569"
d="M457 0q-40 0 -66.5 25t-33.5 67h-6q-12 -51 -53 -77.5t-101 -26.5q-79 0 -121 42t-42 111q0 83 60.5 123.5t164.5 40.5h83v33q0 38 -20 60.5t-67 22.5q-44 0 -70 -19t-43 -43l-88 78q32 47 80.5 73.5t131.5 26.5q112 0 168 -49t56 -143v-230h49v-115h-82zM252 91
q37 0 63.5 16t26.5 52v62h-72q-87 0 -87 -59v-15q0 -29 18 -42.5t51 -13.5zM269 558q-31 0 -58 10.5t-47 29.5t-31.5 45.5t-11.5 57.5t11.5 57.5t31.5 45.5t47 29.5t58 10.5t58 -10.5t47 -29.5t31.5 -45.5t11.5 -57.5t-11.5 -57.5t-31.5 -45.5t-47 -29.5t-58 -10.5zM269 633
q25 0 38 13.5t13 37.5v34q0 24 -13 37.5t-38 13.5t-38 -13.5t-13 -37.5v-34q0 -24 13 -37.5t38 -13.5z" />
    <glyph glyph-name="ae" unicode="&#xe6;" horiz-adv-x="864"
d="M270 225q-40 0 -63.5 -15t-23.5 -44v-14q0 -61 71 -61q35 0 61.5 16t26.5 52v66h-72zM675 312v9q0 48 -21.5 77.5t-66.5 29.5t-70.5 -29.5t-25.5 -78.5v-8h184zM610 106q46 0 76.5 19t52.5 42l74 -92q-35 -41 -91.5 -64t-128.5 -23q-75 0 -129 29.5t-75 73.5h-6
q-8 -21 -22.5 -40t-37 -33t-53.5 -22t-72 -8q-40 0 -70.5 11.5t-51.5 32.5t-31.5 49.5t-10.5 62.5q0 42 16.5 73.5t46.5 52.5t71.5 31.5t90.5 10.5h83v26q0 38 -20 60.5t-67 22.5q-44 0 -70 -19t-43 -43l-88 78q32 47 80.5 73.5t131.5 26.5q48 0 85.5 -17.5t62.5 -56.5h6
q24 38 67.5 56t100.5 18q65 0 111 -22t74.5 -59t41.5 -85.5t13 -101.5v-44h-338v-8q0 -51 31.5 -81t88.5 -30z" />
    <glyph glyph-name="ccedilla" unicode="&#xe7;" horiz-adv-x="517"
d="M281 537q80 0 133.5 -36t76.5 -101l-120 -52q-7 30 -29 51t-61 21q-45 0 -68 -29.5t-23 -79.5v-98q0 -50 23 -79t68 -29q40 0 63.5 21.5t34.5 56.5l115 -50q-26 -73 -78 -108t-125 -37l-9 -43l4 -4q12 3 24 5t24 2q30 0 51.5 -16t21.5 -53q0 -26 -11 -43t-29.5 -28
t-42.5 -15.5t-49 -4.5q-52 0 -81.5 14.5t-42.5 29.5l46 56q10 -12 26.5 -20.5t39.5 -8.5q19 0 31.5 6t12.5 19q0 6 -3 12t-11.5 11.5t-23 10t-37.5 6.5l-21 2l14 67q-92 17 -140.5 88t-48.5 182q0 63 16 113.5t47 86.5t77 55t105 19z" />
    <glyph glyph-name="egrave" unicode="&#xe8;" horiz-adv-x="562"
d="M288 -12q-60 0 -107 19.5t-79.5 55t-49 86.5t-16.5 114q0 62 16 112.5t47.5 86.5t77.5 55.5t105 19.5q65 0 111.5 -22t76 -59t43 -85.5t13.5 -101.5v-44h-337v-8q0 -52 28 -82.5t88 -30.5q46 0 75 18.5t54 44.5l74 -92q-35 -41 -91.5 -64t-128.5 -23zM285 428
q-45 0 -70.5 -29.5t-25.5 -78.5v-8h184v9q0 48 -21.5 77.5t-66.5 29.5zM138 755l123 61l99 -194l-88 -43z" />
    <glyph glyph-name="eacute" unicode="&#xe9;" horiz-adv-x="562"
d="M288 -12q-60 0 -107 19.5t-79.5 55t-49 86.5t-16.5 114q0 62 16 112.5t47.5 86.5t77.5 55.5t105 19.5q65 0 111.5 -22t76 -59t43 -85.5t13.5 -101.5v-44h-337v-8q0 -52 28 -82.5t88 -30.5q46 0 75 18.5t54 44.5l74 -92q-35 -41 -91.5 -64t-128.5 -23zM285 428
q-45 0 -70.5 -29.5t-25.5 -78.5v-8h184v9q0 48 -21.5 77.5t-66.5 29.5zM304 579l-88 43l99 194l123 -61z" />
    <glyph glyph-name="ecircumflex" unicode="&#xea;" horiz-adv-x="562"
d="M288 -12q-60 0 -107 19.5t-79.5 55t-49 86.5t-16.5 114q0 62 16 112.5t47.5 86.5t77.5 55.5t105 19.5q65 0 111.5 -22t76 -59t43 -85.5t13.5 -101.5v-44h-337v-8q0 -52 28 -82.5t88 -30.5q46 0 75 18.5t54 44.5l74 -92q-35 -41 -91.5 -64t-128.5 -23zM285 428
q-45 0 -70.5 -29.5t-25.5 -78.5v-8h184v9q0 48 -21.5 77.5t-66.5 29.5zM350 795l132 -159l-73 -58l-121 115l-121 -115l-73 58l132 159h124z" />
    <glyph glyph-name="edieresis" unicode="&#xeb;" horiz-adv-x="562"
d="M288 -12q-60 0 -107 19.5t-79.5 55t-49 86.5t-16.5 114q0 62 16 112.5t47.5 86.5t77.5 55.5t105 19.5q65 0 111.5 -22t76 -59t43 -85.5t13.5 -101.5v-44h-337v-8q0 -52 28 -82.5t88 -30.5q46 0 75 18.5t54 44.5l74 -92q-35 -41 -91.5 -64t-128.5 -23zM285 428
q-45 0 -70.5 -29.5t-25.5 -78.5v-8h184v9q0 48 -21.5 77.5t-66.5 29.5zM178 600q-45 0 -62.5 18.5t-17.5 44.5v25q0 26 17.5 44.5t62.5 18.5t62.5 -18.5t17.5 -44.5v-25q0 -26 -17.5 -44.5t-62.5 -18.5zM398 600q-45 0 -62.5 18.5t-17.5 44.5v25q0 26 17.5 44.5t62.5 18.5
t62.5 -18.5t17.5 -44.5v-25q0 -26 -17.5 -44.5t-62.5 -18.5z" />
    <glyph glyph-name="igrave" unicode="&#xec;" horiz-adv-x="286"
d="M69 0v525h148v-525h-148zM-6 755l123 61l99 -194l-88 -43z" />
    <glyph glyph-name="iacute" unicode="&#xed;" horiz-adv-x="286"
d="M69 0v525h148v-525h-148zM160 579l-88 43l99 194l123 -61z" />
    <glyph glyph-name="icircumflex" unicode="&#xee;" horiz-adv-x="286"
d="M69 0v525h148v-525h-148zM206 795l132 -159l-73 -58l-121 115l-121 -115l-73 58l132 159h124z" />
    <glyph glyph-name="idieresis" unicode="&#xef;" horiz-adv-x="286"
d="M69 0v525h148v-525h-148zM34 600q-45 0 -62.5 18.5t-17.5 44.5v25q0 26 17.5 44.5t62.5 18.5t62.5 -18.5t17.5 -44.5v-25q0 -26 -17.5 -44.5t-62.5 -18.5zM254 600q-45 0 -62.5 18.5t-17.5 44.5v25q0 26 17.5 44.5t62.5 18.5t62.5 -18.5t17.5 -44.5v-25
q0 -26 -17.5 -44.5t-62.5 -18.5z" />
    <glyph glyph-name="eth" unicode="&#xf0;" horiz-adv-x="603"
d="M479 693l-73 -44q72 -75 110.5 -168.5t38.5 -202.5q0 -76 -18.5 -131t-52 -90t-80 -52t-103.5 -17q-61 0 -109.5 18.5t-82 52.5t-51 83t-17.5 111q0 56 14 101.5t40 78t62.5 50t81.5 17.5q56 0 94 -26.5t62 -71.5l7 3q-14 48 -42.5 91.5t-69.5 84.5l-89 -53l-51 60l80 47
q-37 30 -77 56t-82 49h226q13 -8 25 -17.5t24 -18.5l83 49zM298 98q48 0 76 30.5t28 87.5v54q0 57 -28 87.5t-76 30.5t-76 -30.5t-28 -87.5v-54q0 -57 28 -87.5t76 -30.5z" />
    <glyph glyph-name="ntilde" unicode="&#xf1;" horiz-adv-x="596"
d="M69 0v525h148v-89h6q14 41 49 71t97 30q81 0 122.5 -54t41.5 -154v-329h-148v317q0 51 -16 75.5t-57 24.5q-18 0 -35 -4.5t-30.5 -14.5t-21.5 -24.5t-8 -33.5v-340h-148zM376 601q-23 0 -40.5 6t-36.5 14q-22 9 -40 15.5t-38 6.5q-17 0 -30 -6t-29 -19l-52 68
q18 27 46 45.5t68 18.5q23 0 40.5 -6t36.5 -14q22 -9 40 -15.5t38 -6.5q17 0 30 6t29 19l52 -68q-18 -27 -46 -45.5t-68 -18.5z" />
    <glyph glyph-name="ograve" unicode="&#xf2;" horiz-adv-x="564"
d="M282 -12q-58 0 -103.5 19t-77 55t-48.5 87t-17 114t17 114t48.5 86.5t77 54.5t103.5 19t103.5 -19t77 -54.5t48.5 -86.5t17 -114t-17 -114t-48.5 -87t-77 -55t-103.5 -19zM282 105q44 0 68 27t24 77v107q0 50 -24 77t-68 27t-68 -27t-24 -77v-107q0 -50 24 -77t68 -27z
M132 755l123 61l99 -194l-88 -43z" />
    <glyph glyph-name="oacute" unicode="&#xf3;" horiz-adv-x="564"
d="M282 -12q-58 0 -103.5 19t-77 55t-48.5 87t-17 114t17 114t48.5 86.5t77 54.5t103.5 19t103.5 -19t77 -54.5t48.5 -86.5t17 -114t-17 -114t-48.5 -87t-77 -55t-103.5 -19zM282 105q44 0 68 27t24 77v107q0 50 -24 77t-68 27t-68 -27t-24 -77v-107q0 -50 24 -77t68 -27z
M298 579l-88 43l99 194l123 -61z" />
    <glyph glyph-name="ocircumflex" unicode="&#xf4;" horiz-adv-x="564"
d="M282 -12q-58 0 -103.5 19t-77 55t-48.5 87t-17 114t17 114t48.5 86.5t77 54.5t103.5 19t103.5 -19t77 -54.5t48.5 -86.5t17 -114t-17 -114t-48.5 -87t-77 -55t-103.5 -19zM282 105q44 0 68 27t24 77v107q0 50 -24 77t-68 27t-68 -27t-24 -77v-107q0 -50 24 -77t68 -27z
M344 795l132 -159l-73 -58l-121 115l-121 -115l-73 58l132 159h124z" />
    <glyph glyph-name="otilde" unicode="&#xf5;" horiz-adv-x="564"
d="M282 -12q-58 0 -103.5 19t-77 55t-48.5 87t-17 114t17 114t48.5 86.5t77 54.5t103.5 19t103.5 -19t77 -54.5t48.5 -86.5t17 -114t-17 -114t-48.5 -87t-77 -55t-103.5 -19zM282 105q44 0 68 27t24 77v107q0 50 -24 77t-68 27t-68 -27t-24 -77v-107q0 -50 24 -77t68 -27z
M358 601q-23 0 -40.5 6t-36.5 14q-22 9 -40 15.5t-38 6.5q-17 0 -30 -6t-29 -19l-52 68q18 27 46 45.5t68 18.5q23 0 40.5 -6t36.5 -14q22 -9 40 -15.5t38 -6.5q17 0 30 6t29 19l52 -68q-18 -27 -46 -45.5t-68 -18.5z" />
    <glyph glyph-name="odieresis" unicode="&#xf6;" horiz-adv-x="564"
d="M282 -12q-58 0 -103.5 19t-77 55t-48.5 87t-17 114t17 114t48.5 86.5t77 54.5t103.5 19t103.5 -19t77 -54.5t48.5 -86.5t17 -114t-17 -114t-48.5 -87t-77 -55t-103.5 -19zM282 105q44 0 68 27t24 77v107q0 50 -24 77t-68 27t-68 -27t-24 -77v-107q0 -50 24 -77t68 -27z
M172 600q-45 0 -62.5 18.5t-17.5 44.5v25q0 26 17.5 44.5t62.5 18.5t62.5 -18.5t17.5 -44.5v-25q0 -26 -17.5 -44.5t-62.5 -18.5zM392 600q-45 0 -62.5 18.5t-17.5 44.5v25q0 26 17.5 44.5t62.5 18.5t62.5 -18.5t17.5 -44.5v-25q0 -26 -17.5 -44.5t-62.5 -18.5z" />
    <glyph glyph-name="divide" unicode="&#xf7;"
d="M67 247v118h465v-118h-465zM300 28q-47 0 -67 20.5t-20 48.5v24q0 28 20 48.5t67 20.5t67 -20.5t20 -48.5v-24q0 -28 -20 -48.5t-67 -20.5zM300 420q-47 0 -67 20.5t-20 48.5v24q0 28 20 48.5t67 20.5t67 -20.5t20 -48.5v-24q0 -28 -20 -48.5t-67 -20.5z" />
    <glyph glyph-name="oslash" unicode="&#xf8;" horiz-adv-x="572"
d="M14 10l67 83q-41 68 -41 170q0 63 17 114t48.5 86.5t77 54.5t103.5 19q75 0 132 -34l60 72l80 -60l-68 -84q42 -66 42 -169q0 -63 -17 -114t-48.5 -86.5t-77 -54.5t-103.5 -19q-38 0 -71.5 8.5t-60.5 24.5l-60 -71zM286 96q46 0 71.5 32t25.5 86v98l-161 -193
q25 -23 64 -23zM189 214l160 192q-25 23 -63 23q-46 0 -71.5 -32t-25.5 -86v-97z" />
    <glyph glyph-name="ugrave" unicode="&#xf9;" horiz-adv-x="596"
d="M379 88h-5q-7 -20 -18.5 -38t-29.5 -32t-42.5 -22t-56.5 -8q-81 0 -122.5 53.5t-41.5 153.5v330h148v-317q0 -48 17 -74t58 -26q17 0 34 5t30 14.5t21 23.5t8 33v341h148v-525h-148v88zM146 755l123 61l99 -194l-88 -43z" />
    <glyph glyph-name="uacute" unicode="&#xfa;" horiz-adv-x="596"
d="M379 88h-5q-7 -20 -18.5 -38t-29.5 -32t-42.5 -22t-56.5 -8q-81 0 -122.5 53.5t-41.5 153.5v330h148v-317q0 -48 17 -74t58 -26q17 0 34 5t30 14.5t21 23.5t8 33v341h148v-525h-148v88zM312 579l-88 43l99 194l123 -61z" />
    <glyph glyph-name="ucircumflex" unicode="&#xfb;" horiz-adv-x="596"
d="M379 88h-5q-7 -20 -18.5 -38t-29.5 -32t-42.5 -22t-56.5 -8q-81 0 -122.5 53.5t-41.5 153.5v330h148v-317q0 -48 17 -74t58 -26q17 0 34 5t30 14.5t21 23.5t8 33v341h148v-525h-148v88zM358 795l132 -159l-73 -58l-121 115l-121 -115l-73 58l132 159h124z" />
    <glyph glyph-name="udieresis" unicode="&#xfc;" horiz-adv-x="596"
d="M379 88h-5q-7 -20 -18.5 -38t-29.5 -32t-42.5 -22t-56.5 -8q-81 0 -122.5 53.5t-41.5 153.5v330h148v-317q0 -48 17 -74t58 -26q17 0 34 5t30 14.5t21 23.5t8 33v341h148v-525h-148v88zM186 600q-45 0 -62.5 18.5t-17.5 44.5v25q0 26 17.5 44.5t62.5 18.5t62.5 -18.5
t17.5 -44.5v-25q0 -26 -17.5 -44.5t-62.5 -18.5zM406 600q-45 0 -62.5 18.5t-17.5 44.5v25q0 26 17.5 44.5t62.5 18.5t62.5 -18.5t17.5 -44.5v-25q0 -26 -17.5 -44.5t-62.5 -18.5z" />
    <glyph glyph-name="yacute" unicode="&#xfd;" horiz-adv-x="534"
d="M390 525h138l-202 -606q-20 -61 -56.5 -90t-104.5 -29h-92v115h99l18 58l-184 552h147l77 -245l38 -152h6l39 152zM288 579l-88 43l99 194l123 -61z" />
    <glyph glyph-name="thorn" unicode="&#xfe;" horiz-adv-x="608"
d="M69 740h148v-303h5q11 44 50.5 72t90.5 28q100 0 151 -70t51 -204t-51 -204.5t-151 -70.5q-26 0 -49 7.5t-41.5 21t-31.5 32t-19 39.5h-5v-288h-148v940zM314 108q42 0 69.5 29.5t27.5 79.5v91q0 50 -27.5 79.5t-69.5 29.5t-69.5 -20.5t-27.5 -56.5v-155
q0 -36 27.5 -56.5t69.5 -20.5z" />
    <glyph glyph-name="ydieresis" unicode="&#xff;" horiz-adv-x="534"
d="M390 525h138l-202 -606q-20 -61 -56.5 -90t-104.5 -29h-92v115h99l18 58l-184 552h147l77 -245l38 -152h6l39 152zM162 600q-45 0 -62.5 18.5t-17.5 44.5v25q0 26 17.5 44.5t62.5 18.5t62.5 -18.5t17.5 -44.5v-25q0 -26 -17.5 -44.5t-62.5 -18.5zM382 600
q-45 0 -62.5 18.5t-17.5 44.5v25q0 26 17.5 44.5t62.5 18.5t62.5 -18.5t17.5 -44.5v-25q0 -26 -17.5 -44.5t-62.5 -18.5z" />
    <glyph glyph-name="Amacron" unicode="&#x100;" horiz-adv-x="685"
d="M507 0l-50 166h-233l-50 -166h-154l230 698h188l227 -698h-158zM342 560h-5l-77 -265h160zM186 888h306v-103h-306v103z" />
    <glyph glyph-name="amacron" unicode="&#x101;" horiz-adv-x="569"
d="M457 0q-40 0 -66.5 25t-33.5 67h-6q-12 -51 -53 -77.5t-101 -26.5q-79 0 -121 42t-42 111q0 83 60.5 123.5t164.5 40.5h83v33q0 38 -20 60.5t-67 22.5q-44 0 -70 -19t-43 -43l-88 78q32 47 80.5 73.5t131.5 26.5q112 0 168 -49t56 -143v-230h49v-115h-82zM252 91
q37 0 63.5 16t26.5 52v62h-72q-87 0 -87 -59v-15q0 -29 18 -42.5t51 -13.5zM116 727h306v-103h-306v103z" />
    <glyph glyph-name="Abreve" unicode="&#x102;" horiz-adv-x="685"
d="M507 0l-50 166h-233l-50 -166h-154l230 698h188l227 -698h-158zM342 560h-5l-77 -265h160zM339 740q-44 0 -76 16.5t-54.5 41.5t-36.5 55t-23 57l81 42l19 -32q22 -37 42 -57t48 -20t48.5 20t42.5 57l19 32l80 -42q-9 -27 -24 -57t-37.5 -55t-54.5 -41.5t-74 -16.5z" />
    <glyph glyph-name="abreve" unicode="&#x103;" horiz-adv-x="569"
d="M457 0q-40 0 -66.5 25t-33.5 67h-6q-12 -51 -53 -77.5t-101 -26.5q-79 0 -121 42t-42 111q0 83 60.5 123.5t164.5 40.5h83v33q0 38 -20 60.5t-67 22.5q-44 0 -70 -19t-43 -43l-88 78q32 47 80.5 73.5t131.5 26.5q112 0 168 -49t56 -143v-230h49v-115h-82zM252 91
q37 0 63.5 16t26.5 52v62h-72q-87 0 -87 -59v-15q0 -29 18 -42.5t51 -13.5zM269 579q-44 0 -76 16.5t-54 41.5t-36.5 55t-23.5 57l81 42l20 -33q22 -36 42.5 -56t46.5 -20t47 20t43 56l20 33l80 -42q-9 -27 -24 -57t-38 -55t-54.5 -41.5t-73.5 -16.5z" />
    <glyph glyph-name="Aogonek" unicode="&#x104;" horiz-adv-x="685"
d="M250 698h188l227 -698q-37 -23 -59.5 -38.5t-34.5 -27.5t-16 -21t-4 -18q0 -19 11.5 -26t26.5 -7q18 0 31 8t24 20l53 -51q-13 -24 -43.5 -37.5t-78.5 -13.5q-25 0 -47.5 4.5t-39.5 14t-27 26t-10 40.5q0 42 31.5 69.5t87.5 53.5l-1 4h-62l-50 166h-233l-50 -166h-154z
M342 560h-5l-77 -265h160z" />
    <glyph glyph-name="aogonek" unicode="&#x105;" horiz-adv-x="569"
d="M539 0q-37 -23 -59.5 -38.5t-34.5 -27.5t-16 -21t-4 -18q0 -19 11.5 -26t26.5 -7q18 0 31 8t24 20l53 -51q-13 -24 -43.5 -37.5t-78.5 -13.5q-25 0 -47.5 4.5t-39.5 14t-27 26t-10 40.5q0 42 31.5 69.5t87.5 53.5l-2 5q-34 5 -56.5 29t-28.5 62h-6q-12 -51 -53 -77.5
t-101 -26.5q-79 0 -121 42t-42 111q0 83 60.5 123.5t164.5 40.5h83v33q0 38 -20 60.5t-67 22.5q-44 0 -70 -19t-43 -43l-88 78q32 47 80.5 73.5t131.5 26.5q112 0 168 -49t56 -143v-229h49v-116zM270 221q-87 0 -87 -59v-15q0 -29 18 -42.5t51 -13.5q37 0 63.5 16t26.5 52
v62h-72z" />
    <glyph glyph-name="Cacute" unicode="&#x106;" horiz-adv-x="651"
d="M359 -12q-71 0 -128 22.5t-97 67t-62 111t-22 155.5q0 88 22 156.5t62 115t97 70.5t128 24q97 0 160 -39.5t101 -124.5l-131 -68q-14 44 -43.5 70.5t-86.5 26.5q-67 0 -107.5 -43.5t-40.5 -126.5v-112q0 -83 40.5 -126.5t107.5 -43.5q56 0 89.5 30.5t49.5 73.5l124 -72
q-39 -80 -102.5 -123.5t-160.5 -43.5zM371 740l-88 43l99 194l123 -61z" />
    <glyph glyph-name="cacute" unicode="&#x107;" horiz-adv-x="517"
d="M281 -12q-59 0 -105 19.5t-77 55t-47 86.5t-16 114t16 113.5t47 86.5t77 55t105 19q80 0 133.5 -36t76.5 -101l-120 -52q-7 30 -29 51t-61 21q-45 0 -68 -29.5t-23 -79.5v-98q0 -50 23 -79t68 -29q40 0 63.5 21.5t34.5 56.5l115 -50q-26 -75 -80.5 -110t-132.5 -35z
M291 579l-88 43l99 194l123 -61z" />
    <glyph glyph-name="Ccircumflex" unicode="&#x108;" horiz-adv-x="651"
d="M359 -12q-71 0 -128 22.5t-97 67t-62 111t-22 155.5q0 88 22 156.5t62 115t97 70.5t128 24q97 0 160 -39.5t101 -124.5l-131 -68q-14 44 -43.5 70.5t-86.5 26.5q-67 0 -107.5 -43.5t-40.5 -126.5v-112q0 -83 40.5 -126.5t107.5 -43.5q56 0 89.5 30.5t49.5 73.5l124 -72
q-39 -80 -102.5 -123.5t-160.5 -43.5zM417 956l132 -159l-73 -58l-121 115l-121 -115l-73 58l132 159h124z" />
    <glyph glyph-name="ccircumflex" unicode="&#x109;" horiz-adv-x="517"
d="M281 -12q-59 0 -105 19.5t-77 55t-47 86.5t-16 114t16 113.5t47 86.5t77 55t105 19q80 0 133.5 -36t76.5 -101l-120 -52q-7 30 -29 51t-61 21q-45 0 -68 -29.5t-23 -79.5v-98q0 -50 23 -79t68 -29q40 0 63.5 21.5t34.5 56.5l115 -50q-26 -75 -80.5 -110t-132.5 -35z
M337 795l132 -159l-73 -58l-121 115l-121 -115l-73 58l132 159h124z" />
    <glyph glyph-name="Cdotaccent" unicode="&#x10a;" horiz-adv-x="651"
d="M359 -12q-71 0 -128 22.5t-97 67t-62 111t-22 155.5q0 88 22 156.5t62 115t97 70.5t128 24q97 0 160 -39.5t101 -124.5l-131 -68q-14 44 -43.5 70.5t-86.5 26.5q-67 0 -107.5 -43.5t-40.5 -126.5v-112q0 -83 40.5 -126.5t107.5 -43.5q56 0 89.5 30.5t49.5 73.5l124 -72
q-39 -80 -102.5 -123.5t-160.5 -43.5zM355 752q-50 0 -69.5 20.5t-19.5 49.5v29q0 29 19.5 49.5t69.5 20.5t69.5 -20.5t19.5 -49.5v-29q0 -29 -19.5 -49.5t-69.5 -20.5z" />
    <glyph glyph-name="cdotaccent" unicode="&#x10b;" horiz-adv-x="517"
d="M281 -12q-59 0 -105 19.5t-77 55t-47 86.5t-16 114t16 113.5t47 86.5t77 55t105 19q80 0 133.5 -36t76.5 -101l-120 -52q-7 30 -29 51t-61 21q-45 0 -68 -29.5t-23 -79.5v-98q0 -50 23 -79t68 -29q40 0 63.5 21.5t34.5 56.5l115 -50q-26 -75 -80.5 -110t-132.5 -35z
M275 591q-50 0 -69.5 20.5t-19.5 49.5v29q0 29 19.5 49.5t69.5 20.5t69.5 -20.5t19.5 -49.5v-29q0 -29 -19.5 -49.5t-69.5 -20.5z" />
    <glyph glyph-name="Ccaron" unicode="&#x10c;" horiz-adv-x="651"
d="M359 -12q-71 0 -128 22.5t-97 67t-62 111t-22 155.5q0 88 22 156.5t62 115t97 70.5t128 24q97 0 160 -39.5t101 -124.5l-131 -68q-14 44 -43.5 70.5t-86.5 26.5q-67 0 -107.5 -43.5t-40.5 -126.5v-112q0 -83 40.5 -126.5t107.5 -43.5q56 0 89.5 30.5t49.5 73.5l124 -72
q-39 -80 -102.5 -123.5t-160.5 -43.5zM293 748l-132 159l73 58l121 -115l121 115l73 -58l-132 -159h-124z" />
    <glyph glyph-name="ccaron" unicode="&#x10d;" horiz-adv-x="517"
d="M281 -12q-59 0 -105 19.5t-77 55t-47 86.5t-16 114t16 113.5t47 86.5t77 55t105 19q80 0 133.5 -36t76.5 -101l-120 -52q-7 30 -29 51t-61 21q-45 0 -68 -29.5t-23 -79.5v-98q0 -50 23 -79t68 -29q40 0 63.5 21.5t34.5 56.5l115 -50q-26 -75 -80.5 -110t-132.5 -35z
M213 587l-132 159l73 58l121 -115l121 115l73 -58l-132 -159h-124z" />
    <glyph glyph-name="Dcaron" unicode="&#x10e;" horiz-adv-x="697"
d="M77 698h263q69 0 126 -22t97 -65.5t62 -109t22 -152.5t-22 -152.5t-62 -109t-97 -65.5t-126 -22h-263v698zM340 135q68 0 107 38t39 122v108q0 84 -39 122t-107 38h-111v-428h111zM261 748l-132 159l73 58l121 -115l121 115l73 -58l-132 -159h-124z" />
    <glyph glyph-name="dcaron" unicode="&#x10f;" horiz-adv-x="682"
d="M391 88h-5q-6 -21 -19 -39.5t-31.5 -32t-42 -21t-48.5 -7.5q-100 0 -151 70.5t-51 204.5t51 204t151 70q51 0 90.5 -28t50.5 -72h5v303h148v-740h-148v88zM294 108q42 0 69.5 20.5t27.5 56.5v155q0 36 -27.5 56.5t-69.5 20.5t-69.5 -29.5t-27.5 -79.5v-91
q0 -50 27.5 -79.5t69.5 -29.5zM699 525h-97l6 215h157z" />
    <glyph glyph-name="Dcroat" unicode="&#x110;" horiz-adv-x="702"
d="M82 297h-75v114h75v287h263q69 0 126 -22t97 -65.5t62 -109t22 -152.5t-22 -152.5t-62 -109t-97 -65.5t-126 -22h-263v297zM345 135q68 0 107 38t39 122v108q0 84 -39 122t-107 38h-111v-152h119v-114h-119v-162h111z" />
    <glyph glyph-name="dcroat" unicode="&#x111;" horiz-adv-x="611"
d="M391 88h-5q-6 -21 -19 -39.5t-31.5 -32t-42 -21t-48.5 -7.5q-100 0 -151 70.5t-51 204.5t51 204t151 70q51 0 90.5 -28t50.5 -72h5v153h-141v100h141v50h148v-50h61v-100h-61v-590h-148v88zM294 108q42 0 69.5 20.5t27.5 56.5v155q0 36 -27.5 56.5t-69.5 20.5
t-69.5 -29.5t-27.5 -79.5v-91q0 -50 27.5 -79.5t69.5 -29.5z" />
    <glyph glyph-name="Emacron" unicode="&#x112;" horiz-adv-x="607"
d="M77 0v698h475v-135h-323v-143h277v-134h-277v-151h323v-135h-475zM162 888h306v-103h-306v103z" />
    <glyph glyph-name="emacron" unicode="&#x113;" horiz-adv-x="562"
d="M288 -12q-60 0 -107 19.5t-79.5 55t-49 86.5t-16.5 114q0 62 16 112.5t47.5 86.5t77.5 55.5t105 19.5q65 0 111.5 -22t76 -59t43 -85.5t13.5 -101.5v-44h-337v-8q0 -52 28 -82.5t88 -30.5q46 0 75 18.5t54 44.5l74 -92q-35 -41 -91.5 -64t-128.5 -23zM285 428
q-45 0 -70.5 -29.5t-25.5 -78.5v-8h184v9q0 48 -21.5 77.5t-66.5 29.5zM135 727h306v-103h-306v103z" />
    <glyph glyph-name="Ebreve" unicode="&#x114;" horiz-adv-x="607"
d="M77 0v698h475v-135h-323v-143h277v-134h-277v-151h323v-135h-475zM315 740q-44 0 -76 16.5t-54.5 41.5t-36.5 55t-23 57l81 42l19 -32q22 -37 42 -57t48 -20t48.5 20t42.5 57l19 32l80 -42q-9 -27 -24 -57t-37.5 -55t-54.5 -41.5t-74 -16.5z" />
    <glyph glyph-name="ebreve" unicode="&#x115;" horiz-adv-x="562"
d="M288 -12q-60 0 -107 19.5t-79.5 55t-49 86.5t-16.5 114q0 62 16 112.5t47.5 86.5t77.5 55.5t105 19.5q65 0 111.5 -22t76 -59t43 -85.5t13.5 -101.5v-44h-337v-8q0 -52 28 -82.5t88 -30.5q46 0 75 18.5t54 44.5l74 -92q-35 -41 -91.5 -64t-128.5 -23zM285 428
q-45 0 -70.5 -29.5t-25.5 -78.5v-8h184v9q0 48 -21.5 77.5t-66.5 29.5zM288 579q-44 0 -76 16.5t-54 41.5t-36.5 55t-23.5 57l81 42l20 -33q22 -36 42.5 -56t46.5 -20t47 20t43 56l20 33l80 -42q-9 -27 -24 -57t-38 -55t-54.5 -41.5t-73.5 -16.5z" />
    <glyph glyph-name="Edotaccent" unicode="&#x116;" horiz-adv-x="607"
d="M77 0v698h475v-135h-323v-143h277v-134h-277v-151h323v-135h-475zM315 752q-50 0 -69.5 20.5t-19.5 49.5v29q0 29 19.5 49.5t69.5 20.5t69.5 -20.5t19.5 -49.5v-29q0 -29 -19.5 -49.5t-69.5 -20.5z" />
    <glyph glyph-name="edotaccent" unicode="&#x117;" horiz-adv-x="562"
d="M288 -12q-60 0 -107 19.5t-79.5 55t-49 86.5t-16.5 114q0 62 16 112.5t47.5 86.5t77.5 55.5t105 19.5q65 0 111.5 -22t76 -59t43 -85.5t13.5 -101.5v-44h-337v-8q0 -52 28 -82.5t88 -30.5q46 0 75 18.5t54 44.5l74 -92q-35 -41 -91.5 -64t-128.5 -23zM285 428
q-45 0 -70.5 -29.5t-25.5 -78.5v-8h184v9q0 48 -21.5 77.5t-66.5 29.5zM288 591q-50 0 -69.5 20.5t-19.5 49.5v29q0 29 19.5 49.5t69.5 20.5t69.5 -20.5t19.5 -49.5v-29q0 -29 -19.5 -49.5t-69.5 -20.5z" />
    <glyph glyph-name="Eogonek" unicode="&#x118;" horiz-adv-x="607"
d="M77 698h475v-135h-323v-143h277v-134h-277v-151h323v-135q-37 -23 -59 -38.5t-34 -27.5t-16 -21t-4 -18q0 -19 11.5 -26t26.5 -7q18 0 31 8t24 20l53 -51q-13 -24 -43.5 -37.5t-78.5 -13.5q-25 0 -47.5 4.5t-39.5 14t-27 26t-10 40.5q0 42 31.5 69.5t87.5 53.5l-1 4h-380
v698z" />
    <glyph glyph-name="eogonek" unicode="&#x119;" horiz-adv-x="562"
d="M336 -212q-24 0 -46 4.5t-39 14t-27 25.5t-10 40q0 42 31 67.5t83 48.5l-1 4q-14 -3 -24.5 -3.5t-19.5 -0.5q-59 0 -105 19.5t-77.5 55t-48 86.5t-16.5 114q0 62 16 112.5t47.5 86.5t77.5 55.5t105 19.5q65 0 111.5 -22t76 -59t43 -85.5t13.5 -101.5v-44h-337v-8
q0 -52 28.5 -82.5t89.5 -30.5q44 0 75 20t53 43l74 -92q-11 -13 -36.5 -32.5t-70.5 -52.5q-44 -32 -66.5 -53t-22.5 -43q0 -17 11.5 -24.5t26.5 -7.5q17 0 30 8t24 20l52 -51q-13 -24 -43 -37.5t-78 -13.5zM373 312v9q0 48 -21.5 77.5t-66.5 29.5t-70.5 -29.5t-25.5 -78.5
v-8h184z" />
    <glyph glyph-name="Ecaron" unicode="&#x11a;" horiz-adv-x="607"
d="M77 0v698h475v-135h-323v-143h277v-134h-277v-151h323v-135h-475zM253 748l-132 159l73 58l121 -115l121 115l73 -58l-132 -159h-124z" />
    <glyph glyph-name="ecaron" unicode="&#x11b;" horiz-adv-x="562"
d="M288 -12q-60 0 -107 19.5t-79.5 55t-49 86.5t-16.5 114q0 62 16 112.5t47.5 86.5t77.5 55.5t105 19.5q65 0 111.5 -22t76 -59t43 -85.5t13.5 -101.5v-44h-337v-8q0 -52 28 -82.5t88 -30.5q46 0 75 18.5t54 44.5l74 -92q-35 -41 -91.5 -64t-128.5 -23zM285 428
q-45 0 -70.5 -29.5t-25.5 -78.5v-8h184v9q0 48 -21.5 77.5t-66.5 29.5zM226 587l-132 159l73 58l121 -115l121 115l73 -58l-132 -159h-124z" />
    <glyph glyph-name="Gcircumflex" unicode="&#x11c;" horiz-adv-x="719"
d="M520 111h-5q-8 -53 -54 -88t-125 -35q-60 0 -112 23t-91 68t-61 112t-22 155t23 156t64.5 114t99.5 70t129 24q94 0 162 -40.5t107 -121.5l-124 -71q-16 41 -50 69.5t-95 28.5q-71 0 -113 -41t-42 -129v-112q0 -87 42 -128.5t113 -41.5q28 0 53 6.5t44 20t29.5 32.5
t10.5 45v35h-130v127h275v-389h-128v111zM420 956l132 -159l-73 -58l-121 115l-121 -115l-73 58l132 159h124z" />
    <glyph glyph-name="gcircumflex" unicode="&#x11d;" horiz-adv-x="562"
d="M555 -38q0 -42 -14.5 -74t-47.5 -54.5t-87.5 -34t-134.5 -11.5q-68 0 -115.5 8.5t-77 24t-43 38t-13.5 51.5q0 44 26 69t72 31v11q-38 7 -57 32.5t-19 59.5q0 21 8.5 36.5t22 27t31.5 18.5t36 11v4q-48 22 -71 60.5t-23 89.5q0 80 55.5 128.5t169.5 48.5q25 0 50.5 -2.5
t48.5 -9.5h174v-99h-64q16 -28 16 -66q0 -79 -55.5 -126.5t-169.5 -47.5q-51 0 -93 11q-23 -15 -23 -42q0 -19 14.5 -29.5t48.5 -10.5h152q96 0 139.5 -40t43.5 -113zM273 283q44 0 65.5 18.5t21.5 53.5v12q0 35 -21.5 53.5t-65.5 18.5t-65.5 -18.5t-21.5 -53.5v-12
q0 -35 21.5 -53.5t65.5 -18.5zM416 -58q0 23 -18 35t-63 12h-180q-10 -10 -14.5 -22.5t-4.5 -24.5q0 -29 25 -42.5t85 -13.5h60q60 0 85 13.5t25 42.5zM341 795l132 -159l-73 -58l-121 115l-121 -115l-73 58l132 159h124z" />
    <glyph glyph-name="Gbreve" unicode="&#x11e;" horiz-adv-x="719"
d="M520 111h-5q-8 -53 -54 -88t-125 -35q-60 0 -112 23t-91 68t-61 112t-22 155t23 156t64.5 114t99.5 70t129 24q94 0 162 -40.5t107 -121.5l-124 -71q-16 41 -50 69.5t-95 28.5q-71 0 -113 -41t-42 -129v-112q0 -87 42 -128.5t113 -41.5q28 0 53 6.5t44 20t29.5 32.5
t10.5 45v35h-130v127h275v-389h-128v111zM358 740q-44 0 -76 16.5t-54.5 41.5t-36.5 55t-23 57l81 42l19 -32q22 -37 42 -57t48 -20t48.5 20t42.5 57l19 32l80 -42q-9 -27 -24 -57t-37.5 -55t-54.5 -41.5t-74 -16.5z" />
    <glyph glyph-name="gbreve" unicode="&#x11f;" horiz-adv-x="562"
d="M555 -38q0 -42 -14.5 -74t-47.5 -54.5t-87.5 -34t-134.5 -11.5q-68 0 -115.5 8.5t-77 24t-43 38t-13.5 51.5q0 44 26 69t72 31v11q-38 7 -57 32.5t-19 59.5q0 21 8.5 36.5t22 27t31.5 18.5t36 11v4q-48 22 -71 60.5t-23 89.5q0 80 55.5 128.5t169.5 48.5q25 0 50.5 -2.5
t48.5 -9.5h174v-99h-64q16 -28 16 -66q0 -79 -55.5 -126.5t-169.5 -47.5q-51 0 -93 11q-23 -15 -23 -42q0 -19 14.5 -29.5t48.5 -10.5h152q96 0 139.5 -40t43.5 -113zM273 283q44 0 65.5 18.5t21.5 53.5v12q0 35 -21.5 53.5t-65.5 18.5t-65.5 -18.5t-21.5 -53.5v-12
q0 -35 21.5 -53.5t65.5 -18.5zM416 -58q0 23 -18 35t-63 12h-180q-10 -10 -14.5 -22.5t-4.5 -24.5q0 -29 25 -42.5t85 -13.5h60q60 0 85 13.5t25 42.5zM279 579q-44 0 -76 16.5t-54 41.5t-36.5 55t-23.5 57l81 42l20 -33q22 -36 42.5 -56t46.5 -20t47 20t43 56l20 33l80 -42
q-9 -27 -24 -57t-38 -55t-54.5 -41.5t-73.5 -16.5z" />
    <glyph glyph-name="Gdotaccent" unicode="&#x120;" horiz-adv-x="719"
d="M520 111h-5q-8 -53 -54 -88t-125 -35q-60 0 -112 23t-91 68t-61 112t-22 155t23 156t64.5 114t99.5 70t129 24q94 0 162 -40.5t107 -121.5l-124 -71q-16 41 -50 69.5t-95 28.5q-71 0 -113 -41t-42 -129v-112q0 -87 42 -128.5t113 -41.5q28 0 53 6.5t44 20t29.5 32.5
t10.5 45v35h-130v127h275v-389h-128v111zM358 752q-50 0 -69.5 20.5t-19.5 49.5v29q0 29 19.5 49.5t69.5 20.5t69.5 -20.5t19.5 -49.5v-29q0 -29 -19.5 -49.5t-69.5 -20.5z" />
    <glyph glyph-name="gdotaccent" unicode="&#x121;" horiz-adv-x="562"
d="M555 -38q0 -42 -14.5 -74t-47.5 -54.5t-87.5 -34t-134.5 -11.5q-68 0 -115.5 8.5t-77 24t-43 38t-13.5 51.5q0 44 26 69t72 31v11q-38 7 -57 32.5t-19 59.5q0 21 8.5 36.5t22 27t31.5 18.5t36 11v4q-48 22 -71 60.5t-23 89.5q0 80 55.5 128.5t169.5 48.5q25 0 50.5 -2.5
t48.5 -9.5h174v-99h-64q16 -28 16 -66q0 -79 -55.5 -126.5t-169.5 -47.5q-51 0 -93 11q-23 -15 -23 -42q0 -19 14.5 -29.5t48.5 -10.5h152q96 0 139.5 -40t43.5 -113zM273 283q44 0 65.5 18.5t21.5 53.5v12q0 35 -21.5 53.5t-65.5 18.5t-65.5 -18.5t-21.5 -53.5v-12
q0 -35 21.5 -53.5t65.5 -18.5zM416 -58q0 23 -18 35t-63 12h-180q-10 -10 -14.5 -22.5t-4.5 -24.5q0 -29 25 -42.5t85 -13.5h60q60 0 85 13.5t25 42.5zM275 591q-50 0 -69.5 20.5t-19.5 49.5v29q0 29 19.5 49.5t69.5 20.5t69.5 -20.5t19.5 -49.5v-29q0 -29 -19.5 -49.5
t-69.5 -20.5z" />
    <glyph glyph-name="Gcommaaccent" unicode="&#x122;" horiz-adv-x="719"
d="M520 111h-5q-8 -53 -54 -88t-125 -35q-60 0 -112 23t-91 68t-61 112t-22 155t23 156t64.5 114t99.5 70t129 24q94 0 162 -40.5t107 -121.5l-124 -71q-16 41 -50 69.5t-95 28.5q-71 0 -113 -41t-42 -129v-112q0 -87 42 -128.5t113 -41.5q28 0 53 6.5t44 20t29.5 32.5
t10.5 45v35h-130v127h275v-389h-128v111zM348 -42q33 0 51.5 -16t18.5 -46v-14q0 -46 -19 -89t-48 -68h-85q26 22 40 45.5t22 53.5q-29 2 -39.5 20.5t-10.5 40.5v11q0 30 18.5 46t51.5 16z" />
    <glyph glyph-name="gcommaaccent" unicode="&#x123;" horiz-adv-x="562"
d="M555 -38q0 -42 -14.5 -74t-47.5 -54.5t-87.5 -34t-134.5 -11.5q-68 0 -115.5 8.5t-77 24t-43 38t-13.5 51.5q0 44 26 69t72 31v11q-38 7 -57 32.5t-19 59.5q0 21 8.5 36.5t22 27t31.5 18.5t36 11v4q-48 22 -71 60.5t-23 89.5q0 80 55.5 128.5t169.5 48.5q25 0 50.5 -2.5
t48.5 -9.5h174v-99h-64q16 -28 16 -66q0 -79 -55.5 -126.5t-169.5 -47.5q-51 0 -93 11q-23 -15 -23 -42q0 -19 14.5 -29.5t48.5 -10.5h152q96 0 139.5 -40t43.5 -113zM273 283q44 0 65.5 18.5t21.5 53.5v12q0 35 -21.5 53.5t-65.5 18.5t-65.5 -18.5t-21.5 -53.5v-12
q0 -35 21.5 -53.5t65.5 -18.5zM416 -58q0 23 -18 35t-63 12h-180q-10 -10 -14.5 -22.5t-4.5 -24.5q0 -29 25 -42.5t85 -13.5h60q60 0 85 13.5t25 42.5zM276 576q-33 0 -51.5 16t-18.5 46v14q0 46 19 89t48 68h85q-26 -22 -40 -45.5t-22 -53.5q29 -2 39.5 -20.5t10.5 -40.5
v-11q0 -30 -18.5 -46t-51.5 -16z" />
    <glyph glyph-name="Hcircumflex" unicode="&#x124;" horiz-adv-x="724"
d="M495 286h-266v-286h-152v698h152v-278h266v278h152v-698h-152v286zM424 956l132 -159l-73 -58l-121 115l-121 -115l-73 58l132 159h124z" />
    <glyph glyph-name="hcircumflex" unicode="&#x125;" horiz-adv-x="596"
d="M69 740h148v-304h6q14 41 49 71t97 30q81 0 122.5 -54t41.5 -154v-329h-148v317q0 51 -16 75.5t-57 24.5q-18 0 -35 -4.5t-30.5 -14.5t-21.5 -24.5t-8 -33.5v-340h-148v740zM206 953l132 -159l-73 -58l-121 115l-121 -115l-73 58l132 159h124z" />
    <glyph glyph-name="Hbar" unicode="&#x126;" horiz-adv-x="734"
d="M500 286h-266v-286h-152v506h-74v114h74v78h152v-78h266v78h152v-78h74v-114h-74v-506h-152v286zM500 420v86h-266v-86h266z" />
    <glyph glyph-name="hbar" unicode="&#x127;" horiz-adv-x="596"
d="M69 0v590h-62v100h62v50h148v-50h140v-100h-140v-154h6q14 41 49 71t97 30q81 0 122.5 -54t41.5 -154v-329h-148v317q0 51 -16 75.5t-57 24.5q-18 0 -35 -4.5t-30.5 -14.5t-21.5 -24.5t-8 -33.5v-340h-148z" />
    <glyph glyph-name="Itilde" unicode="&#x128;" horiz-adv-x="432"
d="M50 0v121h90v456h-90v121h332v-121h-90v-456h90v-121h-332zM293 762q-23 0 -40.5 6t-36.5 14q-22 9 -40 15.5t-38 6.5q-17 0 -30 -6t-29 -19l-52 68q18 27 46 45.5t68 18.5q23 0 40.5 -6t36.5 -14q22 -9 40 -15.5t38 -6.5q17 0 30 6t29 19l52 -68q-18 -27 -46 -45.5
t-68 -18.5z" />
    <glyph glyph-name="itilde" unicode="&#x129;" horiz-adv-x="286"
d="M69 0v525h148v-525h-148zM220 601q-23 0 -40.5 6t-36.5 14q-22 9 -40 15.5t-38 6.5q-17 0 -30 -6t-29 -19l-52 68q18 27 46 45.5t68 18.5q23 0 40.5 -6t36.5 -14q22 -9 40 -15.5t38 -6.5q17 0 30 6t29 19l52 -68q-18 -27 -46 -45.5t-68 -18.5z" />
    <glyph glyph-name="Imacron" unicode="&#x12a;" horiz-adv-x="432"
d="M50 0v121h90v456h-90v121h332v-121h-90v-456h90v-121h-332zM64 888h306v-103h-306v103z" />
    <glyph glyph-name="imacron" unicode="&#x12b;" horiz-adv-x="286"
d="M69 0v525h148v-525h-148zM-9 727h306v-103h-306v103z" />
    <glyph glyph-name="Ibreve" unicode="&#x12c;" horiz-adv-x="432"
d="M50 0v121h90v456h-90v121h332v-121h-90v-456h90v-121h-332zM217 740q-44 0 -76 16.5t-54.5 41.5t-36.5 55t-23 57l81 42l19 -32q22 -37 42 -57t48 -20t48.5 20t42.5 57l19 32l80 -42q-9 -27 -24 -57t-37.5 -55t-54.5 -41.5t-74 -16.5z" />
    <glyph glyph-name="ibreve" unicode="&#x12d;" horiz-adv-x="286"
d="M69 0v525h148v-525h-148zM144 579q-44 0 -76 16.5t-54 41.5t-36.5 55t-23.5 57l81 42l20 -33q22 -36 42.5 -56t46.5 -20t47 20t43 56l20 33l80 -42q-9 -27 -24 -57t-38 -55t-54.5 -41.5t-73.5 -16.5z" />
    <glyph glyph-name="Iogonek" unicode="&#x12e;" horiz-adv-x="432"
d="M50 121h90v456h-90v121h333v-121h-91v-456h91v-121q-37 -23 -59.5 -38.5t-34.5 -27.5t-16 -21t-4 -18q0 -19 11.5 -26t26.5 -7q18 0 31 8t24 20l53 -51q-13 -24 -43.5 -37.5t-78.5 -13.5q-25 0 -47.5 4.5t-39.5 14t-27 26t-10 40.5q0 42 31.5 69.5t87.5 53.5l-1 4h-237
v121z" />
    <glyph glyph-name="iogonek" unicode="&#x12f;" horiz-adv-x="286"
d="M69 525h148v-525q-37 -23 -59.5 -38.5t-34.5 -27.5t-16 -21t-4 -18q0 -19 11.5 -26t26.5 -7q18 0 31 8t24 20l53 -51q-13 -24 -43.5 -37.5t-78.5 -13.5q-25 0 -47.5 4.5t-39.5 14t-27 26t-10 40.5q0 42 31.5 69.5t87.5 53.5l-1 4h-52v525zM143 581q-45 0 -65.5 20.5
t-20.5 52.5v22q0 32 20.5 52.5t65.5 20.5t65.5 -20.5t20.5 -52.5v-22q0 -32 -20.5 -52.5t-65.5 -20.5z" />
    <glyph glyph-name="Idotaccent" unicode="&#x130;" horiz-adv-x="432"
d="M50 0v121h90v456h-90v121h332v-121h-90v-456h90v-121h-332zM217 752q-50 0 -69.5 20.5t-19.5 49.5v29q0 29 19.5 49.5t69.5 20.5t69.5 -20.5t19.5 -49.5v-29q0 -29 -19.5 -49.5t-69.5 -20.5z" />
    <glyph glyph-name="dotlessi" unicode="&#x131;" horiz-adv-x="286"
d="M69 0v525h148v-525h-148z" />
    <glyph glyph-name="IJ" unicode="&#x132;" horiz-adv-x="656"
d="M583 698v-488q0 -51 -18 -92t-51.5 -69.5t-80 -44t-103.5 -15.5q-111 0 -173 54t-77 142l142 28q8 -45 36 -68t71 -23q19 0 37.5 5.5t33 17t23 30t8.5 44.5v357h-88v122h240zM73 698h152v-389h-152v389z" />
    <glyph glyph-name="ij" unicode="&#x133;" horiz-adv-x="566"
d="M143 581q-45 0 -65.5 20.5t-20.5 52.5v22q0 32 20.5 52.5t65.5 20.5t65.5 -20.5t20.5 -52.5v-22q0 -32 -20.5 -52.5t-65.5 -20.5zM69 525h148v-525h-148v525zM349 525h148v-581q0 -70 -35 -107t-113 -37h-78v115h78v610zM423 581q-45 0 -65.5 20.5t-20.5 52.5v22
q0 32 20.5 52.5t65.5 20.5t65.5 -20.5t20.5 -52.5v-22q0 -32 -20.5 -52.5t-65.5 -20.5z" />
    <glyph glyph-name="Jcircumflex" unicode="&#x134;" horiz-adv-x="559"
d="M486 698v-496q0 -48 -15.5 -87.5t-45.5 -67t-72.5 -43t-96.5 -15.5q-52 0 -91.5 14t-68 40t-46.5 62t-25 80l142 28q17 -91 87 -91q33 0 56.5 21t23.5 66v367h-212v122h364zM365 956l132 -159l-73 -58l-121 115l-121 -115l-73 58l132 159h124z" />
    <glyph glyph-name="jcircumflex" unicode="&#x135;" horiz-adv-x="286"
d="M-9 -85h78v610h148v-581q0 -70 -35 -107t-113 -37h-78v115zM206 795l132 -159l-73 -58l-121 115l-121 -115l-73 58l132 159h124z" />
    <glyph glyph-name="Kcommaaccent" unicode="&#x136;" horiz-adv-x="696"
d="M320 304l-91 -110v-194h-152v698h152v-332h6l99 135l157 197h172l-235 -287l256 -411h-179zM364 -42q33 0 51.5 -16t18.5 -46v-14q0 -46 -19 -89t-48 -68h-85q26 22 40 45.5t22 53.5q-29 2 -39.5 20.5t-10.5 40.5v11q0 30 18.5 46t51.5 16z" />
    <glyph glyph-name="kcommaaccent" unicode="&#x137;" horiz-adv-x="577"
d="M69 740h148v-437h6l65 97l105 125h164l-175 -201l195 -324h-176l-118 222l-66 -74v-148h-148v740zM323 -42q33 0 51.5 -16t18.5 -46v-14q0 -46 -19 -89t-48 -68h-85q26 22 40 45.5t22 53.5q-29 2 -39.5 20.5t-10.5 40.5v11q0 30 18.5 46t51.5 16z" />
    <glyph glyph-name="kgreenlandic" unicode="&#x138;" horiz-adv-x="577"
d="M282 219l-65 -71v-148h-148v525h148v-222h6l69 93l113 129h166l-186 -205l192 -320h-173z" />
    <glyph glyph-name="Lacute" unicode="&#x139;" horiz-adv-x="530"
d="M77 0v698h152v-563h266v-135h-418zM170 740l-88 43l99 194l123 -61z" />
    <glyph glyph-name="lacute" unicode="&#x13a;" horiz-adv-x="303"
d="M216 0q-76 0 -111.5 37t-35.5 107v596h148v-625h66v-115h-67zM160 779l-88 43l99 194l123 -61z" />
    <glyph glyph-name="Lcommaaccent" unicode="&#x13b;" horiz-adv-x="530"
d="M77 0v698h152v-563h266v-135h-418zM285 -42q33 0 51.5 -16t18.5 -46v-14q0 -46 -19 -89t-48 -68h-85q26 22 40 45.5t22 53.5q-29 2 -39.5 20.5t-10.5 40.5v11q0 30 18.5 46t51.5 16z" />
    <glyph glyph-name="lcommaaccent" unicode="&#x13c;" horiz-adv-x="303"
d="M216 0q-76 0 -111.5 37t-35.5 107v596h148v-625h66v-115h-67zM174 -42q33 0 51.5 -16t18.5 -46v-14q0 -46 -19 -89t-48 -68h-85q26 22 40 45.5t22 53.5q-29 2 -39.5 20.5t-10.5 40.5v11q0 30 18.5 46t51.5 16z" />
    <glyph glyph-name="Lcaron" unicode="&#x13d;" horiz-adv-x="530"
d="M77 0v698h152v-563h266v-135h-418zM398 525h-97l6 215h157z" />
    <glyph glyph-name="lcaron" unicode="&#x13e;" horiz-adv-x="360"
d="M216 0q-76 0 -111.5 37t-35.5 107v596h148v-625h66v-115h-67zM377 525h-97l6 215h157z" />
    <glyph glyph-name="Ldot" unicode="&#x13f;" horiz-adv-x="530"
d="M77 0v698h152v-563h266v-135h-418zM414 322q-50 0 -69.5 20.5t-19.5 49.5v29q0 29 19.5 49.5t69.5 20.5t69.5 -20.5t19.5 -49.5v-29q0 -29 -19.5 -49.5t-69.5 -20.5z" />
    <glyph glyph-name="ldot" unicode="&#x140;" horiz-adv-x="448"
d="M216 0q-76 0 -111.5 37t-35.5 107v596h148v-625h66v-115h-67zM363 274q-50 0 -69.5 20.5t-19.5 49.5v29q0 29 19.5 49.5t69.5 20.5t69.5 -20.5t19.5 -49.5v-29q0 -29 -19.5 -49.5t-69.5 -20.5z" />
    <glyph glyph-name="Lslash" unicode="&#x141;" horiz-adv-x="540"
d="M500 0h-418v243l-89 -29v113l89 29v342h152v-294l158 51v-113l-158 -51v-156h266v-135z" />
    <glyph glyph-name="lslash" unicode="&#x142;" horiz-adv-x="314"
d="M289 0h-67q-76 0 -111.5 37t-35.5 107v151l-77 -25v109l77 25v336h148v-288l104 34v-109l-104 -34v-228h66v-115z" />
    <glyph glyph-name="Nacute" unicode="&#x143;" horiz-adv-x="724"
d="M290 330l-67 140h-3v-470h-143v698h166l191 -330l67 -140h3v470h143v-698h-166zM377 740l-88 43l99 194l123 -61z" />
    <glyph glyph-name="nacute" unicode="&#x144;" horiz-adv-x="596"
d="M69 0v525h148v-89h6q14 41 49 71t97 30q81 0 122.5 -54t41.5 -154v-329h-148v317q0 51 -16 75.5t-57 24.5q-18 0 -35 -4.5t-30.5 -14.5t-21.5 -24.5t-8 -33.5v-340h-148zM316 579l-88 43l99 194l123 -61z" />
    <glyph glyph-name="Ncommaaccent" unicode="&#x145;" horiz-adv-x="724"
d="M290 330l-67 140h-3v-470h-143v698h166l191 -330l67 -140h3v470h143v-698h-166zM360 -42q33 0 51.5 -16t18.5 -46v-14q0 -46 -19 -89t-48 -68h-85q26 22 40 45.5t22 53.5q-29 2 -39.5 20.5t-10.5 40.5v11q0 30 18.5 46t51.5 16z" />
    <glyph glyph-name="ncommaaccent" unicode="&#x146;" horiz-adv-x="596"
d="M69 0v525h148v-89h6q14 41 49 71t97 30q81 0 122.5 -54t41.5 -154v-329h-148v317q0 51 -16 75.5t-57 24.5q-18 0 -35 -4.5t-30.5 -14.5t-21.5 -24.5t-8 -33.5v-340h-148zM301 -42q33 0 51.5 -16t18.5 -46v-14q0 -46 -19 -89t-48 -68h-85q26 22 40 45.5t22 53.5
q-29 2 -39.5 20.5t-10.5 40.5v11q0 30 18.5 46t51.5 16z" />
    <glyph glyph-name="Ncaron" unicode="&#x147;" horiz-adv-x="724"
d="M290 330l-67 140h-3v-470h-143v698h166l191 -330l67 -140h3v470h143v-698h-166zM299 748l-132 159l73 58l121 -115l121 115l73 -58l-132 -159h-124z" />
    <glyph glyph-name="ncaron" unicode="&#x148;" horiz-adv-x="596"
d="M69 0v525h148v-89h6q14 41 49 71t97 30q81 0 122.5 -54t41.5 -154v-329h-148v317q0 51 -16 75.5t-57 24.5q-18 0 -35 -4.5t-30.5 -14.5t-21.5 -24.5t-8 -33.5v-340h-148zM238 587l-132 159l73 58l121 -115l121 115l73 -58l-132 -159h-124z" />
    <glyph glyph-name="napostrophe" unicode="&#x149;" horiz-adv-x="886"
d="M152 750q45 0 65.5 -20.5t20.5 -51.5v-21q0 -29 -8.5 -58.5t-23 -56.5t-34.5 -50.5t-43 -41.5h-93q33 30 56.5 61t35.5 69q-32 6 -47 26.5t-15 46.5v25q0 31 20.5 51.5t65.5 20.5zM359 0v525h148v-89h6q14 41 49 71t97 30q81 0 122.5 -54t41.5 -154v-329h-148v317
q0 51 -16 75.5t-57 24.5q-18 0 -35 -4.5t-30.5 -14.5t-21.5 -24.5t-8 -33.5v-340h-148z" />
    <glyph glyph-name="Eng" unicode="&#x14a;" horiz-adv-x="724"
d="M77 0v698h166l191 -330l67 -140h3v470h143v-754q0 -70 -35.5 -107t-112.5 -37h-79v115h84v85h-23l-191 330l-67 140h-3v-470h-143z" />
    <glyph glyph-name="eng" unicode="&#x14b;" horiz-adv-x="596"
d="M307 -85h78v402q0 51 -16 75.5t-57 24.5q-18 0 -35 -4.5t-30.5 -14t-21.5 -24t-8 -34.5v-340h-148v525h148v-89h6q14 41 49 71t97 30q81 0 122.5 -54t41.5 -154v-385q0 -70 -35 -107t-112 -37h-79v115z" />
    <glyph glyph-name="Omacron" unicode="&#x14c;" horiz-adv-x="714"
d="M357 -12q-69 0 -126 23t-97 68.5t-62 113t-22 156.5t22 156.5t62 113t97 68.5t126 23t126 -23t97 -68.5t62 -113t22 -156.5t-22 -156.5t-62 -113t-97 -68.5t-126 -23zM357 123q69 0 107.5 45t38.5 129v104q0 84 -38.5 129t-107.5 45t-107.5 -45t-38.5 -129v-104
q0 -84 38.5 -129t107.5 -45zM204 888h306v-103h-306v103z" />
    <glyph glyph-name="omacron" unicode="&#x14d;" horiz-adv-x="564"
d="M282 -12q-58 0 -103.5 19t-77 55t-48.5 87t-17 114t17 114t48.5 86.5t77 54.5t103.5 19t103.5 -19t77 -54.5t48.5 -86.5t17 -114t-17 -114t-48.5 -87t-77 -55t-103.5 -19zM282 105q44 0 68 27t24 77v107q0 50 -24 77t-68 27t-68 -27t-24 -77v-107q0 -50 24 -77t68 -27z
M129 727h306v-103h-306v103z" />
    <glyph glyph-name="Obreve" unicode="&#x14e;" horiz-adv-x="714"
d="M357 -12q-69 0 -126 23t-97 68.5t-62 113t-22 156.5t22 156.5t62 113t97 68.5t126 23t126 -23t97 -68.5t62 -113t22 -156.5t-22 -156.5t-62 -113t-97 -68.5t-126 -23zM357 123q69 0 107.5 45t38.5 129v104q0 84 -38.5 129t-107.5 45t-107.5 -45t-38.5 -129v-104
q0 -84 38.5 -129t107.5 -45zM357 740q-44 0 -76 16.5t-54.5 41.5t-36.5 55t-23 57l81 42l19 -32q22 -37 42 -57t48 -20t48.5 20t42.5 57l19 32l80 -42q-9 -27 -24 -57t-37.5 -55t-54.5 -41.5t-74 -16.5z" />
    <glyph glyph-name="obreve" unicode="&#x14f;" horiz-adv-x="564"
d="M282 -12q-58 0 -103.5 19t-77 55t-48.5 87t-17 114t17 114t48.5 86.5t77 54.5t103.5 19t103.5 -19t77 -54.5t48.5 -86.5t17 -114t-17 -114t-48.5 -87t-77 -55t-103.5 -19zM282 105q44 0 68 27t24 77v107q0 50 -24 77t-68 27t-68 -27t-24 -77v-107q0 -50 24 -77t68 -27z
M282 579q-44 0 -76 16.5t-54 41.5t-36.5 55t-23.5 57l81 42l20 -33q22 -36 42.5 -56t46.5 -20t47 20t43 56l20 33l80 -42q-9 -27 -24 -57t-38 -55t-54.5 -41.5t-73.5 -16.5z" />
    <glyph glyph-name="Ohungarumlaut" unicode="&#x150;" horiz-adv-x="714"
d="M357 -12q-69 0 -126 23t-97 68.5t-62 113t-22 156.5t22 156.5t62 113t97 68.5t126 23t126 -23t97 -68.5t62 -113t22 -156.5t-22 -156.5t-62 -113t-97 -68.5t-126 -23zM357 123q69 0 107.5 45t38.5 129v104q0 84 -38.5 129t-107.5 45t-107.5 -45t-38.5 -129v-104
q0 -84 38.5 -129t107.5 -45zM267 740l-81 39l99 194l116 -57zM472 740l-81 39l99 194l116 -57z" />
    <glyph glyph-name="ohungarumlaut" unicode="&#x151;" horiz-adv-x="564"
d="M282 -12q-58 0 -103.5 19t-77 55t-48.5 87t-17 114t17 114t48.5 86.5t77 54.5t103.5 19t103.5 -19t77 -54.5t48.5 -86.5t17 -114t-17 -114t-48.5 -87t-77 -55t-103.5 -19zM282 105q44 0 68 27t24 77v107q0 50 -24 77t-68 27t-68 -27t-24 -77v-107q0 -50 24 -77t68 -27z
M192 579l-81 39l99 194l116 -57zM397 579l-81 39l99 194l116 -57z" />
    <glyph glyph-name="OE" unicode="&#x152;" horiz-adv-x="998"
d="M472 0q-22 -6 -51.5 -9t-63.5 -3q-69 0 -126 23t-97 68.5t-62 113t-22 156.5t22 156.5t62 113t97 68.5t126 23q67 0 123 -12h463v-135h-324v-143h278v-134h-278v-151h324v-135h-471zM357 123q59 0 110 9v433q-26 5 -53.5 7.5t-56.5 2.5q-68 0 -107 -45t-39 -129v-104
q0 -84 39 -129t107 -45z" />
    <glyph glyph-name="oe" unicode="&#x153;" horiz-adv-x="901"
d="M282 105q44 0 68 27t24 77v107q0 50 -24 77t-68 27t-68 -27t-24 -77v-107q0 -50 24 -77t68 -27zM711 312v9q0 48 -21.5 77.5t-66.5 29.5t-70.5 -29.5t-25.5 -78.5v-8h184zM630 -12q-67 0 -113.5 20.5t-62.5 53.5h-6q-20 -35 -61.5 -54.5t-104.5 -19.5q-58 0 -103.5 19.5
t-77 56t-48.5 88t-17 114.5q0 127 65 199t181 72q57 0 99.5 -17.5t66.5 -56.5h6q20 35 64 54.5t107 19.5q58 0 103 -19t75.5 -54t46 -84.5t15.5 -110.5v-44h-338v-8q0 -52 29.5 -82.5t90.5 -30.5q46 0 75 18.5t54 44.5l74 -92q-35 -41 -91.5 -64t-128.5 -23z" />
    <glyph glyph-name="Racute" unicode="&#x154;" horiz-adv-x="674"
d="M229 0h-152v698h331q48 0 87 -16t66.5 -45.5t42.5 -70.5t15 -91q0 -71 -31.5 -124t-95.5 -77l137 -274h-169l-122 256h-109v-256zM389 384q34 0 53.5 17.5t19.5 51.5v44q0 34 -19.5 51.5t-53.5 17.5h-160v-182h160zM340 740l-88 43l99 194l123 -61z" />
    <glyph glyph-name="racute" unicode="&#x155;" horiz-adv-x="404"
d="M69 0v525h148v-114h5q4 22 14 42.5t26.5 36.5t39.5 25.5t54 9.5h26v-138h-37q-65 0 -96.5 -17t-31.5 -63v-307h-148zM241 579l-88 43l99 194l123 -61z" />
    <glyph glyph-name="Rcommaaccent" unicode="&#x156;" horiz-adv-x="674"
d="M229 0h-152v698h331q48 0 87 -16t66.5 -45.5t42.5 -70.5t15 -91q0 -71 -31.5 -124t-95.5 -77l137 -274h-169l-122 256h-109v-256zM389 384q34 0 53.5 17.5t19.5 51.5v44q0 34 -19.5 51.5t-53.5 17.5h-160v-182h160zM353 -42q33 0 51.5 -16t18.5 -46v-14q0 -46 -19 -89
t-48 -68h-85q26 22 40 45.5t22 53.5q-29 2 -39.5 20.5t-10.5 40.5v11q0 30 18.5 46t51.5 16z" />
    <glyph glyph-name="rcommaaccent" unicode="&#x157;" horiz-adv-x="404"
d="M69 0v525h148v-114h5q4 22 14 42.5t26.5 36.5t39.5 25.5t54 9.5h26v-138h-37q-65 0 -96.5 -17t-31.5 -63v-307h-148zM142 -42q33 0 51.5 -16t18.5 -46v-14q0 -46 -19 -89t-48 -68h-85q26 22 40 45.5t22 53.5q-29 2 -39.5 20.5t-10.5 40.5v11q0 30 18.5 46t51.5 16z" />
    <glyph glyph-name="Rcaron" unicode="&#x158;" horiz-adv-x="674"
d="M229 0h-152v698h331q48 0 87 -16t66.5 -45.5t42.5 -70.5t15 -91q0 -71 -31.5 -124t-95.5 -77l137 -274h-169l-122 256h-109v-256zM389 384q34 0 53.5 17.5t19.5 51.5v44q0 34 -19.5 51.5t-53.5 17.5h-160v-182h160zM262 748l-132 159l73 58l121 -115l121 115l73 -58
l-132 -159h-124z" />
    <glyph glyph-name="rcaron" unicode="&#x159;" horiz-adv-x="404"
d="M69 0v525h148v-114h5q4 22 14 42.5t26.5 36.5t39.5 25.5t54 9.5h26v-138h-37q-65 0 -96.5 -17t-31.5 -63v-307h-148zM163 587l-132 159l73 58l121 -115l121 115l73 -58l-132 -159h-124z" />
    <glyph glyph-name="Sacute" unicode="&#x15a;" horiz-adv-x="624"
d="M303 -12q-92 0 -156 31.5t-109 81.5l100 101q71 -80 175 -80q56 0 83 23t27 61q0 29 -16 48.5t-65 26.5l-69 9q-111 14 -162.5 67t-51.5 141q0 47 18 86t51.5 67t82 43.5t110.5 15.5q79 0 139 -25t103 -73l-101 -102q-25 29 -60.5 47.5t-89.5 18.5q-51 0 -76 -18t-25 -50
q0 -36 19.5 -52t63.5 -23l69 -11q108 -17 160 -66.5t52 -140.5q0 -50 -18 -92t-52.5 -72t-85.5 -46.5t-116 -16.5zM326 740l-88 43l99 194l123 -61z" />
    <glyph glyph-name="sacute" unicode="&#x15b;" horiz-adv-x="504"
d="M247 -12q-76 0 -128 24.5t-93 69.5l87 88q28 -31 62 -49t77 -18q44 0 61 13.5t17 36.5q0 37 -53 44l-57 7q-177 22 -177 162q0 38 14.5 69.5t41 54t64 35t84.5 12.5q41 0 72.5 -5.5t56 -16t45 -26t40.5 -34.5l-85 -87q-25 25 -56.5 39.5t-64.5 14.5q-38 0 -54 -12
t-16 -32q0 -21 11.5 -32.5t43.5 -16.5l59 -8q173 -23 173 -158q0 -38 -16 -70t-45.5 -55.5t-71 -36.5t-92.5 -13zM267 579l-88 43l99 194l123 -61z" />
    <glyph glyph-name="Scircumflex" unicode="&#x15c;" horiz-adv-x="624"
d="M303 -12q-92 0 -156 31.5t-109 81.5l100 101q71 -80 175 -80q56 0 83 23t27 61q0 29 -16 48.5t-65 26.5l-69 9q-111 14 -162.5 67t-51.5 141q0 47 18 86t51.5 67t82 43.5t110.5 15.5q79 0 139 -25t103 -73l-101 -102q-25 29 -60.5 47.5t-89.5 18.5q-51 0 -76 -18t-25 -50
q0 -36 19.5 -52t63.5 -23l69 -11q108 -17 160 -66.5t52 -140.5q0 -50 -18 -92t-52.5 -72t-85.5 -46.5t-116 -16.5zM372 956l132 -159l-73 -58l-121 115l-121 -115l-73 58l132 159h124z" />
    <glyph glyph-name="scircumflex" unicode="&#x15d;" horiz-adv-x="504"
d="M247 -12q-76 0 -128 24.5t-93 69.5l87 88q28 -31 62 -49t77 -18q44 0 61 13.5t17 36.5q0 37 -53 44l-57 7q-177 22 -177 162q0 38 14.5 69.5t41 54t64 35t84.5 12.5q41 0 72.5 -5.5t56 -16t45 -26t40.5 -34.5l-85 -87q-25 25 -56.5 39.5t-64.5 14.5q-38 0 -54 -12
t-16 -32q0 -21 11.5 -32.5t43.5 -16.5l59 -8q173 -23 173 -158q0 -38 -16 -70t-45.5 -55.5t-71 -36.5t-92.5 -13zM313 795l132 -159l-73 -58l-121 115l-121 -115l-73 58l132 159h124z" />
    <glyph glyph-name="Scedilla" unicode="&#x15e;" horiz-adv-x="624"
d="M312 576q-51 0 -76 -18t-25 -50q0 -36 19.5 -52t63.5 -23l69 -11q108 -17 160 -66.5t52 -140.5q0 -47 -16 -86.5t-46.5 -69t-75 -48t-102.5 -22.5l-9 -44l4 -4q12 3 24 5t24 2q30 0 51.5 -16t21.5 -53q0 -26 -11 -43t-29.5 -28t-42.5 -15.5t-49 -4.5q-52 0 -81.5 14.5
t-42.5 29.5l46 56q10 -12 26.5 -20.5t39.5 -8.5q19 0 31.5 6t12.5 19q0 6 -3 12t-11.5 11.5t-23 10t-37.5 6.5l-21 2l13 63q-78 6 -133.5 36.5t-96.5 75.5l100 101q71 -80 175 -80q56 0 83 23t27 61q0 29 -16 48.5t-65 26.5l-69 9q-111 14 -162.5 67t-51.5 141q0 47 18 86
t51.5 67t82 43.5t110.5 15.5q79 0 139 -25t103 -73l-101 -102q-25 29 -60.5 47.5t-89.5 18.5z" />
    <glyph glyph-name="scedilla" unicode="&#x15f;" horiz-adv-x="504"
d="M262 -212q-52 0 -81.5 14.5t-42.5 29.5l46 56q10 -12 26.5 -20.5t39.5 -8.5q19 0 31.5 6t12.5 19q0 6 -3 12t-11.5 11.5t-23 10t-37.5 6.5l-21 2l13 64q-61 5 -105.5 28.5t-79.5 63.5l87 88q28 -31 62 -49t77 -18q44 0 61 13.5t17 36.5q0 37 -53 44l-57 7
q-177 22 -177 162q0 38 14.5 69.5t41 54t64 35t84.5 12.5q41 0 72.5 -5.5t56 -16t45 -26t40.5 -34.5l-85 -87q-25 25 -56.5 39.5t-64.5 14.5q-38 0 -54 -12t-16 -32q0 -21 11.5 -32.5t43.5 -16.5l59 -8q173 -23 173 -158q0 -35 -13.5 -65t-39 -53t-61.5 -37.5t-80 -18.5
l-9 -44l4 -4q12 3 24 5t24 2q30 0 51.5 -16t21.5 -53q0 -26 -11 -43t-29.5 -28t-42.5 -15.5t-49 -4.5z" />
    <glyph glyph-name="Scaron" unicode="&#x160;" horiz-adv-x="624"
d="M303 -12q-92 0 -156 31.5t-109 81.5l100 101q71 -80 175 -80q56 0 83 23t27 61q0 29 -16 48.5t-65 26.5l-69 9q-111 14 -162.5 67t-51.5 141q0 47 18 86t51.5 67t82 43.5t110.5 15.5q79 0 139 -25t103 -73l-101 -102q-25 29 -60.5 47.5t-89.5 18.5q-51 0 -76 -18t-25 -50
q0 -36 19.5 -52t63.5 -23l69 -11q108 -17 160 -66.5t52 -140.5q0 -50 -18 -92t-52.5 -72t-85.5 -46.5t-116 -16.5zM248 748l-132 159l73 58l121 -115l121 115l73 -58l-132 -159h-124z" />
    <glyph glyph-name="scaron" unicode="&#x161;" horiz-adv-x="504"
d="M247 -12q-76 0 -128 24.5t-93 69.5l87 88q28 -31 62 -49t77 -18q44 0 61 13.5t17 36.5q0 37 -53 44l-57 7q-177 22 -177 162q0 38 14.5 69.5t41 54t64 35t84.5 12.5q41 0 72.5 -5.5t56 -16t45 -26t40.5 -34.5l-85 -87q-25 25 -56.5 39.5t-64.5 14.5q-38 0 -54 -12
t-16 -32q0 -21 11.5 -32.5t43.5 -16.5l59 -8q173 -23 173 -158q0 -38 -16 -70t-45.5 -55.5t-71 -36.5t-92.5 -13zM189 587l-132 159l73 58l121 -115l121 115l73 -58l-132 -159h-124z" />
    <glyph glyph-name="uni0162" unicode="&#x162;" horiz-adv-x="584"
d="M306 -212q-52 0 -81.5 14.5t-42.5 29.5l46 56q10 -12 26.5 -20.5t39.5 -8.5q19 0 31.5 6t12.5 19q0 6 -3 12t-11.5 11.5t-23 10t-37.5 6.5l-21 2l15 74h-41v563h-189v135h530v-135h-189v-563h-44l-11 -55l4 -4q12 3 24 5t24 2q30 0 51.5 -16t21.5 -53q0 -26 -11 -43
t-29.5 -28t-42.5 -15.5t-49 -4.5z" />
    <glyph glyph-name="uni0163" unicode="&#x163;" horiz-adv-x="383"
d="M243 -212q-52 0 -81.5 14.5t-42.5 29.5l46 56q10 -12 26.5 -20.5t39.5 -8.5q19 0 31.5 6t12.5 19q0 6 -3 12t-11.5 11.5t-23 10t-37.5 6.5l-21 2l17 81q-99 26 -99 146v257h-74v115h37q30 0 41 14.5t11 41.5v86h133v-142h104v-115h-104v-295h96v-115h-80l-11 -55l4 -4
q12 3 24 5t24 2q30 0 51.5 -16t21.5 -53q0 -26 -11 -43t-29.5 -28t-42.5 -15.5t-49 -4.5z" />
    <glyph glyph-name="Tcaron" unicode="&#x164;" horiz-adv-x="584"
d="M368 563v-563h-152v563h-189v135h530v-135h-189zM231 748l-132 159l73 58l121 -115l121 115l73 -58l-132 -159h-124z" />
    <glyph glyph-name="tcaron" unicode="&#x165;" horiz-adv-x="388"
d="M253 0q-77 0 -116.5 39t-39.5 114v257h-74v115h37q30 0 41 14.5t11 41.5v86h133v-142h104v-115h-104v-295h96v-115h-88zM405 576h-97l6 215h157z" />
    <glyph glyph-name="Tbar" unicode="&#x166;" horiz-adv-x="594"
d="M373 274v-274h-152v274h-139v114h139v175h-189v135h530v-135h-189v-175h139v-114h-139z" />
    <glyph glyph-name="tbar" unicode="&#x167;" horiz-adv-x="391"
d="M345 0h-88q-77 0 -116.5 39t-39.5 114v68h-64v100h64v89h-74v115h37q30 0 41 14.5t11 41.5v86h133v-142h104v-115h-104v-89h85v-100h-85v-106h96v-115z" />
    <glyph glyph-name="Utilde" unicode="&#x168;" horiz-adv-x="694"
d="M221 698v-428q0 -74 29 -110.5t97 -36.5t97 36.5t29 110.5v428h148v-412q0 -77 -14.5 -133.5t-47.5 -93t-85 -54t-127 -17.5t-127 17.5t-85 54t-47.5 93t-14.5 133.5v412h148zM423 762q-23 0 -40.5 6t-36.5 14q-22 9 -40 15.5t-38 6.5q-17 0 -30 -6t-29 -19l-52 68
q18 27 46 45.5t68 18.5q23 0 40.5 -6t36.5 -14q22 -9 40 -15.5t38 -6.5q17 0 30 6t29 19l52 -68q-18 -27 -46 -45.5t-68 -18.5z" />
    <glyph glyph-name="utilde" unicode="&#x169;" horiz-adv-x="596"
d="M379 88h-5q-7 -20 -18.5 -38t-29.5 -32t-42.5 -22t-56.5 -8q-81 0 -122.5 53.5t-41.5 153.5v330h148v-317q0 -48 17 -74t58 -26q17 0 34 5t30 14.5t21 23.5t8 33v341h148v-525h-148v88zM372 601q-23 0 -40.5 6t-36.5 14q-22 9 -40 15.5t-38 6.5q-17 0 -30 -6t-29 -19
l-52 68q18 27 46 45.5t68 18.5q23 0 40.5 -6t36.5 -14q22 -9 40 -15.5t38 -6.5q17 0 30 6t29 19l52 -68q-18 -27 -46 -45.5t-68 -18.5z" />
    <glyph glyph-name="Umacron" unicode="&#x16a;" horiz-adv-x="694"
d="M221 698v-428q0 -74 29 -110.5t97 -36.5t97 36.5t29 110.5v428h148v-412q0 -77 -14.5 -133.5t-47.5 -93t-85 -54t-127 -17.5t-127 17.5t-85 54t-47.5 93t-14.5 133.5v412h148zM194 888h306v-103h-306v103z" />
    <glyph glyph-name="umacron" unicode="&#x16b;" horiz-adv-x="596"
d="M379 88h-5q-7 -20 -18.5 -38t-29.5 -32t-42.5 -22t-56.5 -8q-81 0 -122.5 53.5t-41.5 153.5v330h148v-317q0 -48 17 -74t58 -26q17 0 34 5t30 14.5t21 23.5t8 33v341h148v-525h-148v88zM143 727h306v-103h-306v103z" />
    <glyph glyph-name="Ubreve" unicode="&#x16c;" horiz-adv-x="694"
d="M221 698v-428q0 -74 29 -110.5t97 -36.5t97 36.5t29 110.5v428h148v-412q0 -77 -14.5 -133.5t-47.5 -93t-85 -54t-127 -17.5t-127 17.5t-85 54t-47.5 93t-14.5 133.5v412h148zM347 740q-44 0 -76 16.5t-54.5 41.5t-36.5 55t-23 57l81 42l19 -32q22 -37 42 -57t48 -20
t48.5 20t42.5 57l19 32l80 -42q-9 -27 -24 -57t-37.5 -55t-54.5 -41.5t-74 -16.5z" />
    <glyph glyph-name="ubreve" unicode="&#x16d;" horiz-adv-x="596"
d="M379 88h-5q-7 -20 -18.5 -38t-29.5 -32t-42.5 -22t-56.5 -8q-81 0 -122.5 53.5t-41.5 153.5v330h148v-317q0 -48 17 -74t58 -26q17 0 34 5t30 14.5t21 23.5t8 33v341h148v-525h-148v88zM296 579q-44 0 -76 16.5t-54 41.5t-36.5 55t-23.5 57l81 42l20 -33q22 -36 42.5 -56
t46.5 -20t47 20t43 56l20 33l80 -42q-9 -27 -24 -57t-38 -55t-54.5 -41.5t-73.5 -16.5z" />
    <glyph glyph-name="Uring" unicode="&#x16e;" horiz-adv-x="694"
d="M221 698v-428q0 -74 29 -110.5t97 -36.5t97 36.5t29 110.5v428h148v-412q0 -77 -14.5 -133.5t-47.5 -93t-85 -54t-127 -17.5t-127 17.5t-85 54t-47.5 93t-14.5 133.5v412h148zM347 719q-31 0 -58 10.5t-47 29.5t-31.5 45.5t-11.5 57.5t11.5 57.5t31.5 45.5t47 29.5
t58 10.5t58 -10.5t47 -29.5t31.5 -45.5t11.5 -57.5t-11.5 -57.5t-31.5 -45.5t-47 -29.5t-58 -10.5zM347 794q25 0 38 14t13 37v34q0 23 -13 37t-38 14t-38 -14t-13 -37v-34q0 -23 13 -37t38 -14z" />
    <glyph glyph-name="uring" unicode="&#x16f;" horiz-adv-x="596"
d="M379 88h-5q-7 -20 -18.5 -38t-29.5 -32t-42.5 -22t-56.5 -8q-81 0 -122.5 53.5t-41.5 153.5v330h148v-317q0 -48 17 -74t58 -26q17 0 34 5t30 14.5t21 23.5t8 33v341h148v-525h-148v88zM296 558q-31 0 -58 10.5t-47 29.5t-31.5 45.5t-11.5 57.5t11.5 57.5t31.5 45.5
t47 29.5t58 10.5t58 -10.5t47 -29.5t31.5 -45.5t11.5 -57.5t-11.5 -57.5t-31.5 -45.5t-47 -29.5t-58 -10.5zM296 633q25 0 38 13.5t13 37.5v34q0 24 -13 37.5t-38 13.5t-38 -13.5t-13 -37.5v-34q0 -24 13 -37.5t38 -13.5z" />
    <glyph glyph-name="Uhungarumlaut" unicode="&#x170;" horiz-adv-x="694"
d="M221 698v-428q0 -74 29 -110.5t97 -36.5t97 36.5t29 110.5v428h148v-412q0 -77 -14.5 -133.5t-47.5 -93t-85 -54t-127 -17.5t-127 17.5t-85 54t-47.5 93t-14.5 133.5v412h148zM257 740l-81 39l99 194l116 -57zM462 740l-81 39l99 194l116 -57z" />
    <glyph glyph-name="uhungarumlaut" unicode="&#x171;" horiz-adv-x="596"
d="M379 88h-5q-7 -20 -18.5 -38t-29.5 -32t-42.5 -22t-56.5 -8q-81 0 -122.5 53.5t-41.5 153.5v330h148v-317q0 -48 17 -74t58 -26q17 0 34 5t30 14.5t21 23.5t8 33v341h148v-525h-148v88zM206 579l-81 39l99 194l116 -57zM411 579l-81 39l99 194l116 -57z" />
    <glyph glyph-name="Uogonek" unicode="&#x172;" horiz-adv-x="694"
d="M221 698v-428q0 -74 29 -110.5t97 -36.5t97 36.5t29 110.5v428h148v-412q0 -52 -5.5 -94t-19.5 -77.5t-37.5 -64.5t-59.5 -56q-17 -12 -35 -23.5t-33 -23.5t-24.5 -25t-9.5 -28q0 -17 11.5 -24.5t26.5 -7.5q18 0 30.5 8t23.5 20l53 -51q-13 -24 -43.5 -37.5t-77.5 -13.5
q-25 0 -47 4.5t-39 14.5t-27 26t-10 39q0 42 32 66.5t87 47.5l-2 6q-16 -2 -32.5 -3t-35.5 -1q-75 0 -127 17.5t-85 54t-47.5 93t-14.5 133.5v412h148z" />
    <glyph glyph-name="uogonek" unicode="&#x173;" horiz-adv-x="596"
d="M526 0q-37 -23 -59 -38.5t-34 -27.5t-16 -21t-4 -18q0 -19 11.5 -26t26.5 -7q18 0 31 8t24 20l53 -51q-13 -24 -43.5 -37.5t-78.5 -13.5q-25 0 -47.5 4.5t-39.5 14t-27 26t-10 40.5q0 42 31.5 69.5t87.5 53.5l-1 4h-52v88h-5q-7 -20 -18.5 -38t-29.5 -32t-42.5 -22
t-56.5 -8q-81 0 -122.5 53.5t-41.5 153.5v330h148v-317q0 -48 17 -74t58 -26q17 0 34 5t30 14.5t21 23.5t8 33v341h147v-525z" />
    <glyph glyph-name="Wcircumflex" unicode="&#x174;" horiz-adv-x="973"
d="M187 0l-158 698h150l66 -335l37 -194h3l44 194l77 335h166l78 -335l43 -194h3l37 194l67 335h144l-162 -698h-173l-88 378l-34 153h-3l-35 -153l-88 -378h-174zM549 956l132 -159l-73 -58l-121 115l-121 -115l-73 58l132 159h124z" />
    <glyph glyph-name="wcircumflex" unicode="&#x175;" horiz-adv-x="841"
d="M19 525h143l51 -212l36 -160h4l42 160l60 212h135l61 -212l43 -160h4l36 160l51 212h137l-145 -525h-155l-64 222l-37 136h-3l-36 -136l-64 -222h-152zM483 795l132 -159l-73 -58l-121 115l-121 -115l-73 58l132 159h124z" />
    <glyph glyph-name="Ycircumflex" unicode="&#x176;" horiz-adv-x="649"
d="M248 0v273l-239 425h170l150 -278h2l144 278h165l-239 -424v-274h-153zM387 956l132 -159l-73 -58l-121 115l-121 -115l-73 58l132 159h124z" />
    <glyph glyph-name="ycircumflex" unicode="&#x177;" horiz-adv-x="534"
d="M390 525h138l-202 -606q-20 -61 -56.5 -90t-104.5 -29h-92v115h99l18 58l-184 552h147l77 -245l38 -152h6l39 152zM334 795l132 -159l-73 -58l-121 115l-121 -115l-73 58l132 159h124z" />
    <glyph glyph-name="Ydieresis" unicode="&#x178;" horiz-adv-x="649"
d="M248 0v273l-239 425h170l150 -278h2l144 278h165l-239 -424v-274h-153zM215 761q-45 0 -62.5 18.5t-17.5 44.5v25q0 26 17.5 44.5t62.5 18.5t62.5 -18.5t17.5 -44.5v-25q0 -26 -17.5 -44.5t-62.5 -18.5zM435 761q-45 0 -62.5 18.5t-17.5 44.5v25q0 26 17.5 44.5
t62.5 18.5t62.5 -18.5t17.5 -44.5v-25q0 -26 -17.5 -44.5t-62.5 -18.5z" />
    <glyph glyph-name="Zacute" unicode="&#x179;" horiz-adv-x="607"
d="M568 0h-529v135l344 428h-327v135h504v-135l-345 -428h353v-135zM319 740l-88 43l99 194l123 -61z" />
    <glyph glyph-name="zacute" unicode="&#x17a;" horiz-adv-x="518"
d="M39 0v117l261 293h-252v115h424v-116l-262 -294h269v-115h-440zM276 579l-88 43l99 194l123 -61z" />
    <glyph glyph-name="Zdotaccent" unicode="&#x17b;" horiz-adv-x="607"
d="M568 0h-529v135l344 428h-327v135h504v-135l-345 -428h353v-135zM303 752q-50 0 -69.5 20.5t-19.5 49.5v29q0 29 19.5 49.5t69.5 20.5t69.5 -20.5t19.5 -49.5v-29q0 -29 -19.5 -49.5t-69.5 -20.5z" />
    <glyph glyph-name="zdotaccent" unicode="&#x17c;" horiz-adv-x="518"
d="M39 0v117l261 293h-252v115h424v-116l-262 -294h269v-115h-440zM260 591q-50 0 -69.5 20.5t-19.5 49.5v29q0 29 19.5 49.5t69.5 20.5t69.5 -20.5t19.5 -49.5v-29q0 -29 -19.5 -49.5t-69.5 -20.5z" />
    <glyph glyph-name="Zcaron" unicode="&#x17d;" horiz-adv-x="607"
d="M568 0h-529v135l344 428h-327v135h504v-135l-345 -428h353v-135zM241 748l-132 159l73 58l121 -115l121 115l73 -58l-132 -159h-124z" />
    <glyph glyph-name="zcaron" unicode="&#x17e;" horiz-adv-x="518"
d="M39 0v117l261 293h-252v115h424v-116l-262 -294h269v-115h-440zM198 587l-132 159l73 58l121 -115l121 115l73 -58l-132 -159h-124z" />
    <glyph glyph-name="uni017F" unicode="&#x17f;" horiz-adv-x="312"
d="M95 410h-74v115h74v62q0 76 40 114.5t117 38.5h96v-115h-105v-625h-148v410z" />
    <glyph glyph-name="uni018F" unicode="&#x18f;" horiz-adv-x="714"
d="M50 399h453v3q0 83 -39 128t-107 45q-34 0 -58 -7.5t-41.5 -22t-28.5 -35t-18 -46.5l-137 49q13 41 37 77t59 62.5t81.5 42t105.5 15.5q70 0 126.5 -23t96.5 -69t62 -113.5t22 -155.5q0 -89 -22 -156t-62 -113t-96.5 -69t-126.5 -23t-126.5 23t-96.5 69t-62 113t-22 156
v50zM357 123q63 0 101.5 39t43.5 112h-290q5 -73 43.5 -112t101.5 -39z" />
    <glyph glyph-name="florin" unicode="&#x192;" horiz-adv-x="484"
d="M17 -19h115l28 270h-106l12 120h106l18 175q7 66 49.5 109t122.5 43h110l-12 -115h-119l-22 -212h125l-10 -120h-127l-24 -234q-7 -66 -49 -108.5t-123 -42.5h-106z" />
    <glyph glyph-name="Ohorn" unicode="&#x1a0;" horiz-adv-x="714"
d="M685 804v-94q0 -49 -20 -74.5t-78 -26.5q37 -45 57 -110t20 -150q0 -89 -22 -156.5t-62 -113t-97 -68.5t-126 -23t-126 23t-97 68.5t-62 113t-22 156.5t22 156.5t62 113t97 68.5t126 23q51 0 93 -12h111v106h124zM357 123q69 0 107.5 45t38.5 129v104q0 84 -38.5 129
t-107.5 45t-107.5 -45t-38.5 -129v-104q0 -84 38.5 -129t107.5 -45z" />
    <glyph glyph-name="ohorn" unicode="&#x1a1;" horiz-adv-x="564"
d="M551 631v-94q0 -47 -15.5 -70t-52.5 -28q24 -37 34.5 -78.5t10.5 -94.5q0 -63 -17 -114.5t-48.5 -88t-77 -56t-103.5 -19.5t-103.5 19.5t-77 56t-48.5 88t-17 114.5q0 127 65 199t181 72q46 0 85 -12h60v106h124zM282 105q44 0 68 27t24 77v107q0 50 -24 77t-68 27
t-68 -27t-24 -77v-107q0 -50 24 -77t68 -27z" />
    <glyph glyph-name="Uhorn" unicode="&#x1af;" horiz-adv-x="694"
d="M221 698v-428q0 -74 29 -110.5t97 -36.5t97 36.5t29 110.5v428h77v106h124v-94q0 -38 -11 -61.5t-42 -32.5v-330q0 -77 -14.5 -133.5t-47.5 -93t-85 -54t-127 -17.5t-127 17.5t-85 54t-47.5 93t-14.5 133.5v412h148z" />
    <glyph glyph-name="uhorn" unicode="&#x1b0;" horiz-adv-x="596"
d="M590 537q0 -43 -13.5 -67.5t-50.5 -30.5v-439h-147v88h-5q-7 -20 -18.5 -38t-29.5 -32t-42.5 -22t-56.5 -8q-81 0 -122.5 53.5t-41.5 153.5v330h148v-317q0 -48 17 -74t58 -26q17 0 34 5t30 14.5t21 23.5t8 33v341h87v106h124v-94z" />
    <glyph glyph-name="uni01CD" unicode="&#x1cd;" horiz-adv-x="685"
d="M507 0l-50 166h-233l-50 -166h-154l230 698h188l227 -698h-158zM342 560h-5l-77 -265h160zM277 748l-132 159l73 58l121 -115l121 115l73 -58l-132 -159h-124z" />
    <glyph glyph-name="uni01CE" unicode="&#x1ce;" horiz-adv-x="569"
d="M457 0q-40 0 -66.5 25t-33.5 67h-6q-12 -51 -53 -77.5t-101 -26.5q-79 0 -121 42t-42 111q0 83 60.5 123.5t164.5 40.5h83v33q0 38 -20 60.5t-67 22.5q-44 0 -70 -19t-43 -43l-88 78q32 47 80.5 73.5t131.5 26.5q112 0 168 -49t56 -143v-230h49v-115h-82zM252 91
q37 0 63.5 16t26.5 52v62h-72q-87 0 -87 -59v-15q0 -29 18 -42.5t51 -13.5zM207 587l-132 159l73 58l121 -115l121 115l73 -58l-132 -159h-124z" />
    <glyph glyph-name="uni01CF" unicode="&#x1cf;" horiz-adv-x="432"
d="M50 0v121h90v456h-90v121h332v-121h-90v-456h90v-121h-332zM155 748l-132 159l73 58l121 -115l121 115l73 -58l-132 -159h-124z" />
    <glyph glyph-name="uni01D0" unicode="&#x1d0;" horiz-adv-x="286"
d="M69 0v525h148v-525h-148zM82 587l-132 159l73 58l121 -115l121 115l73 -58l-132 -159h-124z" />
    <glyph glyph-name="uni01D1" unicode="&#x1d1;" horiz-adv-x="714"
d="M357 -12q-69 0 -126 23t-97 68.5t-62 113t-22 156.5t22 156.5t62 113t97 68.5t126 23t126 -23t97 -68.5t62 -113t22 -156.5t-22 -156.5t-62 -113t-97 -68.5t-126 -23zM357 123q69 0 107.5 45t38.5 129v104q0 84 -38.5 129t-107.5 45t-107.5 -45t-38.5 -129v-104
q0 -84 38.5 -129t107.5 -45zM295 748l-132 159l73 58l121 -115l121 115l73 -58l-132 -159h-124z" />
    <glyph glyph-name="uni01D2" unicode="&#x1d2;" horiz-adv-x="564"
d="M282 -12q-58 0 -103.5 19t-77 55t-48.5 87t-17 114t17 114t48.5 86.5t77 54.5t103.5 19t103.5 -19t77 -54.5t48.5 -86.5t17 -114t-17 -114t-48.5 -87t-77 -55t-103.5 -19zM282 105q44 0 68 27t24 77v107q0 50 -24 77t-68 27t-68 -27t-24 -77v-107q0 -50 24 -77t68 -27z
M220 587l-132 159l73 58l121 -115l121 115l73 -58l-132 -159h-124z" />
    <glyph glyph-name="uni01D3" unicode="&#x1d3;" horiz-adv-x="694"
d="M221 698v-428q0 -74 29 -110.5t97 -36.5t97 36.5t29 110.5v428h148v-412q0 -77 -14.5 -133.5t-47.5 -93t-85 -54t-127 -17.5t-127 17.5t-85 54t-47.5 93t-14.5 133.5v412h148zM285 748l-132 159l73 58l121 -115l121 115l73 -58l-132 -159h-124z" />
    <glyph glyph-name="uni01D4" unicode="&#x1d4;" horiz-adv-x="596"
d="M379 88h-5q-7 -20 -18.5 -38t-29.5 -32t-42.5 -22t-56.5 -8q-81 0 -122.5 53.5t-41.5 153.5v330h148v-317q0 -48 17 -74t58 -26q17 0 34 5t30 14.5t21 23.5t8 33v341h148v-525h-148v88zM234 587l-132 159l73 58l121 -115l121 115l73 -58l-132 -159h-124z" />
    <glyph glyph-name="uni01D5" unicode="&#x1d5;" horiz-adv-x="694"
d="M221 698v-428q0 -74 29 -110.5t97 -36.5t97 36.5t29 110.5v428h148v-412q0 -77 -14.5 -133.5t-47.5 -93t-85 -54t-127 -17.5t-127 17.5t-85 54t-47.5 93t-14.5 133.5v412h148zM194 1050h306v-103h-306v103zM237 748q-45 0 -62.5 18.5t-17.5 44.5v25q0 26 17.5 44.5
t62.5 18.5t62.5 -18.5t17.5 -44.5v-25q0 -26 -17.5 -44.5t-62.5 -18.5zM457 748q-45 0 -62.5 18.5t-17.5 44.5v25q0 26 17.5 44.5t62.5 18.5t62.5 -18.5t17.5 -44.5v-25q0 -26 -17.5 -44.5t-62.5 -18.5z" />
    <glyph glyph-name="uni01D6" unicode="&#x1d6;" horiz-adv-x="596"
d="M379 88h-5q-7 -20 -18.5 -38t-29.5 -32t-42.5 -22t-56.5 -8q-81 0 -122.5 53.5t-41.5 153.5v330h148v-317q0 -48 17 -74t58 -26q17 0 34 5t30 14.5t21 23.5t8 33v341h148v-525h-148v88zM142 889h306v-103h-306v103zM185 587q-45 0 -62.5 18.5t-17.5 44.5v25
q0 26 17.5 44.5t62.5 18.5t62.5 -18.5t17.5 -44.5v-25q0 -26 -17.5 -44.5t-62.5 -18.5zM405 587q-45 0 -62.5 18.5t-17.5 44.5v25q0 26 17.5 44.5t62.5 18.5t62.5 -18.5t17.5 -44.5v-25q0 -26 -17.5 -44.5t-62.5 -18.5z" />
    <glyph glyph-name="uni01D7" unicode="&#x1d7;" horiz-adv-x="694"
d="M221 698v-428q0 -74 29 -110.5t97 -36.5t97 36.5t29 110.5v428h148v-412q0 -77 -14.5 -133.5t-47.5 -93t-85 -54t-127 -17.5t-127 17.5t-85 54t-47.5 93t-14.5 133.5v412h148zM357 894l-79 39l99 194l114 -57zM237 748q-45 0 -62.5 18.5t-17.5 44.5v25q0 26 17.5 44.5
t62.5 18.5t62.5 -18.5t17.5 -44.5v-25q0 -26 -17.5 -44.5t-62.5 -18.5zM457 748q-45 0 -62.5 18.5t-17.5 44.5v25q0 26 17.5 44.5t62.5 18.5t62.5 -18.5t17.5 -44.5v-25q0 -26 -17.5 -44.5t-62.5 -18.5z" />
    <glyph glyph-name="uni01D8" unicode="&#x1d8;" horiz-adv-x="596"
d="M379 88h-5q-7 -20 -18.5 -38t-29.5 -32t-42.5 -22t-56.5 -8q-81 0 -122.5 53.5t-41.5 153.5v330h148v-317q0 -48 17 -74t58 -26q17 0 34 5t30 14.5t21 23.5t8 33v341h148v-525h-148v88zM305 733l-79 39l99 194l114 -57zM185 587q-45 0 -62.5 18.5t-17.5 44.5v25
q0 26 17.5 44.5t62.5 18.5t62.5 -18.5t17.5 -44.5v-25q0 -26 -17.5 -44.5t-62.5 -18.5zM405 587q-45 0 -62.5 18.5t-17.5 44.5v25q0 26 17.5 44.5t62.5 18.5t62.5 -18.5t17.5 -44.5v-25q0 -26 -17.5 -44.5t-62.5 -18.5z" />
    <glyph glyph-name="uni01D9" unicode="&#x1d9;" horiz-adv-x="694"
d="M221 698v-428q0 -74 29 -110.5t97 -36.5t97 36.5t29 110.5v428h148v-412q0 -77 -14.5 -133.5t-47.5 -93t-85 -54t-127 -17.5t-127 17.5t-85 54t-47.5 93t-14.5 133.5v412h148zM300 918l-145 147l68 64l124 -104l124 104l68 -64l-145 -147h-94zM237 748q-45 0 -62.5 18.5
t-17.5 44.5v25q0 26 17.5 44.5t62.5 18.5t62.5 -18.5t17.5 -44.5v-25q0 -26 -17.5 -44.5t-62.5 -18.5zM457 748q-45 0 -62.5 18.5t-17.5 44.5v25q0 26 17.5 44.5t62.5 18.5t62.5 -18.5t17.5 -44.5v-25q0 -26 -17.5 -44.5t-62.5 -18.5z" />
    <glyph glyph-name="uni01DA" unicode="&#x1da;" horiz-adv-x="596"
d="M379 88h-5q-7 -20 -18.5 -38t-29.5 -32t-42.5 -22t-56.5 -8q-81 0 -122.5 53.5t-41.5 153.5v330h148v-317q0 -48 17 -74t58 -26q17 0 34 5t30 14.5t21 23.5t8 33v341h148v-525h-148v88zM248 757l-145 147l68 64l124 -104l124 104l68 -64l-145 -147h-94zM185 587
q-45 0 -62.5 18.5t-17.5 44.5v25q0 26 17.5 44.5t62.5 18.5t62.5 -18.5t17.5 -44.5v-25q0 -26 -17.5 -44.5t-62.5 -18.5zM405 587q-45 0 -62.5 18.5t-17.5 44.5v25q0 26 17.5 44.5t62.5 18.5t62.5 -18.5t17.5 -44.5v-25q0 -26 -17.5 -44.5t-62.5 -18.5z" />
    <glyph glyph-name="uni01DB" unicode="&#x1db;" horiz-adv-x="694"
d="M221 698v-428q0 -74 29 -110.5t97 -36.5t97 36.5t29 110.5v428h148v-412q0 -77 -14.5 -133.5t-47.5 -93t-85 -54t-127 -17.5t-127 17.5t-85 54t-47.5 93t-14.5 133.5v412h148zM203 1070l114 57l99 -194l-79 -39zM237 748q-45 0 -62.5 18.5t-17.5 44.5v25q0 26 17.5 44.5
t62.5 18.5t62.5 -18.5t17.5 -44.5v-25q0 -26 -17.5 -44.5t-62.5 -18.5zM457 748q-45 0 -62.5 18.5t-17.5 44.5v25q0 26 17.5 44.5t62.5 18.5t62.5 -18.5t17.5 -44.5v-25q0 -26 -17.5 -44.5t-62.5 -18.5z" />
    <glyph glyph-name="uni01DC" unicode="&#x1dc;" horiz-adv-x="596"
d="M379 88h-5q-7 -20 -18.5 -38t-29.5 -32t-42.5 -22t-56.5 -8q-81 0 -122.5 53.5t-41.5 153.5v330h148v-317q0 -48 17 -74t58 -26q17 0 34 5t30 14.5t21 23.5t8 33v341h148v-525h-148v88zM151 909l114 57l99 -194l-79 -39zM185 587q-45 0 -62.5 18.5t-17.5 44.5v25
q0 26 17.5 44.5t62.5 18.5t62.5 -18.5t17.5 -44.5v-25q0 -26 -17.5 -44.5t-62.5 -18.5zM405 587q-45 0 -62.5 18.5t-17.5 44.5v25q0 26 17.5 44.5t62.5 18.5t62.5 -18.5t17.5 -44.5v-25q0 -26 -17.5 -44.5t-62.5 -18.5z" />
    <glyph glyph-name="Aringacute" unicode="&#x1fa;" horiz-adv-x="685"
d="M507 0l-50 166h-233l-50 -166h-154l230 698h188l227 -698h-158zM342 560h-5l-77 -265h160zM332 976l-53 57l129 117l74 -81zM339 725q-32 0 -59.5 8t-48 23.5t-32.5 37.5t-12 51q0 28 12 50.5t32.5 38t48 23.5t59.5 8t59.5 -8t48 -23.5t32.5 -38t12 -50.5q0 -29 -12 -51
t-32.5 -37.5t-48 -23.5t-59.5 -8zM339 795q27 0 41 10.5t14 34.5v10q0 24 -14 34.5t-41 10.5t-41 -10.5t-14 -34.5v-10q0 -24 14 -34.5t41 -10.5z" />
    <glyph glyph-name="aringacute" unicode="&#x1fb;" horiz-adv-x="569"
d="M457 0q-40 0 -66.5 25t-33.5 67h-6q-12 -51 -53 -77.5t-101 -26.5q-79 0 -121 42t-42 111q0 83 60.5 123.5t164.5 40.5h83v33q0 38 -20 60.5t-67 22.5q-44 0 -70 -19t-43 -43l-88 78q32 47 80.5 73.5t131.5 26.5q112 0 168 -49t56 -143v-230h49v-115h-82zM252 91
q37 0 63.5 16t26.5 52v62h-72q-87 0 -87 -59v-15q0 -29 18 -42.5t51 -13.5zM262 815l-53 57l129 117l74 -81zM269 564q-32 0 -59.5 8t-48 23.5t-32.5 37.5t-12 51q0 28 12 50.5t32.5 38t48 23.5t59.5 8t59.5 -8t48 -23.5t32.5 -38t12 -50.5q0 -29 -12 -51t-32.5 -37.5
t-48 -23.5t-59.5 -8zM269 634q55 0 55 45v10q0 45 -55 45t-55 -45v-10q0 -45 55 -45z" />
    <glyph glyph-name="AEacute" unicode="&#x1fc;" horiz-adv-x="968"
d="M438 166h-209l-78 -166h-152l341 698h573v-135h-324v-143h278v-134h-278v-151h324v-135h-475v166zM415 563l-125 -268h148v268h-23zM661 740l-88 43l99 194l123 -61z" />
    <glyph glyph-name="aeacute" unicode="&#x1fd;" horiz-adv-x="864"
d="M270 225q-40 0 -63.5 -15t-23.5 -44v-14q0 -61 71 -61q35 0 61.5 16t26.5 52v66h-72zM675 312v9q0 48 -21.5 77.5t-66.5 29.5t-70.5 -29.5t-25.5 -78.5v-8h184zM610 106q46 0 76.5 19t52.5 42l74 -92q-35 -41 -91.5 -64t-128.5 -23q-75 0 -129 29.5t-75 73.5h-6
q-8 -21 -22.5 -40t-37 -33t-53.5 -22t-72 -8q-40 0 -70.5 11.5t-51.5 32.5t-31.5 49.5t-10.5 62.5q0 42 16.5 73.5t46.5 52.5t71.5 31.5t90.5 10.5h83v26q0 38 -20 60.5t-67 22.5q-44 0 -70 -19t-43 -43l-88 78q32 47 80.5 73.5t131.5 26.5q48 0 85.5 -17.5t62.5 -56.5h6
q24 38 67.5 56t100.5 18q65 0 111 -22t74.5 -59t41.5 -85.5t13 -101.5v-44h-338v-8q0 -51 31.5 -81t88.5 -30zM448 579l-88 43l99 194l123 -61z" />
    <glyph glyph-name="Oslashacute" unicode="&#x1fe;" horiz-adv-x="714"
d="M357 -12q-84 0 -150 34l-53 -78l-92 59l61 90q-35 45 -54 109t-19 147q0 89 22 156.5t62 113t97 68.5t126 23q84 0 150 -34l53 78l92 -59l-61 -90q35 -45 54 -109t19 -147q0 -89 -22 -156.5t-62 -113t-97 -68.5t-126 -23zM204 294q0 -47 12 -83l223 354q-33 21 -82 21
q-72 0 -112.5 -47t-40.5 -135v-110zM510 404q0 47 -12 83l-223 -354q33 -21 82 -21q72 0 112.5 47t40.5 135v110zM373 740l-88 43l99 194l123 -61z" />
    <glyph glyph-name="oslashacute" unicode="&#x1ff;" horiz-adv-x="572"
d="M14 10l67 83q-41 68 -41 170q0 63 17 114t48.5 86.5t77 54.5t103.5 19q75 0 132 -34l60 72l80 -60l-68 -84q42 -66 42 -169q0 -63 -17 -114t-48.5 -86.5t-77 -54.5t-103.5 -19q-38 0 -71.5 8.5t-60.5 24.5l-60 -71zM286 96q46 0 71.5 32t25.5 86v98l-161 -193
q25 -23 64 -23zM189 214l160 192q-25 23 -63 23q-46 0 -71.5 -32t-25.5 -86v-97zM302 579l-88 43l99 194l123 -61z" />
    <glyph glyph-name="Scommaaccent" unicode="&#x218;" horiz-adv-x="624"
d="M303 -12q-92 0 -156 31.5t-109 81.5l100 101q71 -80 175 -80q56 0 83 23t27 61q0 29 -16 48.5t-65 26.5l-69 9q-111 14 -162.5 67t-51.5 141q0 47 18 86t51.5 67t82 43.5t110.5 15.5q79 0 139 -25t103 -73l-101 -102q-25 29 -60.5 47.5t-89.5 18.5q-51 0 -76 -18t-25 -50
q0 -36 19.5 -52t63.5 -23l69 -11q108 -17 160 -66.5t52 -140.5q0 -50 -18 -92t-52.5 -72t-85.5 -46.5t-116 -16.5zM309 -42q33 0 51.5 -16t18.5 -46v-14q0 -46 -19 -89t-48 -68h-85q26 22 40 45.5t22 53.5q-29 2 -39.5 20.5t-10.5 40.5v11q0 30 18.5 46t51.5 16z" />
    <glyph glyph-name="scommaaccent" unicode="&#x219;" horiz-adv-x="504"
d="M247 -12q-76 0 -128 24.5t-93 69.5l87 88q28 -31 62 -49t77 -18q44 0 61 13.5t17 36.5q0 37 -53 44l-57 7q-177 22 -177 162q0 38 14.5 69.5t41 54t64 35t84.5 12.5q41 0 72.5 -5.5t56 -16t45 -26t40.5 -34.5l-85 -87q-25 25 -56.5 39.5t-64.5 14.5q-38 0 -54 -12
t-16 -32q0 -21 11.5 -32.5t43.5 -16.5l59 -8q173 -23 173 -158q0 -38 -16 -70t-45.5 -55.5t-71 -36.5t-92.5 -13zM248 -42q33 0 51.5 -16t18.5 -46v-14q0 -46 -19 -89t-48 -68h-85q26 22 40 45.5t22 53.5q-29 2 -39.5 20.5t-10.5 40.5v11q0 30 18.5 46t51.5 16z" />
    <glyph glyph-name="uni021A" unicode="&#x21a;" horiz-adv-x="584"
d="M368 563v-563h-152v563h-189v135h530v-135h-189zM291 -42q33 0 51.5 -16t18.5 -46v-14q0 -46 -19 -89t-48 -68h-85q26 22 40 45.5t22 53.5q-29 2 -39.5 20.5t-10.5 40.5v11q0 30 18.5 46t51.5 16z" />
    <glyph glyph-name="uni021B" unicode="&#x21b;" horiz-adv-x="383"
d="M253 0q-77 0 -116.5 39t-39.5 114v257h-74v115h37q30 0 41 14.5t11 41.5v86h133v-142h104v-115h-104v-295h96v-115h-88zM228 -42q33 0 51.5 -16t18.5 -46v-14q0 -46 -19 -89t-48 -68h-85q26 22 40 45.5t22 53.5q-29 2 -39.5 20.5t-10.5 40.5v11q0 30 18.5 46t51.5 16z
" />
    <glyph glyph-name="uni0237" unicode="&#x237;" horiz-adv-x="286"
d="M-9 -85h78v610h148v-581q0 -70 -35 -107t-113 -37h-78v115z" />
    <glyph glyph-name="uni0259" unicode="&#x259;" horiz-adv-x="562"
d="M373 300v8q0 52 -27 82.5t-84 30.5q-25 0 -44 -6t-34 -15t-26.5 -20.5l-21.5 -21.5l-74 92q35 41 90 64t127 23q59 0 105 -19.5t77.5 -55t48 -86.5t16.5 -114q0 -62 -16 -112.5t-47.5 -86.5t-77.5 -55.5t-105 -19.5q-65 0 -111.5 22t-76 59t-43 85.5t-13.5 101.5v44h337z
M189 204q0 -48 21.5 -77.5t66.5 -29.5t70.5 29.5t25.5 78.5v8h-184v-9z" />
    <glyph glyph-name="uni02BB" unicode="&#x2bb;"
d="M301 576q-33 0 -51.5 16t-18.5 46v14q0 46 19 89t48 68h85q-26 -22 -40 -45.5t-22 -53.5q29 -2 39.5 -20.5t10.5 -40.5v-11q0 -30 -18.5 -46t-51.5 -16z" />
    <glyph glyph-name="uni02BC" unicode="&#x2bc;"
d="M234 525h-97l6 215h157z" />
    <glyph glyph-name="circumflex" unicode="&#x2c6;"
d="M362 795l132 -159l-73 -58l-121 115l-121 -115l-73 58l132 159h124z" />
    <glyph glyph-name="caron" unicode="&#x2c7;"
d="M238 587l-132 159l73 58l121 -115l121 115l73 -58l-132 -159h-124z" />
    <glyph glyph-name="breve" unicode="&#x2d8;"
d="M300 579q-44 0 -76 16.5t-54 41.5t-36.5 55t-23.5 57l81 42l20 -33q22 -36 42.5 -56t46.5 -20t47 20t43 56l20 33l80 -42q-9 -27 -24 -57t-38 -55t-54.5 -41.5t-73.5 -16.5z" />
    <glyph glyph-name="dotaccent" unicode="&#x2d9;"
d="M300 591q-50 0 -69.5 20.5t-19.5 49.5v29q0 29 19.5 49.5t69.5 20.5t69.5 -20.5t19.5 -49.5v-29q0 -29 -19.5 -49.5t-69.5 -20.5z" />
    <glyph glyph-name="ring" unicode="&#x2da;"
d="M300 558q-31 0 -58 10.5t-47 29.5t-31.5 45.5t-11.5 57.5t11.5 57.5t31.5 45.5t47 29.5t58 10.5t58 -10.5t47 -29.5t31.5 -45.5t11.5 -57.5t-11.5 -57.5t-31.5 -45.5t-47 -29.5t-58 -10.5zM300 633q25 0 38 13.5t13 37.5v34q0 24 -13 37.5t-38 13.5t-38 -13.5t-13 -37.5
v-34q0 -24 13 -37.5t38 -13.5z" />
    <glyph glyph-name="ogonek" unicode="&#x2db;"
d="M210 -212q-25 0 -47.5 4.5t-39.5 14t-27 26t-10 40.5q0 42 31.5 69.5t87.5 53.5l-8 26h93l10 -22q-37 -23 -59.5 -38.5t-34.5 -27.5t-16 -21t-4 -18q0 -19 11.5 -26t26.5 -7q18 0 31 8t24 20l53 -51q-13 -24 -43.5 -37.5t-78.5 -13.5z" />
    <glyph glyph-name="tilde" unicode="&#x2dc;"
d="M376 601q-23 0 -40.5 6t-36.5 14q-22 9 -40 15.5t-38 6.5q-17 0 -30 -6t-29 -19l-52 68q18 27 46 45.5t68 18.5q23 0 40.5 -6t36.5 -14q22 -9 40 -15.5t38 -6.5q17 0 30 6t29 19l52 -68q-18 -27 -46 -45.5t-68 -18.5z" />
    <glyph glyph-name="hungarumlaut" unicode="&#x2dd;"
d="M210 579l-81 39l99 194l116 -57zM415 579l-81 39l99 194l116 -57z" />
    <glyph glyph-name="uni0300" unicode="&#x300;" horiz-adv-x="0"
d="M-149 755l123 61l99 -194l-88 -43z" />
    <glyph glyph-name="uni0301" unicode="&#x301;" horiz-adv-x="0"
d="M17 579l-88 43l99 194l123 -61z" />
    <glyph glyph-name="uni0302" unicode="&#x302;" horiz-adv-x="0"
d="M63 795l132 -159l-73 -58l-121 115l-121 -115l-73 58l132 159h124z" />
    <glyph glyph-name="uni0303" unicode="&#x303;" horiz-adv-x="0"
d="M77 601q-23 0 -40.5 6t-36.5 14q-22 9 -40 15.5t-38 6.5q-17 0 -30 -6t-29 -19l-52 68q18 27 46 45.5t68 18.5q23 0 40.5 -6t36.5 -14q22 -9 40 -15.5t38 -6.5q17 0 30 6t29 19l52 -68q-18 -27 -46 -45.5t-68 -18.5z" />
    <glyph glyph-name="uni0304" unicode="&#x304;" horiz-adv-x="0"
d="M-152 727h306v-103h-306v103z" />
    <glyph glyph-name="uni0306" unicode="&#x306;" horiz-adv-x="0"
d="M1 579q-44 0 -76 16.5t-54 41.5t-36.5 55t-23.5 57l81 42l20 -33q22 -36 42.5 -56t46.5 -20t47 20t43 56l20 33l80 -42q-9 -27 -24 -57t-38 -55t-54.5 -41.5t-73.5 -16.5z" />
    <glyph glyph-name="uni0307" unicode="&#x307;" horiz-adv-x="0"
d="M1 591q-50 0 -69.5 20.5t-19.5 49.5v29q0 29 19.5 49.5t69.5 20.5t69.5 -20.5t19.5 -49.5v-29q0 -29 -19.5 -49.5t-69.5 -20.5z" />
    <glyph glyph-name="uni0308" unicode="&#x308;" horiz-adv-x="0"
d="M-109 600q-45 0 -62.5 18.5t-17.5 44.5v25q0 26 17.5 44.5t62.5 18.5t62.5 -18.5t17.5 -44.5v-25q0 -26 -17.5 -44.5t-62.5 -18.5zM111 600q-45 0 -62.5 18.5t-17.5 44.5v25q0 26 17.5 44.5t62.5 18.5t62.5 -18.5t17.5 -44.5v-25q0 -26 -17.5 -44.5t-62.5 -18.5z" />
    <glyph glyph-name="uni0309" unicode="&#x309;" horiz-adv-x="0"
d="M-120 802h143q28 0 47 -6t30 -16t16 -23t5 -28q0 -29 -16 -62.5t-41 -63.5l-28 -34l-75 35l41 92h-122v106z" />
    <glyph glyph-name="uni030A" unicode="&#x30a;" horiz-adv-x="0"
d="M1 558q-31 0 -58 10.5t-47 29.5t-31.5 45.5t-11.5 57.5t11.5 57.5t31.5 45.5t47 29.5t58 10.5t58 -10.5t47 -29.5t31.5 -45.5t11.5 -57.5t-11.5 -57.5t-31.5 -45.5t-47 -29.5t-58 -10.5zM1 633q25 0 38 13.5t13 37.5v34q0 24 -13 37.5t-38 13.5t-38 -13.5t-13 -37.5v-34
q0 -24 13 -37.5t38 -13.5z" />
    <glyph glyph-name="uni030B" unicode="&#x30b;" horiz-adv-x="0"
d="M-89 579l-81 39l99 194l116 -57zM116 579l-81 39l99 194l116 -57z" />
    <glyph glyph-name="uni030C" unicode="&#x30c;" horiz-adv-x="0"
d="M-61 587l-132 159l73 58l121 -115l121 115l73 -58l-132 -159h-124z" />
    <glyph glyph-name="uni0312" unicode="&#x312;" horiz-adv-x="0"
d="M2 576q-33 0 -51.5 16t-18.5 46v14q0 46 19 89t48 68h85q-26 -22 -40 -45.5t-22 -53.5q29 -2 39.5 -20.5t10.5 -40.5v-11q0 -30 -18.5 -46t-51.5 -16z" />
    <glyph glyph-name="uni0315" unicode="&#x315;" horiz-adv-x="0"
d="M98 525h-97l6 215h157z" />
    <glyph glyph-name="uni031B" unicode="&#x31b;" horiz-adv-x="0"
d="M125 537q0 -51 -20 -76t-80 -25h-150v89h126v106h124v-94z" />
    <glyph glyph-name="uni0323" unicode="&#x323;" horiz-adv-x="0"
d="M0 -204q-45 0 -63 18.5t-18 44.5v26q0 26 18 44.5t63 18.5t63 -18.5t18 -44.5v-26q0 -26 -18 -44.5t-63 -18.5z" />
    <glyph glyph-name="uni0326" unicode="&#x326;" horiz-adv-x="0"
d="M-1 -42q33 0 51.5 -16t18.5 -46v-14q0 -46 -19 -89t-48 -68h-85q26 22 40 45.5t22 53.5q-29 2 -39.5 20.5t-10.5 40.5v11q0 30 18.5 46t51.5 16z" />
    <glyph glyph-name="uni0327" unicode="&#x327;" horiz-adv-x="0"
d="M15 -212q-52 0 -81.5 14.5t-42.5 29.5l46 56q10 -12 26.5 -20.5t39.5 -8.5q19 0 31.5 6t12.5 19q0 6 -3 12t-11.5 11.5t-23 10t-37.5 6.5l-21 2l22 104h67l-18 -85l4 -4q12 3 24 5t24 2q30 0 51.5 -16t21.5 -53q0 -26 -11 -43t-29.5 -28t-42.5 -15.5t-49 -4.5z" />
    <glyph glyph-name="uni0328" unicode="&#x328;" horiz-adv-x="0"
d="M-89 -212q-25 0 -47.5 4.5t-39.5 14t-27 26t-10 40.5q0 42 31.5 69.5t87.5 53.5l-8 26h93l10 -22q-37 -23 -59.5 -38.5t-34.5 -27.5t-16 -21t-4 -18q0 -19 11.5 -26t26.5 -7q18 0 31 8t24 20l53 -51q-13 -24 -43.5 -37.5t-78.5 -13.5z" />
    <glyph glyph-name="uni037E" unicode="&#x37e;" horiz-adv-x="330"
d="M165 169q45 0 66.5 -22.5t21.5 -57.5v-20q0 -61 -29.5 -120t-77.5 -96h-100q35 33 60 65.5t38 72.5q-35 6 -51 27.5t-16 50.5v20q0 35 21.5 57.5t66.5 22.5zM165 356q-45 0 -66.5 22.5t-21.5 57.5v20q0 35 21.5 57.5t66.5 22.5t66.5 -22.5t21.5 -57.5v-20
q0 -35 -21.5 -57.5t-66.5 -22.5z" />
    <glyph glyph-name="tonos" unicode="&#x384;"
d="M352 579l-95 14l35 223l133 -20z" />
    <glyph glyph-name="dieresistonos" unicode="&#x385;"
d="M183 605q-64 0 -64 58v24q0 59 64 59t64 -58v-24q0 -59 -64 -59zM338 579l-63 11l35 226l101 -17zM477 605q-64 0 -64 58v24q0 59 64 59t64 -58v-24q0 -59 -64 -59z" />
    <glyph glyph-name="Alphatonos" unicode="&#x386;" horiz-adv-x="685"
d="M507 0l-50 166h-233l-50 -166h-154l230 698h188l227 -698h-158zM342 560h-5l-77 -265h160zM137 579l-95 14l35 223l133 -20z" />
    <glyph glyph-name="anoteleia" unicode="&#x387;" horiz-adv-x="330"
d="M165 356q-45 0 -66.5 22.5t-21.5 57.5v20q0 35 21.5 57.5t66.5 22.5t66.5 -22.5t21.5 -57.5v-20q0 -35 -21.5 -57.5t-66.5 -22.5z" />
    <glyph glyph-name="Epsilontonos" unicode="&#x388;" horiz-adv-x="703"
d="M173 0v698h475v-135h-323v-143h277v-134h-277v-151h323v-135h-475zM80 579l-95 14l35 223l133 -20z" />
    <glyph glyph-name="Etatonos" unicode="&#x389;" horiz-adv-x="820"
d="M591 286h-266v-286h-152v698h152v-278h266v278h152v-698h-152v286zM80 579l-95 14l35 223l133 -20z" />
    <glyph glyph-name="Iotatonos" unicode="&#x38a;" horiz-adv-x="555"
d="M173 0v121h90v456h-90v121h332v-121h-90v-456h90v-121h-332zM80 579l-95 14l35 223l133 -20z" />
    <glyph glyph-name="Omicrontonos" unicode="&#x38c;" horiz-adv-x="756"
d="M399 -12q-69 0 -126 23t-97 68.5t-62 113t-22 156.5t22 156.5t62 113t97 68.5t126 23t126 -23t97 -68.5t62 -113t22 -156.5t-22 -156.5t-62 -113t-97 -68.5t-126 -23zM399 123q69 0 107.5 45t38.5 129v104q0 84 -38.5 129t-107.5 45t-107.5 -45t-38.5 -129v-104
q0 -84 38.5 -129t107.5 -45zM80 579l-95 14l35 223l133 -20z" />
    <glyph glyph-name="Upsilontonos" unicode="&#x38e;" horiz-adv-x="793"
d="M392 0v273l-239 425h170l150 -278h2l144 278h165l-239 -424v-274h-153zM80 579l-95 14l35 223l133 -20z" />
    <glyph glyph-name="Omegatonos" unicode="&#x38f;" horiz-adv-x="767"
d="M93 134h159v10q-75 34 -114.5 96.5t-39.5 159.5q0 65 20.5 121.5t60 98.5t96.5 66t130 24t130 -24t96.5 -66t60 -98.5t20.5 -121.5q0 -97 -39.5 -159.5t-114.5 -96.5v-10h159v-134h-269v205q23 7 42.5 21.5t33 34t21 42.5t7.5 47v81q0 28 -10 54t-29 46t-46.5 32
t-61.5 12t-61.5 -12t-46.5 -32t-29 -46t-10 -54v-81q0 -24 7.5 -47t21 -42.5t33 -34t42.5 -21.5v-205h-269v134zM80 579l-95 14l35 223l133 -20z" />
    <glyph glyph-name="iotadieresistonos" unicode="&#x390;" horiz-adv-x="329"
d="M313 0h-88q-77 0 -116.5 39t-39.5 114v372h148v-410h96v-115zM9 605q-64 0 -64 58v24q0 59 64 59t64 -58v-24q0 -59 -64 -59zM164 579l-63 11l35 226l101 -17zM303 605q-64 0 -64 58v24q0 59 64 59t64 -58v-24q0 -59 -64 -59z" />
    <glyph glyph-name="Alpha" unicode="&#x391;" horiz-adv-x="685"
d="M507 0l-50 166h-233l-50 -166h-154l230 698h188l227 -698h-158zM342 560h-5l-77 -265h160z" />
    <glyph glyph-name="Beta" unicode="&#x392;" horiz-adv-x="667"
d="M77 698h339q87 0 135.5 -49t48.5 -130q0 -40 -10.5 -68t-28 -46t-41 -26.5t-50.5 -9.5v-6q25 0 52.5 -9t50.5 -28.5t38.5 -50.5t15.5 -76q0 -41 -13.5 -77.5t-37.5 -63.5t-57 -42.5t-72 -15.5h-370v698zM229 128h175q30 0 47.5 16.5t17.5 46.5v34q0 30 -17.5 46.5
t-47.5 16.5h-175v-160zM229 412h151q30 0 47 17t17 47v30q0 30 -17 47t-47 17h-151v-158z" />
    <glyph glyph-name="Gamma" unicode="&#x393;" horiz-adv-x="514"
d="M77 698h410v-135h-258v-563h-152v698z" />
    <glyph glyph-name="uni0394" unicode="&#x394;" horiz-adv-x="684"
d="M49 121l199 577h188l199 -577v-121h-586v121zM342 560h-5l-133 -425h271z" />
    <glyph glyph-name="Epsilon" unicode="&#x395;" horiz-adv-x="607"
d="M77 0v698h475v-135h-323v-143h277v-134h-277v-151h323v-135h-475z" />
    <glyph glyph-name="Zeta" unicode="&#x396;" horiz-adv-x="607"
d="M568 0h-529v135l344 428h-327v135h504v-135l-345 -428h353v-135z" />
    <glyph glyph-name="Eta" unicode="&#x397;" horiz-adv-x="724"
d="M495 286h-266v-286h-152v698h152v-278h266v278h152v-698h-152v286z" />
    <glyph glyph-name="Theta" unicode="&#x398;" horiz-adv-x="724"
d="M362 -12q-72 0 -129.5 23t-98 68.5t-62.5 113t-22 156.5t22 156.5t62.5 113t98 68.5t129.5 23t129.5 -23t98 -68.5t62.5 -113t22 -156.5t-22 -156.5t-62.5 -113t-98 -68.5t-129.5 -23zM362 123q73 0 112 45t39 129v104q0 84 -39 129t-112 45t-112 -45t-39 -129v-104
q0 -84 39 -129t112 -45zM266 286v134h192v-134h-192z" />
    <glyph glyph-name="Iota" unicode="&#x399;" horiz-adv-x="432"
d="M50 0v121h90v456h-90v121h332v-121h-90v-456h90v-121h-332z" />
    <glyph glyph-name="Kappa" unicode="&#x39a;" horiz-adv-x="696"
d="M320 304l-91 -110v-194h-152v698h152v-332h6l99 135l157 197h172l-235 -287l256 -411h-179z" />
    <glyph glyph-name="Lambda" unicode="&#x39b;" horiz-adv-x="671"
d="M426 698l225 -698h-158l-104 335l-55 219h-3l-53 -219l-104 -335h-154l227 698h179z" />
    <glyph glyph-name="Mu" unicode="&#x39c;" horiz-adv-x="819"
d="M599 458h-3l-51 -102l-136 -247l-133 246l-53 110h-3v-465h-143v698h161l171 -327h2l169 327h162v-698h-143v458z" />
    <glyph glyph-name="Nu" unicode="&#x39d;" horiz-adv-x="724"
d="M290 330l-67 140h-3v-470h-143v698h166l191 -330l67 -140h3v470h143v-698h-166z" />
    <glyph glyph-name="Xi" unicode="&#x39e;" horiz-adv-x="605"
d="M55 698h495v-135h-495v135zM116 420h373v-134h-373v134zM55 135h495v-135h-495v135z" />
    <glyph glyph-name="Omicron" unicode="&#x39f;" horiz-adv-x="714"
d="M357 -12q-69 0 -126 23t-97 68.5t-62 113t-22 156.5t22 156.5t62 113t97 68.5t126 23t126 -23t97 -68.5t62 -113t22 -156.5t-22 -156.5t-62 -113t-97 -68.5t-126 -23zM357 123q69 0 107.5 45t38.5 129v104q0 84 -38.5 129t-107.5 45t-107.5 -45t-38.5 -129v-104
q0 -84 38.5 -129t107.5 -45z" />
    <glyph glyph-name="Pi" unicode="&#x3a0;" horiz-adv-x="709"
d="M77 698h555v-698h-152v563h-251v-563h-152v698z" />
    <glyph glyph-name="Rho" unicode="&#x3a1;" horiz-adv-x="656"
d="M77 0v698h330q49 0 88 -16.5t66.5 -45.5t42.5 -70.5t15 -90.5q0 -50 -15 -91t-42.5 -70t-66.5 -45.5t-88 -16.5h-178v-252h-152zM229 384h160q34 0 53.5 17.5t19.5 51.5v44q0 34 -19.5 51.5t-53.5 17.5h-160v-182z" />
    <glyph glyph-name="Sigma" unicode="&#x3a3;" horiz-adv-x="611"
d="M44 0v135l222 215l-212 213v135h505v-134h-317l208 -209l-227 -221h336v-134h-515z" />
    <glyph glyph-name="Tau" unicode="&#x3a4;" horiz-adv-x="584"
d="M368 563v-563h-152v563h-189v135h530v-135h-189z" />
    <glyph glyph-name="Upsilon" unicode="&#x3a5;" horiz-adv-x="649"
d="M248 0v273l-239 425h170l150 -278h2l144 278h165l-239 -424v-274h-153z" />
    <glyph glyph-name="Phi" unicode="&#x3a6;" horiz-adv-x="848"
d="M347 32h-10q-68 0 -123 22.5t-93.5 64.5t-59.5 101t-21 133t21 134t59.5 102t93.5 64.5t123 22.5h10v64h154v-64h10q68 0 123 -22.5t93.5 -64.5t59.5 -101.5t21 -132.5q0 -74 -21 -134t-59.5 -102t-93.5 -64.5t-123 -22.5h-10v-76h-154v76zM350 551h-10q-28 0 -54 -11.5
t-46 -32.5t-32 -52t-12 -70v-62q0 -39 12 -70t32 -52t46 -32.5t54 -11.5h10v394zM508 157q28 0 54 11.5t46 32.5t32 52t12 70v62q0 39 -12 70t-32 52t-46 32.5t-54 11.5h-10v-394h10z" />
    <glyph glyph-name="Chi" unicode="&#x3a7;" horiz-adv-x="673"
d="M657 0h-176l-151 257h-3l-147 -257h-164l224 361l-213 337h177l136 -236h3l138 236h164l-215 -340z" />
    <glyph glyph-name="Psi" unicode="&#x3a8;" horiz-adv-x="840"
d="M343 176q-72 0 -124 20.5t-86 58.5t-50.5 92t-16.5 122v229h152v-229q0 -47 8 -79.5t23.5 -52t39 -28t54.5 -8.5v397h154v-397q31 0 54 8.5t39 28t24 52t8 79.5v229h152v-229q0 -68 -16.5 -122t-50.5 -92t-86 -58.5t-124 -20.5v-176h-154v176z" />
    <glyph glyph-name="uni03A9" unicode="&#x3a9;" horiz-adv-x="724"
d="M50 134h159v10q-75 34 -114.5 96.5t-39.5 159.5q0 65 20.5 121.5t60 98.5t96.5 66t130 24t130 -24t96.5 -66t60 -98.5t20.5 -121.5q0 -97 -39.5 -159.5t-114.5 -96.5v-10h159v-134h-269v205q23 7 42.5 21.5t33 34t21 42.5t7.5 47v81q0 28 -10 54t-29 46t-46.5 32
t-61.5 12t-61.5 -12t-46.5 -32t-29 -46t-10 -54v-81q0 -24 7.5 -47t21 -42.5t33 -34t42.5 -21.5v-205h-269v134z" />
    <glyph glyph-name="Iotadieresis" unicode="&#x3aa;" horiz-adv-x="432"
d="M50 0v121h90v456h-90v121h332v-121h-90v-456h90v-121h-332zM107 761q-45 0 -62.5 18.5t-17.5 44.5v25q0 26 17.5 44.5t62.5 18.5t62.5 -18.5t17.5 -44.5v-25q0 -26 -17.5 -44.5t-62.5 -18.5zM327 761q-45 0 -62.5 18.5t-17.5 44.5v25q0 26 17.5 44.5t62.5 18.5
t62.5 -18.5t17.5 -44.5v-25q0 -26 -17.5 -44.5t-62.5 -18.5z" />
    <glyph glyph-name="Upsilondieresis" unicode="&#x3ab;" horiz-adv-x="649"
d="M248 0v273l-239 425h170l150 -278h2l144 278h165l-239 -424v-274h-153zM215 761q-45 0 -62.5 18.5t-17.5 44.5v25q0 26 17.5 44.5t62.5 18.5t62.5 -18.5t17.5 -44.5v-25q0 -26 -17.5 -44.5t-62.5 -18.5zM435 761q-45 0 -62.5 18.5t-17.5 44.5v25q0 26 17.5 44.5
t62.5 18.5t62.5 -18.5t17.5 -44.5v-25q0 -26 -17.5 -44.5t-62.5 -18.5z" />
    <glyph glyph-name="alphatonos" unicode="&#x3ac;" horiz-adv-x="667"
d="M633 0h-59q-59 0 -87.5 22.5t-40.5 81.5l-9 44h-3q-24 -80 -66.5 -120t-116.5 -40q-97 0 -152.5 70t-55.5 204t55.5 204.5t152.5 70.5q74 0 119.5 -38.5t69.5 -121.5h4l18 71l23 77h148l-116 -259l60 -151h56v-115zM264 108q24 0 44.5 21.5t37.5 69.5l22 64l-22 63
q-17 48 -37.5 69.5t-44.5 21.5q-33 0 -50 -27.5t-17 -87.5v-79q0 -60 17 -87.5t50 -27.5zM333 579l-95 14l35 223l133 -20z" />
    <glyph glyph-name="epsilontonos" unicode="&#x3ad;" horiz-adv-x="528"
d="M505 75q-38 -41 -97 -64t-138 -23q-53 0 -95.5 11.5t-72.5 32.5t-46 50.5t-16 65.5q0 56 33.5 86.5t90.5 38.5v5q-57 8 -84 35.5t-27 74.5q0 32 14 59t42 47t68.5 31.5t93.5 11.5q76 0 129.5 -20.5t95.5 -61.5l-85 -87q-26 26 -58 39.5t-71 13.5q-40 0 -60 -13.5
t-20 -36.5v-10q0 -45 59 -45h103v-98h-116q-59 0 -59 -45v-11q0 -29 22.5 -43.5t76.5 -14.5q46 0 80 16.5t63 46.5zM322 579l-95 14l35 223l133 -20z" />
    <glyph glyph-name="etatonos" unicode="&#x3ae;" horiz-adv-x="610"
d="M83 0v410h-49v115h82q101 0 113 -94h6q15 45 50 75.5t98 30.5q81 0 122.5 -54t41.5 -154v-529h-148v517q0 51 -16 75.5t-57 24.5q-18 0 -35 -4.5t-30.5 -14.5t-21.5 -24.5t-8 -33.5v-340h-148zM357 579l-95 14l35 223l133 -20z" />
    <glyph glyph-name="iotatonos" unicode="&#x3af;" horiz-adv-x="329"
d="M313 0h-88q-77 0 -116.5 39t-39.5 114v372h148v-410h96v-115zM194 579l-95 14l35 223l133 -20z" />
    <glyph glyph-name="upsilondieresistonos" unicode="&#x3b0;" horiz-adv-x="582"
d="M207 210q0 -53 20 -79t64 -26t64 26t20 79v315h148v-286q0 -251 -232 -251t-232 251v286h148v-315zM157 605q-64 0 -64 58v24q0 59 64 59t64 -58v-24q0 -59 -64 -59zM312 579l-63 11l35 226l101 -17zM451 605q-64 0 -64 58v24q0 59 64 59t64 -58v-24q0 -59 -64 -59z" />
    <glyph glyph-name="alpha" unicode="&#x3b1;" horiz-adv-x="667"
d="M633 0h-59q-59 0 -87.5 22.5t-40.5 81.5l-9 44h-3q-24 -80 -66.5 -120t-116.5 -40q-97 0 -152.5 70t-55.5 204t55.5 204.5t152.5 70.5q74 0 119.5 -38.5t69.5 -121.5h4l18 71l23 77h148l-116 -259l60 -151h56v-115zM264 108q24 0 44.5 21.5t37.5 69.5l22 64l-22 63
q-17 48 -37.5 69.5t-44.5 21.5q-33 0 -50 -27.5t-17 -87.5v-79q0 -60 17 -87.5t50 -27.5z" />
    <glyph glyph-name="beta" unicode="&#x3b2;" horiz-adv-x="609"
d="M69 478q0 134 57.5 204t174.5 70q61 0 105.5 -15t72.5 -41.5t41.5 -61.5t13.5 -74q0 -68 -30.5 -110.5t-87.5 -60.5v-5q71 -9 110 -51.5t39 -115.5q0 -50 -13 -92t-38 -72.5t-62.5 -47.5t-86.5 -17q-54 0 -93 28.5t-50 71.5h-5v-288h-148v678zM277 435h33q32 0 53.5 22
t21.5 57v30q0 41 -20 66t-64 25q-38 0 -61 -27t-23 -77v-346q0 -38 27 -59t72 -21q47 0 73.5 25t26.5 70v34q0 40 -26.5 63t-73.5 23h-39v115z" />
    <glyph glyph-name="gamma" unicode="&#x3b3;" horiz-adv-x="540"
d="M192 0l-135 410h-49v115h52q58 0 89.5 -23t48.5 -84l35 -125l33 -148h8l41 148l76 232h140l-191 -525v-200h-148v200z" />
    <glyph glyph-name="delta" unicode="&#x3b4;" horiz-adv-x="564"
d="M323 625l-93 11v-4l105 -64q53 -33 90 -67.5t60 -72.5t33 -79t10 -86q0 -64 -17 -115t-48.5 -86.5t-77 -54.5t-103.5 -19t-103.5 19.5t-77 54.5t-48.5 83t-17 105q0 58 15 103.5t40.5 76t59 46.5t70.5 16v6l-131 102v140h391v-115h-158zM374 250q0 31 -3.5 56.5t-13 48
t-25.5 43.5t-40 43q-51 -8 -76.5 -44.5t-25.5 -93.5v-94q0 -50 24 -77t68 -27t68 27t24 77v41z" />
    <glyph glyph-name="epsilon" unicode="&#x3b5;" horiz-adv-x="528"
d="M505 75q-38 -41 -97 -64t-138 -23q-53 0 -95.5 11.5t-72.5 32.5t-46 50.5t-16 65.5q0 56 33.5 86.5t90.5 38.5v5q-57 8 -84 35.5t-27 74.5q0 32 14 59t42 47t68.5 31.5t93.5 11.5q76 0 129.5 -20.5t95.5 -61.5l-85 -87q-26 26 -58 39.5t-71 13.5q-40 0 -60 -13.5
t-20 -36.5v-10q0 -45 59 -45h103v-98h-116q-59 0 -59 -45v-11q0 -29 22.5 -43.5t76.5 -14.5q46 0 80 16.5t63 46.5z" />
    <glyph glyph-name="zeta" unicode="&#x3b6;" horiz-adv-x="438"
d="M58 740h374v-116l-170 -227q-40 -54 -56 -91.5t-16 -70.5v-14q0 -68 76 -88l74 -20q42 -11 63 -39t21 -63q0 -25 -12 -55l-54 -131l-120 46l48 117l-74 20q-49 13 -82.5 32t-54.5 44t-30 54.5t-9 64.5q0 33 4.5 62t18.5 60.5t38.5 68.5t65.5 85l127 151v5l-82 -10h-150
v115z" />
    <glyph glyph-name="eta" unicode="&#x3b7;" horiz-adv-x="610"
d="M83 0v410h-49v115h82q101 0 113 -94h6q15 45 50 75.5t98 30.5q81 0 122.5 -54t41.5 -154v-529h-148v517q0 51 -16 75.5t-57 24.5q-18 0 -35 -4.5t-30.5 -14.5t-21.5 -24.5t-8 -33.5v-340h-148z" />
    <glyph glyph-name="theta" unicode="&#x3b8;" horiz-adv-x="576"
d="M288 752q57 0 102.5 -19.5t77.5 -64t49 -117.5t17 -181t-17 -181t-49 -117.5t-77.5 -64t-102.5 -19.5t-102.5 19.5t-77.5 64t-49 117.5t-17 181t17 181t49 117.5t77.5 64t102.5 19.5zM288 105q22 0 39.5 7t29 24.5t17.5 47.5t6 76v53h-184v-53q0 -46 6 -76t17.5 -47.5
t28.5 -24.5t40 -7zM196 428h184v52q0 46 -6 76t-17.5 47.5t-29 24.5t-39.5 7q-23 0 -40 -7t-28.5 -24.5t-17.5 -47.5t-6 -76v-52z" />
    <glyph glyph-name="iota" unicode="&#x3b9;" horiz-adv-x="329"
d="M313 0h-88q-77 0 -116.5 39t-39.5 114v372h148v-410h96v-115z" />
    <glyph glyph-name="kappa" unicode="&#x3ba;" horiz-adv-x="580"
d="M283 219l-66 -66v-153h-148v525h148v-225h6l67 88l79 89q13 14 25 23.5t25 15t29 7.5t36 2h52v-115h-61l-94 -94l185 -316h-173z" />
    <glyph glyph-name="lambda" unicode="&#x3bb;" horiz-adv-x="538"
d="M159 625h-86v115h89q57 0 86 -21.5t47 -76.5l172 -527h61v-115h-64q-57 0 -86 21.5t-47 76.5l-42 130l-28 124h-11l-29 -124l-77 -228h-140l188 525z" />
    <glyph glyph-name="uni03BC" unicode="&#x3bc;" horiz-adv-x="616"
d="M69 -200v725h148v-319q0 -48 17 -73t57 -25q38 0 66 20.5t28 56.5v340h148v-410h49v-115h-50q-64 0 -97.5 25.5t-44.5 70.5h-5q-12 -56 -39.5 -82t-68.5 -26q-32 0 -53 13t-41 43h-5l38 -140v-104h-147z" />
    <glyph glyph-name="nu" unicode="&#x3bd;" horiz-adv-x="540"
d="M178 0l-121 410h-49v115h52q58 0 90 -24t48 -85l37 -142l31 -151h8l40 151l77 251h140l-177 -525h-176z" />
    <glyph glyph-name="xi" unicode="&#x3be;" horiz-adv-x="441"
d="M308 625q-45 0 -69.5 -22t-24.5 -67v-16q0 -38 26.5 -61.5t73.5 -23.5h49v-115h-95q-32 0 -53.5 -21.5t-21.5 -55.5v-26q0 -35 16.5 -54.5t57.5 -30.5l70 -19q42 -11 63 -39t21 -63q0 -25 -12 -55l-54 -131l-120 46l48 117l-70 19q-48 13 -80.5 32t-52 44.5t-28 57.5
t-8.5 72q0 31 10 60t29 51.5t47 38t63 20.5v5q-123 21 -123 122q0 36 21 65.5t57 41.5v8h-115v115h406v-115h-131z" />
    <glyph glyph-name="omicron" unicode="&#x3bf;" horiz-adv-x="564"
d="M282 -12q-58 0 -103.5 19t-77 55t-48.5 87t-17 114t17 114t48.5 86.5t77 54.5t103.5 19t103.5 -19t77 -54.5t48.5 -86.5t17 -114t-17 -114t-48.5 -87t-77 -55t-103.5 -19zM282 105q44 0 68 27t24 77v107q0 50 -24 77t-68 27t-68 -27t-24 -77v-107q0 -50 24 -77t68 -27z
" />
    <glyph glyph-name="pi" unicode="&#x3c0;" horiz-adv-x="655"
d="M526 115h66v-115h-58q-77 0 -116.5 39t-39.5 114v257h-127v-410h-148v410h-80v115h598v-115h-95v-295z" />
    <glyph glyph-name="rho" unicode="&#x3c1;" horiz-adv-x="577"
d="M48 263q0 134 57.5 204t182.5 70q132 0 189 -70.5t57 -203.5q0 -134 -50 -204.5t-145 -70.5q-24 0 -46.5 7.5t-41 21t-31.5 32t-19 39.5h-5v-288h-148v463zM288 105q38 0 65 28.5t27 83.5v99q0 50 -24 77t-68 27t-68 -27t-24 -77v-131q0 -38 27 -59t65 -21z" />
    <glyph glyph-name="sigma1" unicode="&#x3c2;" horiz-adv-x="507"
d="M308 -12l-63 17q-56 15 -95.5 36.5t-65 53.5t-37 77.5t-11.5 108.5q0 56 16.5 103t48 81t77 53t103.5 19q80 0 133.5 -36t76.5 -101l-120 -52q-7 30 -29 51t-61 21q-45 0 -68 -29.5t-23 -79.5v-58q0 -45 26 -76.5t83 -46.5l63 -17q42 -11 63 -39t21 -63q0 -25 -12 -55
l-54 -131l-120 46z" />
    <glyph glyph-name="sigma" unicode="&#x3c3;" horiz-adv-x="586"
d="M449 410v-8q39 -24 59 -60t20 -95q0 -57 -17 -105t-48.5 -82t-77 -53t-103.5 -19t-103.5 19t-77 54.5t-48.5 85t-17 110.5q0 128 65 198t181 70h282v-115h-115zM282 410q-44 0 -68 -25t-24 -75v-101q0 -50 24 -77t68 -27t68 27t24 77v101q0 33 -11.5 58t-32.5 42h-48z
" />
    <glyph glyph-name="tau" unicode="&#x3c4;" horiz-adv-x="500"
d="M318 0q-77 0 -116.5 39t-39.5 114v257h-142v115h452v-115h-162v-295h106v-115h-98z" />
    <glyph glyph-name="upsilon" unicode="&#x3c5;" horiz-adv-x="582"
d="M207 210q0 -53 20 -79t64 -26t64 26t20 79v315h148v-286q0 -251 -232 -251t-232 251v286h148v-315z" />
    <glyph glyph-name="phi" unicode="&#x3c6;" horiz-adv-x="773"
d="M311 -12q-62 0 -111.5 18.5t-84 54t-53.5 87t-19 117.5q0 92 30.5 163t99.5 109l94 -89q-38 -29 -54 -67t-16 -82v-74q0 -62 33 -92t81 -30v206q0 52 12 94t37 72t64 46t92 16t93 -14.5t67 -46t40.5 -82t13.5 -122.5q0 -138 -71.5 -211t-202.5 -73v-188h-145v188z
M456 103q54 0 87 30t33 92v105q0 51 -15 71.5t-45 20.5t-45 -20.5t-15 -71.5v-227z" />
    <glyph glyph-name="chi" unicode="&#x3c7;" horiz-adv-x="545"
d="M88 525q57 0 85.5 -20.5t46.5 -69.5l58 -156h4l97 246h156l-170 -353l106 -257h66v-115h-69q-57 0 -86 21t-46 69l-61 173h-4l-103 -263h-156l177 369l-104 241h-66v115h69z" />
    <glyph glyph-name="psi" unicode="&#x3c8;" horiz-adv-x="759"
d="M307 -200v188q-121 0 -184.5 64.5t-63.5 200.5v272h148v-303q0 -63 25.5 -91t74.5 -28v607h145v-607q49 0 74.5 28t25.5 91v303h148v-272q0 -136 -63.5 -200.5t-184.5 -64.5v-188h-145z" />
    <glyph glyph-name="omega" unicode="&#x3c9;" horiz-adv-x="770"
d="M459 197q0 -51 13.5 -71.5t43.5 -20.5t43.5 20.5t13.5 71.5v102q0 44 -17 81.5t-53 67.5l94 89q66 -35 98 -103t32 -185q0 -132 -52 -196.5t-139 -64.5q-119 0 -149 137h-4q-30 -137 -149 -137q-87 0 -139 64.5t-52 196.5q0 113 32.5 183t97.5 105l94 -89
q-38 -29 -54 -67t-16 -82v-102q0 -51 13.5 -71.5t43.5 -20.5t43.5 20.5t13.5 71.5v172h148v-172z" />
    <glyph glyph-name="iotadieresis" unicode="&#x3ca;" horiz-adv-x="329"
d="M313 0h-88q-77 0 -116.5 39t-39.5 114v372h148v-410h96v-115zM40 600q-45 0 -62.5 18.5t-17.5 44.5v25q0 26 17.5 44.5t62.5 18.5t62.5 -18.5t17.5 -44.5v-25q0 -26 -17.5 -44.5t-62.5 -18.5zM260 600q-45 0 -62.5 18.5t-17.5 44.5v25q0 26 17.5 44.5t62.5 18.5
t62.5 -18.5t17.5 -44.5v-25q0 -26 -17.5 -44.5t-62.5 -18.5z" />
    <glyph glyph-name="upsilondieresis" unicode="&#x3cb;" horiz-adv-x="582"
d="M207 210q0 -53 20 -79t64 -26t64 26t20 79v315h148v-286q0 -251 -232 -251t-232 251v286h148v-315zM188 600q-45 0 -62.5 18.5t-17.5 44.5v25q0 26 17.5 44.5t62.5 18.5t62.5 -18.5t17.5 -44.5v-25q0 -26 -17.5 -44.5t-62.5 -18.5zM408 600q-45 0 -62.5 18.5t-17.5 44.5
v25q0 26 17.5 44.5t62.5 18.5t62.5 -18.5t17.5 -44.5v-25q0 -26 -17.5 -44.5t-62.5 -18.5z" />
    <glyph glyph-name="omicrontonos" unicode="&#x3cc;" horiz-adv-x="564"
d="M282 -12q-58 0 -103.5 19t-77 55t-48.5 87t-17 114t17 114t48.5 86.5t77 54.5t103.5 19t103.5 -19t77 -54.5t48.5 -86.5t17 -114t-17 -114t-48.5 -87t-77 -55t-103.5 -19zM282 105q44 0 68 27t24 77v107q0 50 -24 77t-68 27t-68 -27t-24 -77v-107q0 -50 24 -77t68 -27z
M326 579l-95 14l35 223l133 -20z" />
    <glyph glyph-name="upsilontonos" unicode="&#x3cd;" horiz-adv-x="582"
d="M207 210q0 -53 20 -79t64 -26t64 26t20 79v315h148v-286q0 -251 -232 -251t-232 251v286h148v-315zM342 579l-95 14l35 223l133 -20z" />
    <glyph glyph-name="omegatonos" unicode="&#x3ce;" horiz-adv-x="770"
d="M459 197q0 -51 13.5 -71.5t43.5 -20.5t43.5 20.5t13.5 71.5v102q0 44 -17 81.5t-53 67.5l94 89q66 -35 98 -103t32 -185q0 -132 -52 -196.5t-139 -64.5q-119 0 -149 137h-4q-30 -137 -149 -137q-87 0 -139 64.5t-52 196.5q0 113 32.5 183t97.5 105l94 -89
q-38 -29 -54 -67t-16 -82v-102q0 -51 13.5 -71.5t43.5 -20.5t43.5 20.5t13.5 71.5v172h148v-172zM429 579l-95 14l35 223l133 -20z" />
    <glyph glyph-name="uni0400" unicode="&#x400;" horiz-adv-x="607"
d="M77 0v698h475v-135h-323v-143h277v-134h-277v-151h323v-135h-475zM165 916l123 61l99 -194l-88 -43z" />
    <glyph glyph-name="uni0401" unicode="&#x401;" horiz-adv-x="607"
d="M77 0v698h475v-135h-323v-143h277v-134h-277v-151h323v-135h-475zM205 761q-45 0 -62.5 18.5t-17.5 44.5v25q0 26 17.5 44.5t62.5 18.5t62.5 -18.5t17.5 -44.5v-25q0 -26 -17.5 -44.5t-62.5 -18.5zM425 761q-45 0 -62.5 18.5t-17.5 44.5v25q0 26 17.5 44.5t62.5 18.5
t62.5 -18.5t17.5 -44.5v-25q0 -26 -17.5 -44.5t-62.5 -18.5z" />
    <glyph glyph-name="uni0402" unicode="&#x402;" horiz-adv-x="807"
d="M472 -43h103q12 17 19 45.5t7 66.5v126q0 119 -114 119q-40 0 -68.5 -4.5t-50.5 -13.5v-296h-152v563h-189v135h530v-135h-189v-140h5q24 11 55 17t73 6q252 0 252 -257v-126q0 -122 -60 -184.5t-169 -62.5h-52v141z" />
    <glyph glyph-name="uni0403" unicode="&#x403;" horiz-adv-x="514"
d="M77 698h410v-135h-258v-563h-152v698zM299 740l-88 43l99 194l123 -61z" />
    <glyph glyph-name="uni0404" unicode="&#x404;" horiz-adv-x="671"
d="M369 -12q-150 0 -234.5 89.5t-84.5 266.5t84.5 271.5t234.5 94.5q50 0 90.5 -10t72.5 -29.5t58 -49t48 -67.5l-127 -72q-9 21 -20.5 38t-28 29.5t-39 19t-54.5 6.5q-73 0 -113 -40t-45 -115h231v-134h-231v-4q3 -78 43.5 -118.5t114.5 -40.5q64 0 98 28t51 72l123 -76
q-38 -75 -102.5 -117t-169.5 -42z" />
    <glyph glyph-name="uni0405" unicode="&#x405;" horiz-adv-x="624"
d="M303 -12q-92 0 -156 31.5t-109 81.5l100 101q71 -80 175 -80q56 0 83 23t27 61q0 29 -16 48.5t-65 26.5l-69 9q-111 14 -162.5 67t-51.5 141q0 47 18 86t51.5 67t82 43.5t110.5 15.5q79 0 139 -25t103 -73l-101 -102q-25 29 -60.5 47.5t-89.5 18.5q-51 0 -76 -18t-25 -50
q0 -36 19.5 -52t63.5 -23l69 -11q108 -17 160 -66.5t52 -140.5q0 -50 -18 -92t-52.5 -72t-85.5 -46.5t-116 -16.5z" />
    <glyph glyph-name="uni0406" unicode="&#x406;" horiz-adv-x="432"
d="M50 0v121h90v456h-90v121h332v-121h-90v-456h90v-121h-332z" />
    <glyph glyph-name="uni0407" unicode="&#x407;" horiz-adv-x="432"
d="M50 0v121h90v456h-90v121h332v-121h-90v-456h90v-121h-332zM107 761q-45 0 -62.5 18.5t-17.5 44.5v25q0 26 17.5 44.5t62.5 18.5t62.5 -18.5t17.5 -44.5v-25q0 -26 -17.5 -44.5t-62.5 -18.5zM327 761q-45 0 -62.5 18.5t-17.5 44.5v25q0 26 17.5 44.5t62.5 18.5
t62.5 -18.5t17.5 -44.5v-25q0 -26 -17.5 -44.5t-62.5 -18.5z" />
    <glyph glyph-name="uni0408" unicode="&#x408;" horiz-adv-x="559"
d="M486 698v-496q0 -48 -15.5 -87.5t-45.5 -67t-72.5 -43t-96.5 -15.5q-52 0 -91.5 14t-68 40t-46.5 62t-25 80l142 28q17 -91 87 -91q33 0 56.5 21t23.5 66v367h-212v122h364z" />
    <glyph glyph-name="uni0409" unicode="&#x409;" horiz-adv-x="1047"
d="M20 135h83q16 17 28 42.5t20.5 65.5t13 96.5t4.5 136.5v222h465v-252h168q49 0 88 -16.5t66.5 -45.5t42.5 -70.5t15 -90.5q0 -50 -15 -91t-42.5 -70t-66.5 -45.5t-88 -16.5h-320v563h-165v-108q0 -92 -7 -159.5t-19 -115.5t-28.5 -79t-35.5 -50q-31 -31 -66.5 -44
t-88.5 -13h-52v141zM784 132q34 0 53.5 17.5t19.5 51.5v44q0 34 -19.5 51.5t-53.5 17.5h-150v-182h150z" />
    <glyph glyph-name="uni040A" unicode="&#x40a;" horiz-adv-x="1040"
d="M77 698h152v-278h246v278h152v-252h168q49 0 88 -16.5t66.5 -45.5t42.5 -70.5t15 -90.5q0 -50 -15 -91t-42.5 -70t-66.5 -45.5t-88 -16.5h-320v286h-246v-286h-152v698zM777 132q34 0 53.5 17.5t19.5 51.5v44q0 34 -19.5 51.5t-53.5 17.5h-150v-182h150z" />
    <glyph glyph-name="uni040B" unicode="&#x40b;" horiz-adv-x="817"
d="M216 563h-189v135h530v-135h-189v-140h5q24 11 56 17t77 6q257 0 257 -257v-189h-152v195q0 119 -119 119q-44 0 -73 -4.5t-51 -13.5v-296h-152v563z" />
    <glyph glyph-name="uni040C" unicode="&#x40c;" horiz-adv-x="675"
d="M77 698h152v-278h101l104 195q23 42 51.5 62.5t73.5 20.5h62v-135h-62l-72 -136q-14 -27 -31.5 -41.5t-41.5 -22.5v-6q26 -5 44.5 -19.5t32.5 -43.5l82 -159h62v-135h-79q-42 0 -69.5 18t-52.5 67l-104 201h-101v-286h-152v698zM370 740l-88 43l99 194l123 -61z" />
    <glyph glyph-name="uni040D" unicode="&#x40d;" horiz-adv-x="724"
d="M77 698h148v-341l-16 -147h3l69 133l230 355h136v-698h-148v341l16 147h-3l-69 -133l-230 -355h-136v698zM214 916l123 61l99 -194l-88 -43z" />
    <glyph glyph-name="uni040E" unicode="&#x40e;" horiz-adv-x="631"
d="M119 135h122l15 38l-244 525h160l98 -217l58 -139h3l51 140l86 216h149l-246 -600q-11 -27 -24.5 -45.5t-31.5 -30.5t-41.5 -17t-54.5 -5h-100v135zM318 740q-66 0 -107 29t-64 83l-21 51l115 43l32 -101q6 -3 19 -5t26 -2t26 2t19 5l32 101l115 -43l-21 -51
q-23 -54 -64 -83t-107 -29z" />
    <glyph glyph-name="uni040F" unicode="&#x40f;" horiz-adv-x="709"
d="M283 0h-206v698h152v-563h251v563h152v-698h-206v-150h-143v150z" />
    <glyph glyph-name="uni0410" unicode="&#x410;" horiz-adv-x="685"
d="M507 0l-50 166h-233l-50 -166h-154l230 698h188l227 -698h-158zM342 560h-5l-77 -265h160z" />
    <glyph glyph-name="uni0411" unicode="&#x411;" horiz-adv-x="657"
d="M77 698h472v-135h-320v-131h178q49 0 88 -16t66.5 -45t42.5 -69t15 -87t-15 -86t-42.5 -68t-66.5 -45t-88 -16h-330v698zM389 132q34 0 53.5 17.5t19.5 51.5v30q0 34 -19.5 51.5t-53.5 17.5h-160v-168h160z" />
    <glyph glyph-name="uni0412" unicode="&#x412;" horiz-adv-x="667"
d="M77 698h339q87 0 135.5 -49t48.5 -130q0 -40 -10.5 -68t-28 -46t-41 -26.5t-50.5 -9.5v-6q25 0 52.5 -9t50.5 -28.5t38.5 -50.5t15.5 -76q0 -41 -13.5 -77.5t-37.5 -63.5t-57 -42.5t-72 -15.5h-370v698zM229 128h175q30 0 47.5 16.5t17.5 46.5v34q0 30 -17.5 46.5
t-47.5 16.5h-175v-160zM229 412h151q30 0 47 17t17 47v30q0 30 -17 47t-47 17h-151v-158z" />
    <glyph glyph-name="uni0413" unicode="&#x413;" horiz-adv-x="514"
d="M77 698h410v-135h-258v-563h-152v698z" />
    <glyph glyph-name="uni0414" unicode="&#x414;" horiz-adv-x="815"
d="M17 135h76q17 16 32 42.5t26 66.5t17 97t6 135v222h501v-563h113v-285h-143v150h-485v-150h-143v285zM523 135v429h-201v-109q0 -69 -4 -119.5t-11 -88t-18 -64t-24 -45.5v-3h258z" />
    <glyph glyph-name="uni0415" unicode="&#x415;" horiz-adv-x="607"
d="M77 0v698h475v-135h-323v-143h277v-134h-277v-151h323v-135h-475z" />
    <glyph glyph-name="uni0416" unicode="&#x416;" horiz-adv-x="1006"
d="M40 135h62l77 163q24 52 75 59v6q-24 7 -41 21.5t-32 44.5l-65 134h-62v135h63q45 0 74.5 -20t50.5 -64l94 -194h91v278h152v-278h91l94 194q21 44 50.5 64t74.5 20h62v-135h-62l-64 -134q-15 -30 -32 -44.5t-41 -21.5v-6q51 -7 75 -59l77 -163h62v-135h-80
q-42 0 -70.5 18.5t-51.5 68.5l-94 199h-91v-286h-152v286h-91l-94 -199q-23 -50 -51.5 -68.5t-70.5 -18.5h-80v135z" />
    <glyph glyph-name="uni0417" unicode="&#x417;" horiz-adv-x="608"
d="M285 -12q-77 0 -141 25t-115 78l100 101q32 -33 70.5 -51t85.5 -18q60 0 91 21t31 59v8q0 40 -24 57.5t-75 17.5h-121v134h115q93 0 93 77v5q0 73 -105 73q-42 0 -82 -16.5t-67 -46.5l-92 96q44 48 106.5 75t134.5 27q62 0 111 -13.5t83.5 -39t53 -61.5t18.5 -81
q0 -36 -11.5 -62.5t-31 -44.5t-46 -28t-56.5 -13v-6q30 -2 58.5 -12t50 -29t35 -47t13.5 -66q0 -49 -20 -89t-56.5 -69t-89 -45t-117.5 -16z" />
    <glyph glyph-name="uni0418" unicode="&#x418;" horiz-adv-x="724"
d="M77 698h148v-341l-16 -147h3l69 133l230 355h136v-698h-148v341l16 147h-3l-69 -133l-230 -355h-136v698z" />
    <glyph glyph-name="uni0419" unicode="&#x419;" horiz-adv-x="724"
d="M77 698h148v-341l-16 -147h3l69 133l230 355h136v-698h-148v341l16 147h-3l-69 -133l-230 -355h-136v698zM364 740q-66 0 -107 29t-64 83l-21 51l115 43l32 -101q6 -3 19 -5t26 -2t26 2t19 5l32 101l115 -43l-21 -51q-23 -54 -64 -83t-107 -29z" />
    <glyph glyph-name="uni041A" unicode="&#x41a;" horiz-adv-x="675"
d="M77 698h152v-278h101l104 195q23 42 51.5 62.5t73.5 20.5h62v-135h-62l-72 -136q-14 -27 -31.5 -41.5t-41.5 -22.5v-6q26 -5 44.5 -19.5t32.5 -43.5l82 -159h62v-135h-79q-42 0 -69.5 18t-52.5 67l-104 201h-101v-286h-152v698z" />
    <glyph glyph-name="uni041B" unicode="&#x41b;" horiz-adv-x="739"
d="M20 135h83q16 17 28 42.5t20.5 65.5t13 96.5t4.5 136.5v222h493v-698h-152v563h-193v-108q0 -92 -7 -159.5t-19 -115.5t-28.5 -79t-35.5 -50q-31 -31 -66.5 -44t-88.5 -13h-52v141z" />
    <glyph glyph-name="uni041C" unicode="&#x41c;" horiz-adv-x="819"
d="M599 458h-3l-51 -102l-136 -247l-133 246l-53 110h-3v-465h-143v698h161l171 -327h2l169 327h162v-698h-143v458z" />
    <glyph glyph-name="uni041D" unicode="&#x41d;" horiz-adv-x="724"
d="M495 286h-266v-286h-152v698h152v-278h266v278h152v-698h-152v286z" />
    <glyph glyph-name="uni041E" unicode="&#x41e;" horiz-adv-x="714"
d="M357 -12q-69 0 -126 23t-97 68.5t-62 113t-22 156.5t22 156.5t62 113t97 68.5t126 23t126 -23t97 -68.5t62 -113t22 -156.5t-22 -156.5t-62 -113t-97 -68.5t-126 -23zM357 123q69 0 107.5 45t38.5 129v104q0 84 -38.5 129t-107.5 45t-107.5 -45t-38.5 -129v-104
q0 -84 38.5 -129t107.5 -45z" />
    <glyph glyph-name="uni041F" unicode="&#x41f;" horiz-adv-x="709"
d="M77 698h555v-698h-152v563h-251v-563h-152v698z" />
    <glyph glyph-name="uni0420" unicode="&#x420;" horiz-adv-x="656"
d="M77 0v698h330q49 0 88 -16.5t66.5 -45.5t42.5 -70.5t15 -90.5q0 -50 -15 -91t-42.5 -70t-66.5 -45.5t-88 -16.5h-178v-252h-152zM229 384h160q34 0 53.5 17.5t19.5 51.5v44q0 34 -19.5 51.5t-53.5 17.5h-160v-182z" />
    <glyph glyph-name="uni0421" unicode="&#x421;" horiz-adv-x="651"
d="M359 -12q-71 0 -128 22.5t-97 67t-62 111t-22 155.5q0 88 22 156.5t62 115t97 70.5t128 24q97 0 160 -39.5t101 -124.5l-131 -68q-14 44 -43.5 70.5t-86.5 26.5q-67 0 -107.5 -43.5t-40.5 -126.5v-112q0 -83 40.5 -126.5t107.5 -43.5q56 0 89.5 30.5t49.5 73.5l124 -72
q-39 -80 -102.5 -123.5t-160.5 -43.5z" />
    <glyph glyph-name="uni0422" unicode="&#x422;" horiz-adv-x="584"
d="M368 563v-563h-152v563h-189v135h530v-135h-189z" />
    <glyph glyph-name="uni0423" unicode="&#x423;" horiz-adv-x="631"
d="M119 135h122l15 38l-244 525h160l98 -217l58 -139h3l51 140l86 216h149l-246 -600q-11 -27 -24.5 -45.5t-31.5 -30.5t-41.5 -17t-54.5 -5h-100v135z" />
    <glyph glyph-name="uni0424" unicode="&#x424;" horiz-adv-x="904"
d="M375 46h-41q-66 0 -121 23t-94.5 63.5t-61.5 95.5t-22 119t21.5 119t60.5 96t94 64.5t123 23.5h41v90h154v-90h41q68 0 123 -23.5t94 -64.5t60.5 -96t21.5 -119t-22 -119t-61.5 -95.5t-94.5 -63.5t-121 -23h-41v-90h-154v90zM378 171v354h-44q-38 0 -65 -11.5t-44 -31
t-25.5 -46t-8.5 -57.5v-62q0 -63 35.5 -104.5t107.5 -41.5h44zM570 171q72 0 107.5 41.5t35.5 104.5v62q0 31 -8.5 57.5t-25.5 46t-44.5 31t-64.5 11.5h-44v-354h44z" />
    <glyph glyph-name="uni0425" unicode="&#x425;" horiz-adv-x="673"
d="M657 0h-176l-151 257h-3l-147 -257h-164l224 361l-213 337h177l136 -236h3l138 236h164l-215 -340z" />
    <glyph glyph-name="uni0426" unicode="&#x426;" horiz-adv-x="772"
d="M602 0h-525v698h152v-563h251v563h152v-563h113v-285h-143v150z" />
    <glyph glyph-name="uni0427" unicode="&#x427;" horiz-adv-x="678"
d="M449 247h-5q-24 -11 -56 -17t-77 -6q-257 0 -257 257v217h152v-223q0 -119 119 -119q44 0 73 4.5t51 13.5v324h152v-698h-152v247z" />
    <glyph glyph-name="uni0428" unicode="&#x428;" horiz-adv-x="1030"
d="M77 698h152v-563h211v563h152v-563h209v563h152v-698h-876v698z" />
    <glyph glyph-name="uni0429" unicode="&#x429;" horiz-adv-x="1093"
d="M923 0h-846v698h152v-563h210v563h152v-563h210v563h152v-563h113v-285h-143v150z" />
    <glyph glyph-name="uni042A" unicode="&#x42a;" horiz-adv-x="758"
d="M173 563h-151v135h303v-252h188q49 0 88 -16.5t66.5 -45.5t42.5 -70.5t15 -90.5q0 -50 -15 -91t-42.5 -70t-66.5 -45.5t-88 -16.5h-340v563zM495 132q34 0 53.5 17.5t19.5 51.5v44q0 34 -19.5 51.5t-53.5 17.5h-170v-182h170z" />
    <glyph glyph-name="uni042B" unicode="&#x42b;" horiz-adv-x="933"
d="M77 698h152v-252h178q49 0 88 -16.5t66.5 -45.5t42.5 -70.5t15 -90.5q0 -50 -15 -91t-42.5 -70t-66.5 -45.5t-88 -16.5h-330v698zM389 132q34 0 53.5 17.5t19.5 51.5v44q0 34 -19.5 51.5t-53.5 17.5h-160v-182h160zM704 698h152v-698h-152v698z" />
    <glyph glyph-name="uni042C" unicode="&#x42c;" horiz-adv-x="662"
d="M77 698h152v-252h188q49 0 88 -16.5t66.5 -45.5t42.5 -70.5t15 -90.5q0 -50 -15 -91t-42.5 -70t-66.5 -45.5t-88 -16.5h-340v698zM399 132q34 0 53.5 17.5t19.5 51.5v44q0 34 -19.5 51.5t-53.5 17.5h-170v-182h170z" />
    <glyph glyph-name="uni042D" unicode="&#x42d;" horiz-adv-x="671"
d="M229 420h231q0 75 -42.5 115t-114.5 40q-32 0 -54.5 -6.5t-39 -19t-28 -29.5t-20.5 -38l-127 72q22 38 48 67.5t58 49t72.5 29.5t90.5 10q74 0 133 -22.5t100 -67t63 -111.5t22 -155q0 -89 -22 -157t-63 -114.5t-100 -70.5t-133 -24q-105 0 -170.5 42t-102.5 117l124 76
q17 -44 51 -72t98 -28q72 0 114.5 39.5t42.5 115.5v8h-231v134z" />
    <glyph glyph-name="uni042E" unicode="&#x42e;" horiz-adv-x="1016"
d="M659 -12q-128 0 -208 75.5t-97 222.5h-125v-286h-152v698h152v-278h127q7 71 32.5 125.5t65 91t91.5 55t114 18.5q69 0 126 -23t97 -68.5t62 -113t22 -156.5t-22 -156.5t-62 -113t-97 -68.5t-126 -23zM659 123q69 0 107.5 45t38.5 129v104q0 84 -38.5 129t-107.5 45
t-107.5 -45t-38.5 -129v-104q0 -84 38.5 -129t107.5 -45z" />
    <glyph glyph-name="uni042F" unicode="&#x42f;" horiz-adv-x="678"
d="M42 135h62l57 89q12 19 26.5 30t41.5 16v6q-77 8 -123.5 60t-46.5 139q0 50 15 91t42.5 70.5t66.5 45.5t87 16h331v-698h-152v256h-92l-117 -183q-14 -23 -27.5 -37t-28.5 -22t-31.5 -11t-36.5 -3h-74v135zM449 384v182h-160q-34 0 -53.5 -17.5t-19.5 -51.5v-43
q0 -35 19.5 -52.5t53.5 -17.5h160z" />
    <glyph glyph-name="uni0430" unicode="&#x430;" horiz-adv-x="569"
d="M457 0q-40 0 -66.5 25t-33.5 67h-6q-12 -51 -53 -77.5t-101 -26.5q-79 0 -121 42t-42 111q0 83 60.5 123.5t164.5 40.5h83v33q0 38 -20 60.5t-67 22.5q-44 0 -70 -19t-43 -43l-88 78q32 47 80.5 73.5t131.5 26.5q112 0 168 -49t56 -143v-230h49v-115h-82zM252 91
q37 0 63.5 16t26.5 52v62h-72q-87 0 -87 -59v-15q0 -29 18 -42.5t51 -13.5z" />
    <glyph glyph-name="uni0431" unicode="&#x431;" horiz-adv-x="567"
d="M286 -12q-58 0 -104 19.5t-77.5 61t-48 105t-16.5 151.5q0 100 17 173.5t52 123.5t89 77.5t128 35.5l170 17v-142l-171 -17q-37 -4 -61.5 -14.5t-39.5 -32t-22 -55.5t-8 -84h5q17 51 49 77t88 26q41 0 76.5 -17t62 -49t41.5 -77.5t15 -103.5q0 -64 -16.5 -115t-48 -86.5
t-77 -54.5t-103.5 -19zM286 105q44 0 68 27t24 77v80q0 50 -24 77t-68 27t-68 -27t-24 -77v-80q0 -50 24 -77t68 -27z" />
    <glyph glyph-name="uni0432" unicode="&#x432;" horiz-adv-x="576"
d="M69 525h299q72 0 110 -36t38 -96q0 -51 -27 -79t-84 -36v-5q131 -12 131 -121q0 -70 -44 -111t-122 -41h-301v525zM343 105q20 0 32 11t12 31v31q0 20 -12 31.5t-32 11.5h-130v-116h130zM325 309q20 0 31 11t11 31v27q0 20 -11 31t-31 11h-112v-111h112z" />
    <glyph glyph-name="uni0433" unicode="&#x433;" horiz-adv-x="444"
d="M69 525h355v-115h-207v-410h-148v525z" />
    <glyph glyph-name="uni0434" unicode="&#x434;" horiz-adv-x="658"
d="M10 115h69q13 19 23 43t16.5 55.5t9.5 71.5t3 91v149h422v-410h90v-255h-134v140h-365v-140h-134v255zM405 115v295h-132v-42q0 -108 -11.5 -166.5t-27.5 -86.5h171z" />
    <glyph glyph-name="uni0435" unicode="&#x435;" horiz-adv-x="562"
d="M288 -12q-60 0 -107 19.5t-79.5 55t-49 86.5t-16.5 114q0 62 16 112.5t47.5 86.5t77.5 55.5t105 19.5q65 0 111.5 -22t76 -59t43 -85.5t13.5 -101.5v-44h-337v-8q0 -52 28 -82.5t88 -30.5q46 0 75 18.5t54 44.5l74 -92q-35 -41 -91.5 -64t-128.5 -23zM285 428
q-45 0 -70.5 -29.5t-25.5 -78.5v-8h184v9q0 48 -21.5 77.5t-66.5 29.5z" />
    <glyph glyph-name="uni0436" unicode="&#x436;" horiz-adv-x="866"
d="M40 115h54l55 108q20 37 58 45v5q-37 9 -56 47l-45 90h-54v115h61q42 0 69 -17t47 -57l64 -127h66v201h148v-201h66l64 127q20 40 47 57t69 17h61v-115h-54l-45 -90q-19 -38 -56 -47v-5q38 -8 58 -45l55 -108h54v-115h-67q-42 0 -69 16.5t-48 58.5l-69 134h-66v-209h-148
v209h-66l-69 -134q-21 -42 -48 -58.5t-69 -16.5h-67v115z" />
    <glyph glyph-name="uni0437" unicode="&#x437;" horiz-adv-x="531"
d="M252 -12q-78 0 -131.5 24.5t-97.5 69.5l87 88q58 -66 143 -66q45 0 67 15.5t22 42.5v11q0 45 -59 45h-116v98h103q59 0 59 45v10q0 23 -20 36.5t-60 13.5q-41 0 -74 -16.5t-53 -45.5l-88 78q39 48 95 74t131 26q109 0 163.5 -40.5t54.5 -103.5q0 -51 -27 -79t-84 -36v-5
q57 -6 90.5 -36.5t33.5 -80.5q0 -79 -63 -123.5t-176 -44.5z" />
    <glyph glyph-name="uni0438" unicode="&#x438;" horiz-adv-x="612"
d="M69 525h145v-211l-13 -122h3l61 112l146 221h132v-525h-145v211l13 122h-3l-61 -112l-146 -221h-132v525z" />
    <glyph glyph-name="uni0439" unicode="&#x439;" horiz-adv-x="612"
d="M69 525h145v-211l-13 -122h3l61 112l146 221h132v-525h-145v211l13 122h-3l-61 -112l-146 -221h-132v525zM307 579q-66 0 -107 29t-64 83l-21 51l115 43l32 -101q6 -3 19 -5t26 -2t26 2t19 5l32 101l115 -43l-21 -51q-23 -54 -64 -83t-107 -29z" />
    <glyph glyph-name="uni043A" unicode="&#x43a;" horiz-adv-x="591"
d="M69 525h148v-201h76l69 128q21 39 47.5 56t68.5 17h61v-115h-53l-45 -84q-14 -26 -27.5 -37t-31.5 -16v-5q17 -4 31.5 -14t26.5 -32l59 -107h54v-115h-69q-42 0 -68 17t-49 58l-74 134h-76v-209h-148v525z" />
    <glyph glyph-name="uni043B" unicode="&#x43b;" horiz-adv-x="611"
d="M15 115h68q10 13 17.5 33t13 48.5t8.5 68.5t3 94v166h417v-525h-148v410h-127v-59q0 -68 -5 -119.5t-15 -89t-23.5 -63t-29.5 -41.5q-24 -24 -55.5 -34t-78.5 -10h-45v121z" />
    <glyph glyph-name="uni043C" unicode="&#x43c;" horiz-adv-x="726"
d="M69 525h160l132 -215h4l132 215h160v-525h-144v341h-3l-40 -73l-107 -174l-107 174l-40 73h-3v-341h-144v525z" />
    <glyph glyph-name="uni043D" unicode="&#x43d;" horiz-adv-x="612"
d="M69 525h148v-201h178v201h148v-525h-148v209h-178v-209h-148v525z" />
    <glyph glyph-name="uni043E" unicode="&#x43e;" horiz-adv-x="564"
d="M282 -12q-58 0 -103.5 19t-77 55t-48.5 87t-17 114t17 114t48.5 86.5t77 54.5t103.5 19t103.5 -19t77 -54.5t48.5 -86.5t17 -114t-17 -114t-48.5 -87t-77 -55t-103.5 -19zM282 105q44 0 68 27t24 77v107q0 50 -24 77t-68 27t-68 -27t-24 -77v-107q0 -50 24 -77t68 -27z
" />
    <glyph glyph-name="uni043F" unicode="&#x43f;" horiz-adv-x="597"
d="M69 525h459v-525h-148v410h-163v-410h-148v525z" />
    <glyph glyph-name="uni0440" unicode="&#x440;" horiz-adv-x="608"
d="M69 525h148v-88h5q11 44 50.5 72t90.5 28q100 0 151 -70t51 -204t-51 -204.5t-151 -70.5q-26 0 -49 7.5t-41.5 21t-31.5 32t-19 39.5h-5v-288h-148v725zM314 108q42 0 69.5 29.5t27.5 79.5v91q0 50 -27.5 79.5t-69.5 29.5t-69.5 -20.5t-27.5 -56.5v-155q0 -36 27.5 -56.5
t69.5 -20.5z" />
    <glyph glyph-name="uni0441" unicode="&#x441;" horiz-adv-x="517"
d="M281 -12q-59 0 -105 19.5t-77 55t-47 86.5t-16 114t16 113.5t47 86.5t77 55t105 19q80 0 133.5 -36t76.5 -101l-120 -52q-7 30 -29 51t-61 21q-45 0 -68 -29.5t-23 -79.5v-98q0 -50 23 -79t68 -29q40 0 63.5 21.5t34.5 56.5l115 -50q-26 -75 -80.5 -110t-132.5 -35z" />
    <glyph glyph-name="uni0442" unicode="&#x442;" horiz-adv-x="492"
d="M172 410h-152v115h452v-115h-152v-410h-148v410z" />
    <glyph glyph-name="uni0443" unicode="&#x443;" horiz-adv-x="534"
d="M390 525h138l-202 -606q-20 -61 -56.5 -90t-104.5 -29h-92v115h99l18 58l-184 552h147l77 -245l38 -152h6l39 152z" />
    <glyph glyph-name="uni0444" unicode="&#x444;" horiz-adv-x="804"
d="M328 56h-5q-35 -68 -115 -68q-88 0 -128 63.5t-40 210.5t40 211t128 64q78 0 115 -70h5v243h148v-243h5q37 70 115 70q88 0 128 -64t40 -211t-40 -210.5t-128 -63.5q-80 0 -115 68h-5v-256h-148v256zM267 94q33 0 47 16t14 42v221q0 26 -14 42t-47 16q-41 0 -58 -28.5
t-17 -88.5v-103q0 -60 17 -88.5t58 -28.5zM537 94q41 0 58 28.5t17 88.5v103q0 60 -17 88.5t-58 28.5q-33 0 -47 -16t-14 -42v-221q0 -26 14 -42t47 -16z" />
    <glyph glyph-name="uni0445" unicode="&#x445;" horiz-adv-x="560"
d="M18 0l173 267l-171 258h168l98 -165h4l95 165h156l-174 -263l175 -262h-168l-101 171h-4l-97 -171h-154z" />
    <glyph glyph-name="uni0446" unicode="&#x446;" horiz-adv-x="633"
d="M484 0h-415v525h148v-410h163v410h148v-410h90v-255h-134v140z" />
    <glyph glyph-name="uni0447" unicode="&#x447;" horiz-adv-x="578"
d="M361 223h-5q-18 -32 -51.5 -50.5t-84.5 -18.5q-89 0 -129.5 46t-40.5 141v184h148v-177q0 -39 18.5 -56.5t60.5 -17.5t63 15t21 38v198h148v-525h-148v223z" />
    <glyph glyph-name="uni0448" unicode="&#x448;" horiz-adv-x="844"
d="M69 525h148v-410h131v410h148v-410h131v410h148v-525h-706v525z" />
    <glyph glyph-name="uni0449" unicode="&#x449;" horiz-adv-x="880"
d="M731 0h-662v525h148v-410h131v410h148v-410h131v410h148v-410h90v-255h-134v140z" />
    <glyph glyph-name="uni044A" unicode="&#x44a;" horiz-adv-x="639"
d="M147 410h-127v115h275v-156h138q38 0 71 -12t57.5 -35.5t38.5 -57.5t14 -79t-14 -79.5t-38.5 -58t-57.5 -35.5t-71 -12h-286v410zM401 105q29 0 46.5 15.5t17.5 44.5v39q0 29 -17.5 44.5t-46.5 15.5h-106v-159h106z" />
    <glyph glyph-name="uni044B" unicode="&#x44b;" horiz-adv-x="809"
d="M69 525h148v-156h127q38 0 71 -12t57.5 -35.5t38.5 -57.5t14 -79t-14 -79.5t-38.5 -58t-57.5 -35.5t-71 -12h-275v525zM312 105q29 0 46.5 15.5t17.5 44.5v39q0 29 -17.5 44.5t-46.5 15.5h-95v-159h95zM592 525h148v-525h-148v525z" />
    <glyph glyph-name="uni044C" unicode="&#x44c;" horiz-adv-x="561"
d="M69 525h148v-156h138q38 0 71 -12t57.5 -35.5t38.5 -57.5t14 -79t-14 -79.5t-38.5 -58t-57.5 -35.5t-71 -12h-286v525zM323 105q29 0 46.5 15.5t17.5 44.5v39q0 29 -17.5 44.5t-46.5 15.5h-106v-159h106z" />
    <glyph glyph-name="uni044D" unicode="&#x44d;" horiz-adv-x="535"
d="M181 316h164v3q0 45 -25 73.5t-73 28.5t-70 -18t-33 -51l-118 61q28 57 80 90.5t141 33.5q125 0 188.5 -74t63.5 -200q0 -63 -16 -114t-48.5 -86.5t-80 -55t-110.5 -19.5q-42 0 -75 7.5t-59 23.5t-47 41t-40 60l113 59q15 -39 40 -57t68 -18q53 0 77 27.5t24 81.5v5h-164
v98z" />
    <glyph glyph-name="uni044E" unicode="&#x44e;" horiz-adv-x="822"
d="M545 -12q-103 0 -164 58.5t-74 162.5h-90v-209h-148v525h148v-201h91q14 100 74.5 156.5t162.5 56.5q58 0 102.5 -19t75.5 -54.5t47 -86.5t16 -114t-16 -114t-47 -87t-75.5 -55t-102.5 -19zM545 105q44 0 65.5 27t21.5 77v107q0 50 -21.5 77t-65.5 27t-65.5 -27
t-21.5 -77v-107q0 -50 21.5 -77t65.5 -27z" />
    <glyph glyph-name="uni044F" unicode="&#x44f;" horiz-adv-x="585"
d="M43 115h56l24 47q18 37 55 40v5q-59 8 -94 43t-35 100q0 41 14 73.5t38.5 55t57.5 34.5t71 12h286v-525h-148v183h-81l-55 -108q-21 -42 -48.5 -58.5t-69.5 -16.5h-71v115zM368 288v132h-106q-29 0 -46.5 -15.5t-17.5 -44.5v-17q0 -24 17.5 -39.5t46.5 -15.5h106z" />
    <glyph glyph-name="uni0450" unicode="&#x450;" horiz-adv-x="562"
d="M288 -12q-60 0 -107 19.5t-79.5 55t-49 86.5t-16.5 114q0 62 16 112.5t47.5 86.5t77.5 55.5t105 19.5q65 0 111.5 -22t76 -59t43 -85.5t13.5 -101.5v-44h-337v-8q0 -52 28 -82.5t88 -30.5q46 0 75 18.5t54 44.5l74 -92q-35 -41 -91.5 -64t-128.5 -23zM285 428
q-45 0 -70.5 -29.5t-25.5 -78.5v-8h184v9q0 48 -21.5 77.5t-66.5 29.5zM138 755l123 61l99 -194l-88 -43z" />
    <glyph glyph-name="uni0451" unicode="&#x451;" horiz-adv-x="562"
d="M288 -12q-60 0 -107 19.5t-79.5 55t-49 86.5t-16.5 114q0 62 16 112.5t47.5 86.5t77.5 55.5t105 19.5q65 0 111.5 -22t76 -59t43 -85.5t13.5 -101.5v-44h-337v-8q0 -52 28 -82.5t88 -30.5q46 0 75 18.5t54 44.5l74 -92q-35 -41 -91.5 -64t-128.5 -23zM285 428
q-45 0 -70.5 -29.5t-25.5 -78.5v-8h184v9q0 48 -21.5 77.5t-66.5 29.5zM178 600q-45 0 -62.5 18.5t-17.5 44.5v25q0 26 17.5 44.5t62.5 18.5t62.5 -18.5t17.5 -44.5v-25q0 -26 -17.5 -44.5t-62.5 -18.5zM398 600q-45 0 -62.5 18.5t-17.5 44.5v25q0 26 17.5 44.5t62.5 18.5
t62.5 -18.5t17.5 -44.5v-25q0 -26 -17.5 -44.5t-62.5 -18.5z" />
    <glyph glyph-name="uni0452" unicode="&#x452;" horiz-adv-x="602"
d="M307 -85h78v402q0 51 -16 75.5t-57 24.5q-18 0 -35 -4.5t-30.5 -14.5t-21.5 -24.5t-8 -33.5v-340h-148v590h-62v100h62v50h148v-50h140v-100h-140v-154h6q14 41 49 71t97 30q81 0 122.5 -54t41.5 -154v-385q0 -70 -35 -107t-113 -37h-78v115z" />
    <glyph glyph-name="uni0453" unicode="&#x453;" horiz-adv-x="444"
d="M69 525h355v-115h-207v-410h-148v525zM255 579l-88 43l99 194l123 -61z" />
    <glyph glyph-name="uni0454" unicode="&#x454;" horiz-adv-x="535"
d="M291 -12q-63 0 -110.5 19.5t-80 55t-48.5 86.5t-16 114t16 113.5t48 86.5t79 55t109 19q45 0 80 -8.5t61.5 -25t46 -39.5t33.5 -51l-118 -61q-11 33 -33 51t-70 18q-49 0 -73 -28.5t-25 -76.5h164v-98h-164v-5q0 -50 24 -79.5t77 -29.5q43 0 68 18t40 57l113 -59
q-19 -35 -40 -60t-47 -41t-59 -23.5t-75 -7.5z" />
    <glyph glyph-name="uni0455" unicode="&#x455;" horiz-adv-x="504"
d="M247 -12q-76 0 -128 24.5t-93 69.5l87 88q28 -31 62 -49t77 -18q44 0 61 13.5t17 36.5q0 37 -53 44l-57 7q-177 22 -177 162q0 38 14.5 69.5t41 54t64 35t84.5 12.5q41 0 72.5 -5.5t56 -16t45 -26t40.5 -34.5l-85 -87q-25 25 -56.5 39.5t-64.5 14.5q-38 0 -54 -12
t-16 -32q0 -21 11.5 -32.5t43.5 -16.5l59 -8q173 -23 173 -158q0 -38 -16 -70t-45.5 -55.5t-71 -36.5t-92.5 -13z" />
    <glyph glyph-name="uni0456" unicode="&#x456;" horiz-adv-x="286"
d="M143 581q-45 0 -65.5 20.5t-20.5 52.5v22q0 32 20.5 52.5t65.5 20.5t65.5 -20.5t20.5 -52.5v-22q0 -32 -20.5 -52.5t-65.5 -20.5zM69 525h148v-525h-148v525z" />
    <glyph glyph-name="uni0457" unicode="&#x457;" horiz-adv-x="286"
d="M69 0v525h148v-525h-148zM34 600q-45 0 -62.5 18.5t-17.5 44.5v25q0 26 17.5 44.5t62.5 18.5t62.5 -18.5t17.5 -44.5v-25q0 -26 -17.5 -44.5t-62.5 -18.5zM254 600q-45 0 -62.5 18.5t-17.5 44.5v25q0 26 17.5 44.5t62.5 18.5t62.5 -18.5t17.5 -44.5v-25
q0 -26 -17.5 -44.5t-62.5 -18.5z" />
    <glyph glyph-name="uni0458" unicode="&#x458;" horiz-adv-x="286"
d="M69 525h148v-581q0 -70 -35 -107t-113 -37h-78v115h78v610zM143 581q-45 0 -65.5 20.5t-20.5 52.5v22q0 32 20.5 52.5t65.5 20.5t65.5 -20.5t20.5 -52.5v-22q0 -32 -20.5 -52.5t-65.5 -20.5z" />
    <glyph glyph-name="uni0459" unicode="&#x459;" horiz-adv-x="863"
d="M15 115h68q10 13 17.5 33t13 48.5t8.5 68.5t3 94v166h405v-156h127q38 0 71 -12t57.5 -35.5t38.5 -57.5t14 -79t-14 -79.5t-38.5 -58t-57.5 -35.5t-71 -12h-275v410h-115v-59q0 -68 -5 -119.5t-15 -89t-23.5 -63t-29.5 -41.5q-24 -24 -55.5 -34t-78.5 -10h-45v121z
M625 105q29 0 46.5 15.5t17.5 44.5v39q0 29 -17.5 44.5t-46.5 15.5h-95v-159h95z" />
    <glyph glyph-name="uni045A" unicode="&#x45a;" horiz-adv-x="869"
d="M69 525h148v-201h171v201h148v-156h127q38 0 71 -12t57.5 -35.5t38.5 -57.5t14 -79t-14 -79.5t-38.5 -58t-57.5 -35.5t-71 -12h-275v209h-171v-209h-148v525zM631 105q29 0 46.5 15.5t17.5 44.5v39q0 29 -17.5 44.5t-46.5 15.5h-95v-159h95z" />
    <glyph glyph-name="uni045B" unicode="&#x45b;" horiz-adv-x="596"
d="M69 0v590h-62v100h62v50h148v-50h140v-100h-140v-154h6q14 41 49 71t97 30q81 0 122.5 -54t41.5 -154v-329h-148v317q0 51 -16 75.5t-57 24.5q-18 0 -35 -4.5t-30.5 -14.5t-21.5 -24.5t-8 -33.5v-340h-148z" />
    <glyph glyph-name="uni045C" unicode="&#x45c;" horiz-adv-x="591"
d="M69 525h148v-201h76l69 128q21 39 47.5 56t68.5 17h61v-115h-53l-45 -84q-14 -26 -27.5 -37t-31.5 -16v-5q17 -4 31.5 -14t26.5 -32l59 -107h54v-115h-69q-42 0 -68 17t-49 58l-74 134h-76v-209h-148v525zM318 579l-88 43l99 194l123 -61z" />
    <glyph glyph-name="uni045D" unicode="&#x45d;" horiz-adv-x="612"
d="M69 525h145v-211l-13 -122h3l61 112l146 221h132v-525h-145v211l13 122h-3l-61 -112l-146 -221h-132v525zM157 755l123 61l99 -194l-88 -43z" />
    <glyph glyph-name="uni045E" unicode="&#x45e;" horiz-adv-x="534"
d="M390 525h138l-202 -606q-20 -61 -56.5 -90t-104.5 -29h-92v115h99l18 58l-184 552h147l77 -245l38 -152h6l39 152zM272 579q-66 0 -107 29t-64 83l-21 51l115 43l32 -101q6 -3 19 -5t26 -2t26 2t19 5l32 101l115 -43l-21 -51q-23 -54 -64 -83t-107 -29z" />
    <glyph glyph-name="uni045F" unicode="&#x45f;" horiz-adv-x="598"
d="M232 0h-163v525h148v-410h164v410h148v-525h-163v-140h-134v140z" />
    <glyph glyph-name="uni0472" unicode="&#x472;" horiz-adv-x="714"
d="M357 -12q-69 0 -126 23t-97 68.5t-62 113t-22 156.5t22 156.5t62 113t97 68.5t126 23t126 -23t97 -68.5t62 -113t22 -156.5t-22 -156.5t-62 -113t-97 -68.5t-126 -23zM357 113q70 0 111.5 43.5t44.5 128.5h-312q2 -85 44 -128.5t112 -43.5zM357 585q-69 0 -110.5 -42.5
t-45.5 -123.5h312q-4 81 -45.5 123.5t-110.5 42.5z" />
    <glyph glyph-name="uni0473" unicode="&#x473;" horiz-adv-x="564"
d="M282 -12q-58 0 -103.5 19t-77 55t-48.5 87t-17 114t17 114t48.5 86.5t77 54.5t103.5 19t103.5 -19t77 -54.5t48.5 -86.5t17 -114t-17 -114t-48.5 -87t-77 -55t-103.5 -19zM282 95q48 0 75 28t27 82v10h-204v-10q0 -54 27 -82t75 -28zM180 313h204v7q0 54 -27 82t-75 28
t-75 -28t-27 -82v-7z" />
    <glyph glyph-name="uni0490" unicode="&#x490;" horiz-adv-x="514"
d="M77 698h267v150h143v-285h-258v-563h-152v698z" />
    <glyph glyph-name="uni0491" unicode="&#x491;" horiz-adv-x="444"
d="M69 525h221v140h134v-255h-207v-410h-148v525z" />
    <glyph glyph-name="uni0492" unicode="&#x492;" horiz-adv-x="545"
d="M108 282h-86v114h86v302h410v-135h-258v-167h172v-114h-172v-282h-152v282z" />
    <glyph glyph-name="uni0493" unicode="&#x493;" horiz-adv-x="461"
d="M86 205h-64v98h64v222h355v-115h-207v-107h123v-98h-123v-205h-148v205z" />
    <glyph glyph-name="uni0494" unicode="&#x494;" horiz-adv-x="668"
d="M323 -43h103q17 18 26.5 49t9.5 75v64q0 119 -114 119q-40 0 -68.5 -4.5t-50.5 -13.5v-246h-152v698h410v-135h-258v-190h5q24 11 55 17t73 6q252 0 252 -257v-65q0 -66 -17 -114.5t-48 -80.5t-75.5 -47.5t-98.5 -15.5h-52v141z" />
    <glyph glyph-name="uni0495" unicode="&#x495;" horiz-adv-x="574"
d="M273 -85h84q12 14 17.5 34.5t5.5 61.5v95q0 50 -18.5 68t-60.5 18t-63 -15t-21 -38v-139h-148v525h355v-115h-207v-167h5q18 32 51.5 50.5t84.5 18.5q88 0 129 -47t41 -152v-114q0 -104 -46.5 -151.5t-143.5 -47.5h-65v115z" />
    <glyph glyph-name="uni0496" unicode="&#x496;" horiz-adv-x="1029"
d="M874 0q-33 2 -60 19.5t-50 67.5l-94 199h-91v-286h-152v286h-91l-94 -199q-23 -50 -51.5 -68.5t-70.5 -18.5h-80v135h62l77 163q24 52 75 59v6q-24 7 -41 21.5t-32 44.5l-65 134h-62v135h63q45 0 74.5 -20t50.5 -64l94 -194h91v278h152v-278h91l94 194q21 44 50.5 64
t74.5 20h62v-135h-62l-64 -134q-15 -30 -32 -44.5t-41 -21.5v-6q51 -7 75 -59l77 -163h113v-285h-143v150z" />
    <glyph glyph-name="uni0497" unicode="&#x497;" horiz-adv-x="874"
d="M728 2q-54 8 -86 73l-69 134h-66v-209h-148v209h-66l-69 -134q-21 -42 -48 -58.5t-69 -16.5h-67v115h54l55 108q20 37 58 45v5q-37 9 -56 47l-45 90h-54v115h61q42 0 69 -17t47 -57l64 -127h66v201h148v-201h66l64 127q20 40 47 57t69 17h61v-115h-54l-45 -90
q-19 -38 -56 -47v-5q38 -8 58 -45l55 -108h90v-255h-134v142z" />
    <glyph glyph-name="uni0498" unicode="&#x498;" horiz-adv-x="608"
d="M214 -6q-109 18 -185 97l100 101q32 -33 70.5 -51t85.5 -18q60 0 91 21t31 59v8q0 40 -24 57.5t-75 17.5h-121v134h115q93 0 93 77v5q0 73 -105 73q-42 0 -82 -16.5t-67 -46.5l-92 96q44 48 106.5 75t134.5 27q62 0 111 -13.5t83.5 -39t53 -61.5t18.5 -81
q0 -36 -11.5 -62.5t-31 -44.5t-46 -28t-56.5 -13v-6q30 -2 58.5 -12t50 -29t35 -47t13.5 -66q0 -84 -56 -140.5t-155 -72.5v-144h-143v144z" />
    <glyph glyph-name="uni0499" unicode="&#x499;" horiz-adv-x="531"
d="M186 -6q-51 8 -90.5 30.5t-72.5 57.5l87 88q58 -66 143 -66q45 0 67 15.5t22 42.5v11q0 45 -59 45h-116v98h103q59 0 59 45v10q0 23 -20 36.5t-60 13.5q-41 0 -74 -16.5t-53 -45.5l-88 78q39 48 95 74t131 26q109 0 163.5 -40.5t54.5 -103.5q0 -51 -27 -79t-84 -36v-5
q57 -6 90.5 -36.5t33.5 -80.5q0 -66 -45 -108.5t-126 -54.5v-133h-134v134z" />
    <glyph glyph-name="uni049A" unicode="&#x49a;" horiz-adv-x="698"
d="M543 0q-31 2 -57.5 19t-51.5 66l-104 201h-101v-286h-152v698h152v-278h101l104 195q22 43 51 63t74 20h62v-135h-62l-72 -136q-14 -27 -31.5 -41.5t-41.5 -22.5v-6q26 -5 44.5 -19.5t32.5 -43.5l82 -159h113v-285h-143v150z" />
    <glyph glyph-name="uni049B" unicode="&#x49b;" horiz-adv-x="601"
d="M455 2q-20 3 -42.5 17.5t-45.5 55.5l-74 134h-76v-209h-148v525h148v-201h76l69 128q21 39 47.5 56t68.5 17h61v-115h-53l-45 -84q-14 -26 -27.5 -37t-31.5 -16v-5q17 -4 31.5 -14t26.5 -32l59 -107h90v-255h-134v142z" />
    <glyph glyph-name="uni049C" unicode="&#x49c;" horiz-adv-x="755"
d="M77 698h152v-278h42v133h114v-133h35l94 195q23 42 51.5 62.5t73.5 20.5h62v-135h-62l-63 -132q-12 -26 -29 -42.5t-43 -25.5v-6q26 -6 44.5 -21.5t32.5 -45.5l72 -155h62v-135h-79q-42 0 -70.5 17.5t-51.5 67.5l-94 201h-35v-133h-114v133h-42v-286h-152v698z" />
    <glyph glyph-name="uni049D" unicode="&#x49d;" horiz-adv-x="671"
d="M69 525h148v-201h41v114h94v-114h31l55 116q21 45 48 65t72 20h61v-115h-53l-40 -84q-13 -26 -25 -37t-29 -16v-5q18 -5 31 -14t24 -32l52 -107h54v-115h-69q-44 0 -71 19t-47 60l-63 130h-31v-114h-94v114h-41v-209h-148v525z" />
    <glyph glyph-name="uni04A0" unicode="&#x4a0;" horiz-adv-x="771"
d="M173 563h-151v135h303v-278h101l104 195q22 43 51 63t74 20h62v-135h-62l-72 -136q-14 -27 -31.5 -41.5t-41.5 -22.5v-6q26 -5 44.5 -19.5t32.5 -43.5l82 -159h62v-135h-79q-42 0 -69.5 18t-52.5 67l-104 201h-101v-286h-152v563z" />
    <glyph glyph-name="uni04A1" unicode="&#x4a1;" horiz-adv-x="669"
d="M147 410h-127v115h275v-201h76l69 128q21 39 47.5 56t68.5 17h61v-115h-53l-45 -84q-14 -26 -27.5 -37t-31.5 -16v-5q17 -4 31.5 -14t26.5 -32l59 -107h54v-115h-69q-42 0 -68 17t-49 58l-74 134h-76v-209h-148v410z" />
    <glyph glyph-name="uni04A2" unicode="&#x4a2;" horiz-adv-x="787"
d="M617 0h-122v286h-266v-286h-152v698h152v-278h266v278h152v-563h113v-285h-143v150z" />
    <glyph glyph-name="uni04A3" unicode="&#x4a3;" horiz-adv-x="648"
d="M499 0h-104v209h-178v-209h-148v525h148v-201h178v201h148v-410h90v-255h-134v140z" />
    <glyph glyph-name="uni04A4" unicode="&#x4a4;" horiz-adv-x="912"
d="M77 698h152v-278h246v278h410v-135h-258v-563h-152v286h-246v-286h-152v698z" />
    <glyph glyph-name="uni04A5" unicode="&#x4a5;" horiz-adv-x="763"
d="M69 525h148v-201h171v201h355v-115h-207v-410h-148v209h-171v-209h-148v525z" />
    <glyph glyph-name="uni04AA" unicode="&#x4aa;" horiz-adv-x="651"
d="M288 -6q-110 20 -174 108t-64 242q0 88 22 156.5t62 115t97 70.5t128 24q97 0 160 -39.5t101 -124.5l-131 -68q-14 44 -43.5 70.5t-86.5 26.5q-67 0 -107.5 -43.5t-40.5 -126.5v-112q0 -83 40.5 -126.5t107.5 -43.5q56 0 89.5 30.5t49.5 73.5l124 -72q-32 -64 -78.5 -105
t-112.5 -55v-145h-143v144z" />
    <glyph glyph-name="uni04AB" unicode="&#x4ab;" horiz-adv-x="517"
d="M214 -5q-88 20 -133 90t-45 178q0 63 16 113.5t47 86.5t77 55t105 19q80 0 133.5 -36t76.5 -101l-120 -52q-7 30 -29 51t-61 21q-45 0 -68 -29.5t-23 -79.5v-98q0 -50 23 -79.5t68 -29.5q44 0 65.5 23.5t32.5 55.5l115 -50q-20 -58 -57.5 -91.5t-88.5 -45.5v-136h-134
v135z" />
    <glyph glyph-name="uni04AE" unicode="&#x4ae;" horiz-adv-x="649"
d="M248 0v273l-239 425h170l150 -278h2l144 278h165l-239 -424v-274h-153z" />
    <glyph glyph-name="uni04AF" unicode="&#x4af;" horiz-adv-x="538"
d="M195 0l-186 525h146l69 -212l45 -168h8l46 168l66 212h140l-186 -525v-200h-148v200z" />
    <glyph glyph-name="uni04B0" unicode="&#x4b0;" horiz-adv-x="649"
d="M248 159h-139v114h139l-239 425h170l150 -278h2l144 278h165l-239 -425h138v-114h-138v-159h-153v159z" />
    <glyph glyph-name="uni04B1" unicode="&#x4b1;" horiz-adv-x="538"
d="M195 -98h-120v98h120l-186 525h146l69 -212l45 -168h8l46 168l66 212h140l-186 -525h120v-98h-120v-102h-148v102z" />
    <glyph glyph-name="uni04B2" unicode="&#x4b2;" horiz-adv-x="695"
d="M541 0h-60l-151 257h-3l-147 -257h-164l224 361l-213 337h177l136 -236h3l138 236h164l-215 -340l141 -223h113v-285h-143v150z" />
    <glyph glyph-name="uni04B3" unicode="&#x4b3;" horiz-adv-x="573"
d="M431 0h-57l-101 171h-4l-97 -171h-154l173 267l-171 258h168l98 -165h4l95 165h156l-174 -263l98 -147h100v-255h-134v140z" />
    <glyph glyph-name="uni04B6" unicode="&#x4b6;" horiz-adv-x="741"
d="M571 0h-122v247h-5q-24 -11 -56 -17t-77 -6q-257 0 -257 257v217h152v-223q0 -119 119 -119q44 0 73 4.5t51 13.5v324h152v-563h113v-285h-143v150z" />
    <glyph glyph-name="uni04B7" unicode="&#x4b7;" horiz-adv-x="614"
d="M465 0h-104v223h-5q-18 -32 -51.5 -50.5t-84.5 -18.5q-89 0 -129.5 46t-40.5 141v184h148v-177q0 -39 18.5 -56.5t60.5 -17.5t63 15t21 38v198h148v-410h90v-255h-134v140z" />
    <glyph glyph-name="uni04B8" unicode="&#x4b8;" horiz-adv-x="698"
d="M469 247h-5q-28 -12 -65 -18v-125h-114v121q-118 7 -174.5 71t-56.5 185v217h152v-223q0 -97 79 -115v144h114v-146q38 3 70 16v324h152v-698h-152v247z" />
    <glyph glyph-name="uni04B9" unicode="&#x4b9;" horiz-adv-x="598"
d="M381 206h-5q-7 -11 -17.5 -22t-22.5 -19v-92h-94v81q-101 0 -146.5 46t-45.5 141v184h148v-177q0 -31 11 -47t33 -22v137h94v-137q18 2 31.5 14t13.5 29v203h148v-525h-148v206z" />
    <glyph glyph-name="uni04BA" unicode="&#x4ba;" horiz-adv-x="678"
d="M77 698h152v-247h5q24 11 56 17t77 6q257 0 257 -257v-217h-152v223q0 119 -119 119q-44 0 -73 -4.5t-51 -13.5v-324h-152v698z" />
    <glyph glyph-name="uni04BB" unicode="&#x4bb;" horiz-adv-x="596"
d="M69 740h148v-304h6q14 41 49 71t97 30q81 0 122.5 -54t41.5 -154v-329h-148v317q0 51 -16 75.5t-57 24.5q-18 0 -35 -4.5t-30.5 -14.5t-21.5 -24.5t-8 -33.5v-340h-148v740z" />
    <glyph glyph-name="uni04C0" unicode="&#x4c0;" horiz-adv-x="432"
d="M50 0v121h90v456h-90v121h332v-121h-90v-456h90v-121h-332z" />
    <glyph glyph-name="uni04C1" unicode="&#x4c1;" horiz-adv-x="1006"
d="M40 135h62l77 163q24 52 75 59v6q-24 7 -41 21.5t-32 44.5l-65 134h-62v135h63q45 0 74.5 -20t50.5 -64l94 -194h91v278h152v-278h91l94 194q21 44 50.5 64t74.5 20h62v-135h-62l-64 -134q-15 -30 -32 -44.5t-41 -21.5v-6q51 -7 75 -59l77 -163h62v-135h-80
q-42 0 -70.5 18.5t-51.5 68.5l-94 199h-91v-286h-152v286h-91l-94 -199q-23 -50 -51.5 -68.5t-70.5 -18.5h-80v135zM503 740q-66 0 -107 29t-64 83l-21 51l115 43l32 -101q6 -3 19 -5t26 -2t26 2t19 5l32 101l115 -43l-21 -51q-23 -54 -64 -83t-107 -29z" />
    <glyph glyph-name="uni04C2" unicode="&#x4c2;" horiz-adv-x="866"
d="M40 115h54l55 108q20 37 58 45v5q-37 9 -56 47l-45 90h-54v115h61q42 0 69 -17t47 -57l64 -127h66v201h148v-201h66l64 127q20 40 47 57t69 17h61v-115h-54l-45 -90q-19 -38 -56 -47v-5q38 -8 58 -45l55 -108h54v-115h-67q-42 0 -69 16.5t-48 58.5l-69 134h-66v-209h-148
v209h-66l-69 -134q-21 -42 -48 -58.5t-69 -16.5h-67v115zM433 579q-66 0 -107 29t-64 83l-21 51l115 43l32 -101q6 -3 19 -5t26 -2t26 2t19 5l32 101l115 -43l-21 -51q-23 -54 -64 -83t-107 -29z" />
    <glyph glyph-name="uni04CF" unicode="&#x4cf;" horiz-adv-x="286"
d="M69 740h148v-740h-148v740z" />
    <glyph glyph-name="uni04D0" unicode="&#x4d0;" horiz-adv-x="685"
d="M507 0l-50 166h-233l-50 -166h-154l230 698h188l227 -698h-158zM342 560h-5l-77 -265h160zM339 740q-66 0 -107 29t-64 83l-21 51l115 43l32 -101q6 -3 19 -5t26 -2t26 2t19 5l32 101l115 -43l-21 -51q-23 -54 -64 -83t-107 -29z" />
    <glyph glyph-name="uni04D1" unicode="&#x4d1;" horiz-adv-x="569"
d="M457 0q-40 0 -66.5 25t-33.5 67h-6q-12 -51 -53 -77.5t-101 -26.5q-79 0 -121 42t-42 111q0 83 60.5 123.5t164.5 40.5h83v33q0 38 -20 60.5t-67 22.5q-44 0 -70 -19t-43 -43l-88 78q32 47 80.5 73.5t131.5 26.5q112 0 168 -49t56 -143v-230h49v-115h-82zM252 91
q37 0 63.5 16t26.5 52v62h-72q-87 0 -87 -59v-15q0 -29 18 -42.5t51 -13.5zM269 579q-66 0 -107 29t-64 83l-21 51l115 43l32 -101q6 -3 19 -5t26 -2t26 2t19 5l32 101l115 -43l-21 -51q-23 -54 -64 -83t-107 -29z" />
    <glyph glyph-name="uni04D2" unicode="&#x4d2;" horiz-adv-x="685"
d="M507 0l-50 166h-233l-50 -166h-154l230 698h188l227 -698h-158zM342 560h-5l-77 -265h160zM229 761q-45 0 -62.5 18.5t-17.5 44.5v25q0 26 17.5 44.5t62.5 18.5t62.5 -18.5t17.5 -44.5v-25q0 -26 -17.5 -44.5t-62.5 -18.5zM449 761q-45 0 -62.5 18.5t-17.5 44.5v25
q0 26 17.5 44.5t62.5 18.5t62.5 -18.5t17.5 -44.5v-25q0 -26 -17.5 -44.5t-62.5 -18.5z" />
    <glyph glyph-name="uni04D3" unicode="&#x4d3;" horiz-adv-x="569"
d="M457 0q-40 0 -66.5 25t-33.5 67h-6q-12 -51 -53 -77.5t-101 -26.5q-79 0 -121 42t-42 111q0 83 60.5 123.5t164.5 40.5h83v33q0 38 -20 60.5t-67 22.5q-44 0 -70 -19t-43 -43l-88 78q32 47 80.5 73.5t131.5 26.5q112 0 168 -49t56 -143v-230h49v-115h-82zM252 91
q37 0 63.5 16t26.5 52v62h-72q-87 0 -87 -59v-15q0 -29 18 -42.5t51 -13.5zM159 600q-45 0 -62.5 18.5t-17.5 44.5v25q0 26 17.5 44.5t62.5 18.5t62.5 -18.5t17.5 -44.5v-25q0 -26 -17.5 -44.5t-62.5 -18.5zM379 600q-45 0 -62.5 18.5t-17.5 44.5v25q0 26 17.5 44.5
t62.5 18.5t62.5 -18.5t17.5 -44.5v-25q0 -26 -17.5 -44.5t-62.5 -18.5z" />
    <glyph glyph-name="uni04D4" unicode="&#x4d4;" horiz-adv-x="968"
d="M438 166h-209l-78 -166h-152l341 698h573v-135h-324v-143h278v-134h-278v-151h324v-135h-475v166zM415 563l-125 -268h148v268h-23z" />
    <glyph glyph-name="uni04D5" unicode="&#x4d5;" horiz-adv-x="864"
d="M270 225q-40 0 -63.5 -15t-23.5 -44v-14q0 -61 71 -61q35 0 61.5 16t26.5 52v66h-72zM675 312v9q0 48 -21.5 77.5t-66.5 29.5t-70.5 -29.5t-25.5 -78.5v-8h184zM610 106q46 0 76.5 19t52.5 42l74 -92q-35 -41 -91.5 -64t-128.5 -23q-75 0 -129 29.5t-75 73.5h-6
q-8 -21 -22.5 -40t-37 -33t-53.5 -22t-72 -8q-40 0 -70.5 11.5t-51.5 32.5t-31.5 49.5t-10.5 62.5q0 42 16.5 73.5t46.5 52.5t71.5 31.5t90.5 10.5h83v26q0 38 -20 60.5t-67 22.5q-44 0 -70 -19t-43 -43l-88 78q32 47 80.5 73.5t131.5 26.5q48 0 85.5 -17.5t62.5 -56.5h6
q24 38 67.5 56t100.5 18q65 0 111 -22t74.5 -59t41.5 -85.5t13 -101.5v-44h-338v-8q0 -51 31.5 -81t88.5 -30z" />
    <glyph glyph-name="uni04D6" unicode="&#x4d6;" horiz-adv-x="607"
d="M77 0v698h475v-135h-323v-143h277v-134h-277v-151h323v-135h-475zM315 740q-66 0 -107 29t-64 83l-21 51l115 43l32 -101q6 -3 19 -5t26 -2t26 2t19 5l32 101l115 -43l-21 -51q-23 -54 -64 -83t-107 -29z" />
    <glyph glyph-name="uni04D7" unicode="&#x4d7;" horiz-adv-x="562"
d="M288 -12q-60 0 -107 19.5t-79.5 55t-49 86.5t-16.5 114q0 62 16 112.5t47.5 86.5t77.5 55.5t105 19.5q65 0 111.5 -22t76 -59t43 -85.5t13.5 -101.5v-44h-337v-8q0 -52 28 -82.5t88 -30.5q46 0 75 18.5t54 44.5l74 -92q-35 -41 -91.5 -64t-128.5 -23zM285 428
q-45 0 -70.5 -29.5t-25.5 -78.5v-8h184v9q0 48 -21.5 77.5t-66.5 29.5zM288 579q-66 0 -107 29t-64 83l-21 51l115 43l32 -101q6 -3 19 -5t26 -2t26 2t19 5l32 101l115 -43l-21 -51q-23 -54 -64 -83t-107 -29z" />
    <glyph glyph-name="uni04D8" unicode="&#x4d8;" horiz-adv-x="714"
d="M50 399h453v3q0 83 -39 128t-107 45q-34 0 -58 -7.5t-41.5 -22t-28.5 -35t-18 -46.5l-137 49q13 41 37 77t59 62.5t81.5 42t105.5 15.5q70 0 126.5 -23t96.5 -69t62 -113.5t22 -155.5q0 -89 -22 -156t-62 -113t-96.5 -69t-126.5 -23t-126.5 23t-96.5 69t-62 113t-22 156
v50zM357 123q63 0 101.5 39t43.5 112h-290q5 -73 43.5 -112t101.5 -39z" />
    <glyph glyph-name="uni04D9" unicode="&#x4d9;" horiz-adv-x="562"
d="M373 300v8q0 52 -27 82.5t-84 30.5q-25 0 -44 -6t-34 -15t-26.5 -20.5l-21.5 -21.5l-74 92q35 41 90 64t127 23q59 0 105 -19.5t77.5 -55t48 -86.5t16.5 -114q0 -62 -16 -112.5t-47.5 -86.5t-77.5 -55.5t-105 -19.5q-65 0 -111.5 22t-76 59t-43 85.5t-13.5 101.5v44h337z
M189 204q0 -48 21.5 -77.5t66.5 -29.5t70.5 29.5t25.5 78.5v8h-184v-9z" />
    <glyph glyph-name="uni04DC" unicode="&#x4dc;" horiz-adv-x="1006"
d="M40 135h62l77 163q24 52 75 59v6q-24 7 -41 21.5t-32 44.5l-65 134h-62v135h63q45 0 74.5 -20t50.5 -64l94 -194h91v278h152v-278h91l94 194q21 44 50.5 64t74.5 20h62v-135h-62l-64 -134q-15 -30 -32 -44.5t-41 -21.5v-6q51 -7 75 -59l77 -163h62v-135h-80
q-42 0 -70.5 18.5t-51.5 68.5l-94 199h-91v-286h-152v286h-91l-94 -199q-23 -50 -51.5 -68.5t-70.5 -18.5h-80v135zM393 761q-45 0 -62.5 18.5t-17.5 44.5v25q0 26 17.5 44.5t62.5 18.5t62.5 -18.5t17.5 -44.5v-25q0 -26 -17.5 -44.5t-62.5 -18.5zM613 761q-45 0 -62.5 18.5
t-17.5 44.5v25q0 26 17.5 44.5t62.5 18.5t62.5 -18.5t17.5 -44.5v-25q0 -26 -17.5 -44.5t-62.5 -18.5z" />
    <glyph glyph-name="uni04DD" unicode="&#x4dd;" horiz-adv-x="866"
d="M40 115h54l55 108q20 37 58 45v5q-37 9 -56 47l-45 90h-54v115h61q42 0 69 -17t47 -57l64 -127h66v201h148v-201h66l64 127q20 40 47 57t69 17h61v-115h-54l-45 -90q-19 -38 -56 -47v-5q38 -8 58 -45l55 -108h54v-115h-67q-42 0 -69 16.5t-48 58.5l-69 134h-66v-209h-148
v209h-66l-69 -134q-21 -42 -48 -58.5t-69 -16.5h-67v115zM323 600q-45 0 -62.5 18.5t-17.5 44.5v25q0 26 17.5 44.5t62.5 18.5t62.5 -18.5t17.5 -44.5v-25q0 -26 -17.5 -44.5t-62.5 -18.5zM543 600q-45 0 -62.5 18.5t-17.5 44.5v25q0 26 17.5 44.5t62.5 18.5t62.5 -18.5
t17.5 -44.5v-25q0 -26 -17.5 -44.5t-62.5 -18.5z" />
    <glyph glyph-name="uni04DE" unicode="&#x4de;" horiz-adv-x="608"
d="M285 -12q-77 0 -141 25t-115 78l100 101q32 -33 70.5 -51t85.5 -18q60 0 91 21t31 59v8q0 40 -24 57.5t-75 17.5h-121v134h115q93 0 93 77v5q0 73 -105 73q-42 0 -82 -16.5t-67 -46.5l-92 96q44 48 106.5 75t134.5 27q62 0 111 -13.5t83.5 -39t53 -61.5t18.5 -81
q0 -36 -11.5 -62.5t-31 -44.5t-46 -28t-56.5 -13v-6q30 -2 58.5 -12t50 -29t35 -47t13.5 -66q0 -49 -20 -89t-56.5 -69t-89 -45t-117.5 -16zM181 761q-45 0 -62.5 18.5t-17.5 44.5v25q0 26 17.5 44.5t62.5 18.5t62.5 -18.5t17.5 -44.5v-25q0 -26 -17.5 -44.5t-62.5 -18.5z
M401 761q-45 0 -62.5 18.5t-17.5 44.5v25q0 26 17.5 44.5t62.5 18.5t62.5 -18.5t17.5 -44.5v-25q0 -26 -17.5 -44.5t-62.5 -18.5z" />
    <glyph glyph-name="uni04DF" unicode="&#x4df;" horiz-adv-x="531"
d="M252 -12q-78 0 -131.5 24.5t-97.5 69.5l87 88q58 -66 143 -66q45 0 67 15.5t22 42.5v11q0 45 -59 45h-116v98h103q59 0 59 45v10q0 23 -20 36.5t-60 13.5q-41 0 -74 -16.5t-53 -45.5l-88 78q39 48 95 74t131 26q109 0 163.5 -40.5t54.5 -103.5q0 -51 -27 -79t-84 -36v-5
q57 -6 90.5 -36.5t33.5 -80.5q0 -79 -63 -123.5t-176 -44.5zM151 600q-45 0 -62.5 18.5t-17.5 44.5v25q0 26 17.5 44.5t62.5 18.5t62.5 -18.5t17.5 -44.5v-25q0 -26 -17.5 -44.5t-62.5 -18.5zM371 600q-45 0 -62.5 18.5t-17.5 44.5v25q0 26 17.5 44.5t62.5 18.5t62.5 -18.5
t17.5 -44.5v-25q0 -26 -17.5 -44.5t-62.5 -18.5z" />
    <glyph glyph-name="uni04E2" unicode="&#x4e2;" horiz-adv-x="724"
d="M77 698h148v-341l-16 -147h3l69 133l230 355h136v-698h-148v341l16 147h-3l-69 -133l-230 -355h-136v698zM211 888h306v-103h-306v103z" />
    <glyph glyph-name="uni04E3" unicode="&#x4e3;" horiz-adv-x="612"
d="M69 525h145v-211l-13 -122h3l61 112l146 221h132v-525h-145v211l13 122h-3l-61 -112l-146 -221h-132v525zM154 727h306v-103h-306v103z" />
    <glyph glyph-name="uni04E4" unicode="&#x4e4;" horiz-adv-x="724"
d="M77 698h148v-341l-16 -147h3l69 133l230 355h136v-698h-148v341l16 147h-3l-69 -133l-230 -355h-136v698zM254 761q-45 0 -62.5 18.5t-17.5 44.5v25q0 26 17.5 44.5t62.5 18.5t62.5 -18.5t17.5 -44.5v-25q0 -26 -17.5 -44.5t-62.5 -18.5zM474 761q-45 0 -62.5 18.5
t-17.5 44.5v25q0 26 17.5 44.5t62.5 18.5t62.5 -18.5t17.5 -44.5v-25q0 -26 -17.5 -44.5t-62.5 -18.5z" />
    <glyph glyph-name="uni04E5" unicode="&#x4e5;" horiz-adv-x="612"
d="M69 525h145v-211l-13 -122h3l61 112l146 221h132v-525h-145v211l13 122h-3l-61 -112l-146 -221h-132v525zM197 600q-45 0 -62.5 18.5t-17.5 44.5v25q0 26 17.5 44.5t62.5 18.5t62.5 -18.5t17.5 -44.5v-25q0 -26 -17.5 -44.5t-62.5 -18.5zM417 600q-45 0 -62.5 18.5
t-17.5 44.5v25q0 26 17.5 44.5t62.5 18.5t62.5 -18.5t17.5 -44.5v-25q0 -26 -17.5 -44.5t-62.5 -18.5z" />
    <glyph glyph-name="uni04E6" unicode="&#x4e6;" horiz-adv-x="714"
d="M357 -12q-69 0 -126 23t-97 68.5t-62 113t-22 156.5t22 156.5t62 113t97 68.5t126 23t126 -23t97 -68.5t62 -113t22 -156.5t-22 -156.5t-62 -113t-97 -68.5t-126 -23zM357 123q69 0 107.5 45t38.5 129v104q0 84 -38.5 129t-107.5 45t-107.5 -45t-38.5 -129v-104
q0 -84 38.5 -129t107.5 -45zM247 761q-45 0 -62.5 18.5t-17.5 44.5v25q0 26 17.5 44.5t62.5 18.5t62.5 -18.5t17.5 -44.5v-25q0 -26 -17.5 -44.5t-62.5 -18.5zM467 761q-45 0 -62.5 18.5t-17.5 44.5v25q0 26 17.5 44.5t62.5 18.5t62.5 -18.5t17.5 -44.5v-25
q0 -26 -17.5 -44.5t-62.5 -18.5z" />
    <glyph glyph-name="uni04E7" unicode="&#x4e7;" horiz-adv-x="564"
d="M282 -12q-58 0 -103.5 19t-77 55t-48.5 87t-17 114t17 114t48.5 86.5t77 54.5t103.5 19t103.5 -19t77 -54.5t48.5 -86.5t17 -114t-17 -114t-48.5 -87t-77 -55t-103.5 -19zM282 105q44 0 68 27t24 77v107q0 50 -24 77t-68 27t-68 -27t-24 -77v-107q0 -50 24 -77t68 -27z
M172 600q-45 0 -62.5 18.5t-17.5 44.5v25q0 26 17.5 44.5t62.5 18.5t62.5 -18.5t17.5 -44.5v-25q0 -26 -17.5 -44.5t-62.5 -18.5zM392 600q-45 0 -62.5 18.5t-17.5 44.5v25q0 26 17.5 44.5t62.5 18.5t62.5 -18.5t17.5 -44.5v-25q0 -26 -17.5 -44.5t-62.5 -18.5z" />
    <glyph glyph-name="uni04E8" unicode="&#x4e8;" horiz-adv-x="714"
d="M357 -12q-69 0 -126 23t-97 68.5t-62 113t-22 156.5t22 156.5t62 113t97 68.5t126 23t126 -23t97 -68.5t62 -113t22 -156.5t-22 -156.5t-62 -113t-97 -68.5t-126 -23zM357 113q70 0 111.5 43.5t44.5 128.5h-312q2 -85 44 -128.5t112 -43.5zM357 585q-69 0 -110.5 -42.5
t-45.5 -123.5h312q-4 81 -45.5 123.5t-110.5 42.5z" />
    <glyph glyph-name="uni04E9" unicode="&#x4e9;" horiz-adv-x="564"
d="M282 -12q-58 0 -103.5 19t-77 55t-48.5 87t-17 114t17 114t48.5 86.5t77 54.5t103.5 19t103.5 -19t77 -54.5t48.5 -86.5t17 -114t-17 -114t-48.5 -87t-77 -55t-103.5 -19zM282 95q48 0 75 28t27 82v10h-204v-10q0 -54 27 -82t75 -28zM180 313h204v7q0 54 -27 82t-75 28
t-75 -28t-27 -82v-7z" />
    <glyph glyph-name="uni04EE" unicode="&#x4ee;" horiz-adv-x="631"
d="M119 135h122l15 38l-244 525h160l98 -217l58 -139h3l51 140l86 216h149l-246 -600q-11 -27 -24.5 -45.5t-31.5 -30.5t-41.5 -17t-54.5 -5h-100v135zM165 888h306v-103h-306v103z" />
    <glyph glyph-name="uni04EF" unicode="&#x4ef;" horiz-adv-x="534"
d="M390 525h138l-202 -606q-20 -61 -56.5 -90t-104.5 -29h-92v115h99l18 58l-184 552h147l77 -245l38 -152h6l39 152zM119 727h306v-103h-306v103z" />
    <glyph glyph-name="uni04F0" unicode="&#x4f0;" horiz-adv-x="631"
d="M119 135h122l15 38l-244 525h160l98 -217l58 -139h3l51 140l86 216h149l-246 -600q-11 -27 -24.5 -45.5t-31.5 -30.5t-41.5 -17t-54.5 -5h-100v135zM208 761q-45 0 -62.5 18.5t-17.5 44.5v25q0 26 17.5 44.5t62.5 18.5t62.5 -18.5t17.5 -44.5v-25q0 -26 -17.5 -44.5
t-62.5 -18.5zM428 761q-45 0 -62.5 18.5t-17.5 44.5v25q0 26 17.5 44.5t62.5 18.5t62.5 -18.5t17.5 -44.5v-25q0 -26 -17.5 -44.5t-62.5 -18.5z" />
    <glyph glyph-name="uni04F1" unicode="&#x4f1;" horiz-adv-x="534"
d="M390 525h138l-202 -606q-20 -61 -56.5 -90t-104.5 -29h-92v115h99l18 58l-184 552h147l77 -245l38 -152h6l39 152zM162 600q-45 0 -62.5 18.5t-17.5 44.5v25q0 26 17.5 44.5t62.5 18.5t62.5 -18.5t17.5 -44.5v-25q0 -26 -17.5 -44.5t-62.5 -18.5zM382 600
q-45 0 -62.5 18.5t-17.5 44.5v25q0 26 17.5 44.5t62.5 18.5t62.5 -18.5t17.5 -44.5v-25q0 -26 -17.5 -44.5t-62.5 -18.5z" />
    <glyph glyph-name="uni04F2" unicode="&#x4f2;" horiz-adv-x="631"
d="M119 135h122l15 38l-244 525h160l98 -217l58 -139h3l51 140l86 216h149l-246 -600q-11 -27 -24.5 -45.5t-31.5 -30.5t-41.5 -17t-54.5 -5h-100v135zM228 740l-81 39l99 194l116 -57zM433 740l-81 39l99 194l116 -57z" />
    <glyph glyph-name="uni04F3" unicode="&#x4f3;" horiz-adv-x="534"
d="M390 525h138l-202 -606q-20 -61 -56.5 -90t-104.5 -29h-92v115h99l18 58l-184 552h147l77 -245l38 -152h6l39 152zM182 579l-81 39l99 194l116 -57zM387 579l-81 39l99 194l116 -57z" />
    <glyph glyph-name="uni04F4" unicode="&#x4f4;" horiz-adv-x="678"
d="M449 247h-5q-24 -11 -56 -17t-77 -6q-257 0 -257 257v217h152v-223q0 -119 119 -119q44 0 73 4.5t51 13.5v324h152v-698h-152v247zM217 761q-45 0 -62.5 18.5t-17.5 44.5v25q0 26 17.5 44.5t62.5 18.5t62.5 -18.5t17.5 -44.5v-25q0 -26 -17.5 -44.5t-62.5 -18.5zM437 761
q-45 0 -62.5 18.5t-17.5 44.5v25q0 26 17.5 44.5t62.5 18.5t62.5 -18.5t17.5 -44.5v-25q0 -26 -17.5 -44.5t-62.5 -18.5z" />
    <glyph glyph-name="uni04F5" unicode="&#x4f5;" horiz-adv-x="578"
d="M361 223h-5q-18 -32 -51.5 -50.5t-84.5 -18.5q-89 0 -129.5 46t-40.5 141v184h148v-177q0 -39 18.5 -56.5t60.5 -17.5t63 15t21 38v198h148v-525h-148v223zM171 600q-45 0 -62.5 18.5t-17.5 44.5v25q0 26 17.5 44.5t62.5 18.5t62.5 -18.5t17.5 -44.5v-25
q0 -26 -17.5 -44.5t-62.5 -18.5zM391 600q-45 0 -62.5 18.5t-17.5 44.5v25q0 26 17.5 44.5t62.5 18.5t62.5 -18.5t17.5 -44.5v-25q0 -26 -17.5 -44.5t-62.5 -18.5z" />
    <glyph glyph-name="uni04F8" unicode="&#x4f8;" horiz-adv-x="933"
d="M77 698h152v-252h178q49 0 88 -16.5t66.5 -45.5t42.5 -70.5t15 -90.5q0 -50 -15 -91t-42.5 -70t-66.5 -45.5t-88 -16.5h-330v698zM389 132q34 0 53.5 17.5t19.5 51.5v44q0 34 -19.5 51.5t-53.5 17.5h-160v-182h160zM704 698h152v-698h-152v698zM357 761q-45 0 -62.5 18.5
t-17.5 44.5v25q0 26 17.5 44.5t62.5 18.5t62.5 -18.5t17.5 -44.5v-25q0 -26 -17.5 -44.5t-62.5 -18.5zM577 761q-45 0 -62.5 18.5t-17.5 44.5v25q0 26 17.5 44.5t62.5 18.5t62.5 -18.5t17.5 -44.5v-25q0 -26 -17.5 -44.5t-62.5 -18.5z" />
    <glyph glyph-name="uni04F9" unicode="&#x4f9;" horiz-adv-x="809"
d="M69 525h148v-156h127q38 0 71 -12t57.5 -35.5t38.5 -57.5t14 -79t-14 -79.5t-38.5 -58t-57.5 -35.5t-71 -12h-275v525zM312 105q29 0 46.5 15.5t17.5 44.5v39q0 29 -17.5 44.5t-46.5 15.5h-95v-159h95zM592 525h148v-525h-148v525zM294 600q-45 0 -62.5 18.5t-17.5 44.5
v25q0 26 17.5 44.5t62.5 18.5t62.5 -18.5t17.5 -44.5v-25q0 -26 -17.5 -44.5t-62.5 -18.5zM514 600q-45 0 -62.5 18.5t-17.5 44.5v25q0 26 17.5 44.5t62.5 18.5t62.5 -18.5t17.5 -44.5v-25q0 -26 -17.5 -44.5t-62.5 -18.5z" />
    <glyph glyph-name="uni0E3F" unicode="&#xe3f;" horiz-adv-x="665"
d="M390 -90h-114v110h-199v658h199v102h114v-102h37q81 0 127 -46t46 -123q0 -69 -31 -101t-97 -40v-6q32 -2 60 -11.5t48.5 -28t32.5 -46.5t12 -68q0 -39 -13 -73.5t-35.5 -60t-54 -40t-67.5 -14.5h-65v-110zM286 408v149h-66v-149h66zM381 408h10q29 0 45 15t16 44v31
q0 29 -16 44t-45 15h-10v-149zM286 141v151h-66v-151h66zM381 141h34q29 0 45.5 15.5t16.5 44.5v31q0 29 -16.5 44.5t-45.5 15.5h-34v-151z" />
    <glyph glyph-name="Wgrave" unicode="&#x1e80;" horiz-adv-x="973"
d="M187 0l-158 698h150l66 -335l37 -194h3l44 194l77 335h166l78 -335l43 -194h3l37 194l67 335h144l-162 -698h-173l-88 378l-34 153h-3l-35 -153l-88 -378h-174zM337 916l123 61l99 -194l-88 -43z" />
    <glyph glyph-name="wgrave" unicode="&#x1e81;" horiz-adv-x="841"
d="M19 525h143l51 -212l36 -160h4l42 160l60 212h135l61 -212l43 -160h4l36 160l51 212h137l-145 -525h-155l-64 222l-37 136h-3l-36 -136l-64 -222h-152zM271 755l123 61l99 -194l-88 -43z" />
    <glyph glyph-name="Wacute" unicode="&#x1e82;" horiz-adv-x="973"
d="M187 0l-158 698h150l66 -335l37 -194h3l44 194l77 335h166l78 -335l43 -194h3l37 194l67 335h144l-162 -698h-173l-88 378l-34 153h-3l-35 -153l-88 -378h-174zM503 740l-88 43l99 194l123 -61z" />
    <glyph glyph-name="wacute" unicode="&#x1e83;" horiz-adv-x="841"
d="M19 525h143l51 -212l36 -160h4l42 160l60 212h135l61 -212l43 -160h4l36 160l51 212h137l-145 -525h-155l-64 222l-37 136h-3l-36 -136l-64 -222h-152zM437 579l-88 43l99 194l123 -61z" />
    <glyph glyph-name="Wdieresis" unicode="&#x1e84;" horiz-adv-x="973"
d="M187 0l-158 698h150l66 -335l37 -194h3l44 194l77 335h166l78 -335l43 -194h3l37 194l67 335h144l-162 -698h-173l-88 378l-34 153h-3l-35 -153l-88 -378h-174zM377 761q-45 0 -62.5 18.5t-17.5 44.5v25q0 26 17.5 44.5t62.5 18.5t62.5 -18.5t17.5 -44.5v-25
q0 -26 -17.5 -44.5t-62.5 -18.5zM597 761q-45 0 -62.5 18.5t-17.5 44.5v25q0 26 17.5 44.5t62.5 18.5t62.5 -18.5t17.5 -44.5v-25q0 -26 -17.5 -44.5t-62.5 -18.5z" />
    <glyph glyph-name="wdieresis" unicode="&#x1e85;" horiz-adv-x="841"
d="M19 525h143l51 -212l36 -160h4l42 160l60 212h135l61 -212l43 -160h4l36 160l51 212h137l-145 -525h-155l-64 222l-37 136h-3l-36 -136l-64 -222h-152zM311 600q-45 0 -62.5 18.5t-17.5 44.5v25q0 26 17.5 44.5t62.5 18.5t62.5 -18.5t17.5 -44.5v-25q0 -26 -17.5 -44.5
t-62.5 -18.5zM531 600q-45 0 -62.5 18.5t-17.5 44.5v25q0 26 17.5 44.5t62.5 18.5t62.5 -18.5t17.5 -44.5v-25q0 -26 -17.5 -44.5t-62.5 -18.5z" />
    <glyph glyph-name="uni1E9E" unicode="&#x1e9e;" horiz-adv-x="731"
d="M701 216q0 -49 -16 -90.5t-45.5 -72t-72 -48t-95.5 -17.5q-66 0 -115.5 21t-82.5 58l95 97q21 -23 44.5 -36.5t58.5 -13.5t55.5 23t20.5 55v36q0 32 -22 53t-74 21h-96v117l130 151h-257v-570h-152v698h560v-139l-124 -144v-4q31 -2 64 -14t60.5 -35.5t45.5 -59.5t18 -86
z" />
    <glyph glyph-name="uni1EA0" unicode="&#x1ea0;" horiz-adv-x="685"
d="M507 0l-50 166h-233l-50 -166h-154l230 698h188l227 -698h-158zM342 560h-5l-77 -265h160zM339 -204q-45 0 -63 18.5t-18 44.5v26q0 26 18 44.5t63 18.5t63 -18.5t18 -44.5v-26q0 -26 -18 -44.5t-63 -18.5z" />
    <glyph glyph-name="uni1EA1" unicode="&#x1ea1;" horiz-adv-x="569"
d="M457 0q-40 0 -66.5 25t-33.5 67h-6q-12 -51 -53 -77.5t-101 -26.5q-79 0 -121 42t-42 111q0 83 60.5 123.5t164.5 40.5h83v33q0 38 -20 60.5t-67 22.5q-44 0 -70 -19t-43 -43l-88 78q32 47 80.5 73.5t131.5 26.5q112 0 168 -49t56 -143v-230h49v-115h-82zM252 91
q37 0 63.5 16t26.5 52v62h-72q-87 0 -87 -59v-15q0 -29 18 -42.5t51 -13.5zM269 -204q-45 0 -63 18.5t-18 44.5v26q0 26 18 44.5t63 18.5t63 -18.5t18 -44.5v-26q0 -26 -18 -44.5t-63 -18.5z" />
    <glyph glyph-name="uni1EA2" unicode="&#x1ea2;" horiz-adv-x="685"
d="M507 0l-50 166h-233l-50 -166h-154l230 698h188l227 -698h-158zM342 560h-5l-77 -265h160zM219 963h143q28 0 47 -6t30 -16t16 -23t5 -28q0 -29 -16 -62.5t-41 -63.5l-28 -34l-75 35l41 92h-122v106z" />
    <glyph glyph-name="uni1EA3" unicode="&#x1ea3;" horiz-adv-x="569"
d="M457 0q-40 0 -66.5 25t-33.5 67h-6q-12 -51 -53 -77.5t-101 -26.5q-79 0 -121 42t-42 111q0 83 60.5 123.5t164.5 40.5h83v33q0 38 -20 60.5t-67 22.5q-44 0 -70 -19t-43 -43l-88 78q32 47 80.5 73.5t131.5 26.5q112 0 168 -49t56 -143v-230h49v-115h-82zM252 91
q37 0 63.5 16t26.5 52v62h-72q-87 0 -87 -59v-15q0 -29 18 -42.5t51 -13.5zM148 802h143q28 0 47 -6t30 -16t16 -23t5 -28q0 -29 -16 -62.5t-41 -63.5l-28 -34l-75 35l41 92h-122v106z" />
    <glyph glyph-name="uni1EA4" unicode="&#x1ea4;" horiz-adv-x="685"
d="M507 0l-50 166h-233l-50 -166h-154l230 698h188l227 -698h-158zM342 560h-5l-77 -265h160zM512 894l-79 39l99 194l114 -57zM386 942l145 -147l-68 -64l-124 104l-124 -104l-68 64l145 147h94z" />
    <glyph glyph-name="uni1EA5" unicode="&#x1ea5;" horiz-adv-x="569"
d="M457 0q-40 0 -66.5 25t-33.5 67h-6q-12 -51 -53 -77.5t-101 -26.5q-79 0 -121 42t-42 111q0 83 60.5 123.5t164.5 40.5h83v33q0 38 -20 60.5t-67 22.5q-44 0 -70 -19t-43 -43l-88 78q32 47 80.5 73.5t131.5 26.5q112 0 168 -49t56 -143v-230h49v-115h-82zM252 91
q37 0 63.5 16t26.5 52v62h-72q-87 0 -87 -59v-15q0 -29 18 -42.5t51 -13.5zM441 733l-79 39l99 194l114 -57zM315 781l145 -147l-68 -64l-124 104l-124 -104l-68 64l145 147h94z" />
    <glyph glyph-name="uni1EA6" unicode="&#x1ea6;" horiz-adv-x="685"
d="M507 0l-50 166h-233l-50 -166h-154l230 698h188l227 -698h-158zM342 560h-5l-77 -265h160zM32 1070l114 57l99 -194l-79 -39zM386 942l145 -147l-68 -64l-124 104l-124 -104l-68 64l145 147h94z" />
    <glyph glyph-name="uni1EA7" unicode="&#x1ea7;" horiz-adv-x="569"
d="M457 0q-40 0 -66.5 25t-33.5 67h-6q-12 -51 -53 -77.5t-101 -26.5q-79 0 -121 42t-42 111q0 83 60.5 123.5t164.5 40.5h83v33q0 38 -20 60.5t-67 22.5q-44 0 -70 -19t-43 -43l-88 78q32 47 80.5 73.5t131.5 26.5q112 0 168 -49t56 -143v-230h49v-115h-82zM252 91
q37 0 63.5 16t26.5 52v62h-72q-87 0 -87 -59v-15q0 -29 18 -42.5t51 -13.5zM-39 909l114 57l99 -194l-79 -39zM315 781l145 -147l-68 -64l-124 104l-124 -104l-68 64l145 147h94z" />
    <glyph glyph-name="uni1EA8" unicode="&#x1ea8;" horiz-adv-x="685"
d="M507 0l-50 166h-233l-50 -166h-154l230 698h188l227 -698h-158zM342 560h-5l-77 -265h160zM377 1113h134q28 0 46.5 -6t30 -16t16.5 -23t5 -27q0 -30 -19 -63.5t-44 -63.5l-27 -33l-66 34l43 97h-119v101zM386 942l145 -147l-68 -64l-124 104l-124 -104l-68 64l145 147
h94z" />
    <glyph glyph-name="uni1EA9" unicode="&#x1ea9;" horiz-adv-x="569"
d="M457 0q-40 0 -66.5 25t-33.5 67h-6q-12 -51 -53 -77.5t-101 -26.5q-79 0 -121 42t-42 111q0 83 60.5 123.5t164.5 40.5h83v33q0 38 -20 60.5t-67 22.5q-44 0 -70 -19t-43 -43l-88 78q32 47 80.5 73.5t131.5 26.5q112 0 168 -49t56 -143v-230h49v-115h-82zM252 91
q37 0 63.5 16t26.5 52v62h-72q-87 0 -87 -59v-15q0 -29 18 -42.5t51 -13.5zM306 952h134q28 0 46.5 -6t30 -16t16.5 -23t5 -27q0 -30 -19 -63.5t-44 -63.5l-27 -33l-66 34l43 97h-119v101zM315 781l145 -147l-68 -64l-124 104l-124 -104l-68 64l145 147h94z" />
    <glyph glyph-name="uni1EAA" unicode="&#x1eaa;" horiz-adv-x="685"
d="M507 0l-50 166h-233l-50 -166h-154l230 698h188l227 -698h-158zM342 560h-5l-77 -265h160zM264 1103q23 0 40.5 -6t36.5 -14q22 -9 40 -15.5t38 -6.5q17 0 30 6t29 19l50 -64q-18 -27 -46 -45.5t-68 -18.5q-23 0 -40.5 6t-36.5 14q-22 9 -40 15.5t-38 6.5q-17 0 -30 -6
t-29 -19l-50 64q18 27 46 45.5t68 18.5zM387 929l142 -134l-66 -64l-124 95l-124 -95l-66 64l142 134h96z" />
    <glyph glyph-name="uni1EAB" unicode="&#x1eab;" horiz-adv-x="569"
d="M457 0q-40 0 -66.5 25t-33.5 67h-6q-12 -51 -53 -77.5t-101 -26.5q-79 0 -121 42t-42 111q0 83 60.5 123.5t164.5 40.5h83v33q0 38 -20 60.5t-67 22.5q-44 0 -70 -19t-43 -43l-88 78q32 47 80.5 73.5t131.5 26.5q112 0 168 -49t56 -143v-230h49v-115h-82zM252 91
q37 0 63.5 16t26.5 52v62h-72q-87 0 -87 -59v-15q0 -29 18 -42.5t51 -13.5zM193 942q23 0 40.5 -6t36.5 -14q22 -9 40 -15.5t38 -6.5q17 0 30 6t29 19l50 -64q-18 -27 -46 -45.5t-68 -18.5q-23 0 -40.5 6t-36.5 14q-22 9 -40 15.5t-38 6.5q-17 0 -30 -6t-29 -19l-50 64
q18 27 46 45.5t68 18.5zM316 768l142 -134l-66 -64l-124 95l-124 -95l-66 64l142 134h96z" />
    <glyph glyph-name="uni1EAC" unicode="&#x1eac;" horiz-adv-x="685"
d="M507 0l-50 166h-233l-50 -166h-154l230 698h188l227 -698h-158zM342 560h-5l-77 -265h160zM401 956l132 -159l-73 -58l-121 115l-121 -115l-73 58l132 159h124zM339 -204q-45 0 -63 18.5t-18 44.5v26q0 26 18 44.5t63 18.5t63 -18.5t18 -44.5v-26q0 -26 -18 -44.5
t-63 -18.5z" />
    <glyph glyph-name="uni1EAD" unicode="&#x1ead;" horiz-adv-x="569"
d="M457 0q-40 0 -66.5 25t-33.5 67h-6q-12 -51 -53 -77.5t-101 -26.5q-79 0 -121 42t-42 111q0 83 60.5 123.5t164.5 40.5h83v33q0 38 -20 60.5t-67 22.5q-44 0 -70 -19t-43 -43l-88 78q32 47 80.5 73.5t131.5 26.5q112 0 168 -49t56 -143v-230h49v-115h-82zM252 91
q37 0 63.5 16t26.5 52v62h-72q-87 0 -87 -59v-15q0 -29 18 -42.5t51 -13.5zM331 795l132 -159l-73 -58l-121 115l-121 -115l-73 58l132 159h124zM269 -204q-45 0 -63 18.5t-18 44.5v26q0 26 18 44.5t63 18.5t63 -18.5t18 -44.5v-26q0 -26 -18 -44.5t-63 -18.5z" />
    <glyph glyph-name="uni1EAE" unicode="&#x1eae;" horiz-adv-x="685"
d="M507 0l-50 166h-233l-50 -166h-154l230 698h188l227 -698h-158zM342 560h-5l-77 -265h160zM339 733q-42 0 -74.5 13.5t-56.5 35.5t-40.5 48t-26.5 52l75 47l20 -30q26 -39 53 -52t50 -13q26 0 51.5 13.5t51.5 51.5l20 30l75 -47q-10 -26 -26.5 -52t-40.5 -48t-56.5 -35.5
t-74.5 -13.5zM359 894l-79 39l96 194l113 -57z" />
    </font>
</defs>
</svg>
