<?xml version="1.0" standalone="no"?>
<!DOCTYPE svg PUBLIC "-//W3C//DTD SVG 1.1//EN" "http://www.w3.org/Graphics/SVG/1.1/DTD/svg11.dtd" >
<svg xmlns="http://www.w3.org/2000/svg" xmlns:xlink="http://www.w3.org/1999/xlink" version="1.1">
<metadata>
Created by FontForge 20170731 at Fri Mar 11 00:47:17 2022
 By Aleksey,,,
Copyright 2018 IBM Corp. All rights reserved.
</metadata>
<defs>
<font id="IBMPlexSansBold" horiz-adv-x="1228" >
  <font-face
    font-family="IBM Plex Sans_RV"
    font-weight="700"
    font-stretch="normal"
    units-per-em="2048"
    panose-1="2 11 8 3 5 2 3 0 2 3"
    ascent="1597"
    descent="-451"
    x-height="1075"
    cap-height="1430"
    bbox="-629 -563 3047 2355"
    underline-thickness="102"
    underline-position="-358"
    unicode-range="U+000D-FB02"
  />
<missing-glyph horiz-adv-x="966"
d="M901 0h-835v1597h835v-1597zM270 205h426v1188h-426v-1188z" />
    <glyph glyph-name="fi" unicode="fi" horiz-adv-x="1325"
d="M195 0v840h-152v235h152v127q0 155 81.5 234.5t239.5 79.5h197v-236h-215v-205h686v-1075h-303v840h-383v-840h-303zM1032 1190q-89 0 -132.5 40t-43.5 109v45q0 69 43.5 109.5t132.5 40.5t132.5 -40.5t43.5 -109.5v-45q0 -69 -43.5 -109t-132.5 -40z" />
    <glyph glyph-name=".notdef" horiz-adv-x="966"
d="M901 0h-835v1597h835v-1597zM270 205h426v1188h-426v-1188z" />
    <glyph glyph-name=".null" horiz-adv-x="0"
 />
    <glyph glyph-name=".null" horiz-adv-x="0"
 />
    <glyph glyph-name="uni000D" unicode="&#xd;" horiz-adv-x="483"
 />
    <glyph glyph-name="space" unicode=" " horiz-adv-x="483"
 />
    <glyph glyph-name="exclam" unicode="!" horiz-adv-x="655"
d="M395 451h-129l-96 581v398h319v-398zM328 -25q-93 0 -138 42.5t-45 113.5v49q0 71 45 113.5t138 42.5t137.5 -42.5t44.5 -113.5v-49q0 -71 -44.5 -113.5t-137.5 -42.5z" />
    <glyph glyph-name="quotedbl" unicode="&#x22;" horiz-adv-x="1009"
d="M410 848h-271v668h271v-668zM600 848v668h270v-668h-270z" />
    <glyph glyph-name="numbersign" unicode="#" horiz-adv-x="1294"
d="M688 0l62 354h-328l-62 -354h-192l61 354h-206v185h239l60 352h-207v184h239l62 355h190l-61 -355h327l62 355h192l-61 -355h207v-184h-240l-59 -352h207v-185h-240l-61 -354h-191zM453 539h327l62 352h-328z" />
    <glyph glyph-name="dollar" unicode="$" horiz-adv-x="1230"
d="M745 -168h-233v188q-272 24 -446 216l184 167q127 -131 289 -153v368q-226 46 -329.5 145t-103.5 253q0 163 105 264.5t301 124.5v192h233v-192q238 -26 375 -184l-186 -168q-82 92 -213 123v-340q219 -50 321.5 -143t102.5 -249q0 -158 -101.5 -269.5t-298.5 -145.5
v-197zM389 1024q0 -58 34.5 -90.5t115.5 -56.5v303q-150 -33 -150 -156zM862 422q0 114 -141 156v-324q141 40 141 168z" />
    <glyph glyph-name="percent" unicode="%" horiz-adv-x="1994"
d="M637 0h-270l991 1430h270zM471 643q-181 0 -275 103t-94 303t94 302.5t275 102.5t275 -102.5t94 -302.5t-94 -303t-275 -103zM471 819q55 0 81 42.5t26 133.5v107q0 91 -26 133.5t-81 42.5q-54 0 -80 -42t-26 -134v-107q0 -92 26 -134t80 -42zM1524 -25q-181 0 -275 103
t-94 303t94 302.5t275 102.5t274.5 -102.5t93.5 -302.5t-93.5 -303t-274.5 -103zM1524 152q54 0 80 42t26 134v106q0 92 -26 134t-80 42q-55 0 -81 -42.5t-26 -133.5v-106q0 -91 26 -133.5t81 -42.5z" />
    <glyph glyph-name="ampersand" unicode="&#x26;" horiz-adv-x="1476"
d="M1104 0l-107 117q-79 -65 -176 -103.5t-233 -38.5q-226 0 -356 111t-130 289q0 58 14.5 108.5t38.5 88.5t63 75.5t77.5 64.5t93.5 60q-160 172 -160 340q0 144 116 243t312 99q179 0 295.5 -88t116.5 -240q0 -65 -21.5 -121.5t-63.5 -103.5t-88.5 -83t-111.5 -75
l222 -239q49 123 59 284h342v-251h-129q-36 -137 -92 -228l284 -309h-366zM649 1223q-57 0 -94 -31.5t-37 -85.5v-8q0 -39 24 -76.5t93 -116.5q75 45 110 89.5t35 103.5v8q0 54 -37 85.5t-94 31.5zM633 227q122 0 207 58l-301 325q-68 -41 -97.5 -83.5t-29.5 -98.5v-20
q0 -81 57 -131t164 -50z" />
    <glyph glyph-name="quotesingle" unicode="'" horiz-adv-x="548"
d="M410 848h-271v668h271v-668z" />
    <glyph glyph-name="parenleft" unicode="(" horiz-adv-x="692"
d="M76 639q0 285 102 541q96 237 256 376h285q-170 -157 -263.5 -373.5t-93.5 -473.5v-144q0 -264 93.5 -479t263.5 -369h-287q-157 135 -256.5 386t-99.5 536z" />
    <glyph glyph-name="parenright" unicode=")" horiz-adv-x="692"
d="M616 639q0 -285 -99.5 -536t-256.5 -386h-287q170 154 263.5 369t93.5 479v144q0 257 -93.5 473.5t-263.5 373.5h285q160 -139 256 -376q102 -256 102 -541z" />
    <glyph glyph-name="asterisk" unicode="*" horiz-adv-x="1230"
d="M614 821l-221 -334l-213 144l260 313l-374 113l79 233l357 -149l-19 389h265l-19 -389l356 149l80 -233l-374 -113l258 -313l-213 -142z" />
    <glyph glyph-name="plus" unicode="+"
d="M745 129h-262v377h-346v242h346v376h262v-376h347v-242h-347v-377z" />
    <glyph glyph-name="comma" unicode="," horiz-adv-x="634"
d="M317 346q89 0 135 -44.5t46 -119.5v-41q0 -124 -60.5 -245.5t-158.5 -196.5h-205q78 73 126.5 139.5t73.5 143.5q-69 12 -103 54t-34 105v41q0 75 45.5 119.5t134.5 44.5z" />
    <glyph glyph-name="hyphen" unicode="-" horiz-adv-x="825"
d="M717 477h-608v295h608v-295z" />
    <glyph glyph-name="period" unicode="." horiz-adv-x="634"
d="M317 -23q-89 0 -134.5 44.5t-45.5 119.5v41q0 75 45.5 119.5t134.5 44.5t135 -44.5t46 -119.5v-41q0 -75 -46 -119.5t-135 -44.5z" />
    <glyph glyph-name="slash" unicode="/" horiz-adv-x="942"
d="M256 -309h-250l610 1825h250z" />
    <glyph glyph-name="zero" unicode="0"
d="M614 -25q-276 0 -413.5 191.5t-137.5 548.5t137.5 548t413.5 191t413.5 -191t137.5 -548t-137.5 -548.5t-413.5 -191.5zM614 236q118 0 167.5 86t49.5 258v270q0 172 -49.5 258t-167.5 86t-167.5 -86t-49.5 -258v-270q0 -172 49.5 -258t167.5 -86z" />
    <glyph glyph-name="one" unicode="1"
d="M1188 0h-995v248h385v958h-19l-291 -381l-196 154l342 451h471v-1182h303v-248z" />
    <glyph glyph-name="two" unicode="2"
d="M1128 258v-258h-1011v281l440 376q120 103 167.5 175.5t47.5 162.5v29q0 77 -56.5 120.5t-131.5 43.5q-93 0 -150.5 -56t-79.5 -145l-268 103q26 77 68.5 140.5t105 115t152.5 80t200 28.5q227 0 357.5 -120.5t130.5 -309.5q0 -41 -7 -79.5t-16.5 -71t-30 -67.5
t-36.5 -60.5t-47.5 -59.5t-52 -54.5t-60.5 -55.5t-62.5 -53.5t-68.5 -55.5l-266 -209h675z" />
    <glyph glyph-name="three" unicode="3"
d="M403 864h134q110 0 164.5 42t54.5 112v14q0 79 -51 125.5t-142 46.5q-86 0 -161.5 -44t-129.5 -126l-192 180q91 118 204 179t289 61q228 0 367 -103t139 -276q0 -129 -76.5 -213.5t-195.5 -107.5v-13q134 -26 215.5 -114t81.5 -230q0 -192 -148 -307t-395 -115
q-358 0 -528 275l227 176q52 -97 122 -149t179 -52q104 0 162.5 52t58.5 143v12q0 86 -65.5 131t-184.5 45h-129v256z" />
    <glyph glyph-name="four" unicode="4"
d="M983 0h-293v274h-629v263l557 893h365v-918h180v-238h-180v-274zM307 512h383v600h-20z" />
    <glyph glyph-name="five" unicode="5"
d="M1069 1430v-269h-649l-31 -452h17q46 115 115 171t192 56q190 0 315 -122.5t125 -332.5q0 -109 -36.5 -201.5t-105 -160.5t-173 -106t-234.5 -38q-347 0 -510 275l223 176q35 -63 70.5 -104t92 -69t126.5 -28q108 0 165.5 62.5t57.5 169.5v16q0 98 -57.5 155.5
t-157.5 57.5q-130 0 -221 -100l-252 35l54 809h874z" />
    <glyph glyph-name="six" unicode="6"
d="M623 -25q-252 0 -394.5 152.5t-142.5 415.5q0 144 44.5 283t120 251t163 200t184.5 153h424q-289 -207 -416 -351q-162 -182 -198 -366l18 -6q45 98 118.5 156.5t196.5 58.5q180 0 299 -123t119 -322q0 -223 -145 -362.5t-391 -139.5zM623 215q103 0 160 56.5t57 160.5
v37q0 104 -57 160.5t-160 56.5t-160 -56.5t-57 -160.5v-37q0 -104 57 -160.5t160 -56.5z" />
    <glyph glyph-name="seven" unicode="7"
d="M664 0h-324l479 1180h-446v-260h-260v510h1011v-267z" />
    <glyph glyph-name="eight" unicode="8"
d="M614 -25q-245 0 -388.5 115.5t-143.5 300.5q0 134 74 222t206 124v17q-110 40 -173.5 121.5t-63.5 201.5q0 169 127.5 273t361.5 104t362 -104.5t128 -272.5q0 -119 -64 -201t-174 -122v-17q132 -36 206.5 -124.5t74.5 -221.5q0 -185 -144 -300.5t-389 -115.5zM614 211
q102 0 156.5 47.5t54.5 134.5v41q0 87 -54.5 134.5t-156.5 47.5t-156.5 -47.5t-54.5 -134.5v-41q0 -87 54.5 -134.5t156.5 -47.5zM614 842q97 0 149 45.5t52 126.5v33q0 81 -52 126.5t-149 45.5t-148.5 -45.5t-51.5 -126.5v-33q0 -81 51.5 -126.5t148.5 -45.5z" />
    <glyph glyph-name="nine" unicode="9"
d="M1143 887q0 -144 -44.5 -283t-120 -251t-163 -200t-184.5 -153h-424q147 105 247 187.5t171 162.5q152 171 196 367l-18 6q-21 -46 -46.5 -81.5t-62.5 -67t-89.5 -49t-117.5 -17.5q-178 0 -297.5 120.5t-119.5 323.5q0 223 145 362.5t391 139.5q252 0 394.5 -152
t142.5 -415zM606 743q103 0 160 57t57 161v36q0 104 -57 160.5t-160 56.5t-160 -56.5t-57 -160.5v-36q0 -104 57 -161t160 -57z" />
    <glyph glyph-name="colon" unicode=":" horiz-adv-x="675"
d="M338 -23q-89 0 -134.5 44.5t-45.5 119.5v41q0 75 45.5 119.5t134.5 44.5t134.5 -44.5t45.5 -119.5v-41q0 -75 -45.5 -119.5t-134.5 -44.5zM338 729q-89 0 -134.5 44.5t-45.5 119.5v41q0 75 45.5 119.5t134.5 44.5t134.5 -44.5t45.5 -119.5v-41q0 -75 -45.5 -119.5
t-134.5 -44.5z" />
    <glyph glyph-name="semicolon" unicode=";" horiz-adv-x="675"
d="M338 346q89 0 134.5 -44.5t45.5 -119.5v-41q0 -124 -60.5 -245.5t-158.5 -196.5h-205q78 74 127 140t74 143q-69 12 -103 54t-34 105v41q0 75 45.5 119.5t134.5 44.5zM338 729q-89 0 -134.5 44.5t-45.5 119.5v41q0 75 45.5 119.5t134.5 44.5t134.5 -44.5t45.5 -119.5v-41
q0 -75 -45.5 -119.5t-134.5 -44.5z" />
    <glyph glyph-name="less" unicode="&#x3c;"
d="M1018 -4l-807 532v179l807 530v-305l-488 -307v-15l488 -307v-307z" />
    <glyph glyph-name="equal" unicode="="
d="M1092 741h-955v242h955v-242zM137 266v242h955v-242h-955z" />
    <glyph glyph-name="greater" unicode="&#x3e;"
d="M211 -4v307l487 307v15l-487 307v305l807 -528v-179z" />
    <glyph glyph-name="question" unicode="?" horiz-adv-x="1024"
d="M610 477h-286v314q167 6 245 55.5t78 161.5v28q0 76 -45.5 118t-120.5 42q-77 0 -129.5 -48t-72.5 -126l-250 104q20 65 53.5 120t87.5 104t136.5 76.5t185.5 27.5q220 0 348.5 -116.5t128.5 -305.5q0 -164 -103 -272.5t-256 -134.5v-148zM471 -25q-93 0 -137.5 42.5
t-44.5 113.5v49q0 71 44.5 113.5t137.5 42.5t137.5 -42.5t44.5 -113.5v-49q0 -71 -44.5 -113.5t-137.5 -42.5z" />
    <glyph glyph-name="at" unicode="@" horiz-adv-x="1849"
d="M1376 -68v-180h-430q-191 0 -345.5 61t-259 172t-160.5 267t-56 344q0 186 57.5 344t162.5 271t259.5 177t341.5 64q235 0 413.5 -94t276 -268t97.5 -404q0 -244 -102.5 -381t-280.5 -137q-110 0 -180 53t-76 139h-11q-44 -188 -235 -188q-140 0 -228 110.5t-88 313.5
t88 313.5t228 110.5q83 0 137 -44.5t74 -115.5h10v141h227v-550q0 -103 90 -103q70 0 113 76q43 73 43 231v58q0 257 -164.5 409t-431.5 152q-192 0 -336.5 -83.5t-219.5 -227.5t-75 -328v-78q0 -280 171 -452.5t460 -172.5h430zM932 358q53 0 95 39.5t42 87.5v238
q0 46 -41 78.5t-96 32.5q-73 0 -117.5 -47t-44.5 -121v-140q0 -74 44.5 -121t117.5 -47z" />
    <glyph glyph-name="A" unicode="A" horiz-adv-x="1402"
d="M1362 0h-324l-102 340h-477l-103 -340h-315l471 1430h385zM532 604h328l-160 543h-10z" />
    <glyph glyph-name="B" unicode="B" horiz-adv-x="1366"
d="M158 0v1430h694q177 0 277 -99.5t100 -267.5q0 -156 -72.5 -229t-193.5 -78v-13q54 0 108.5 -19.5t103 -57.5t79 -105t30.5 -153q0 -173 -105 -290.5t-264 -117.5h-757zM469 590v-328h358q62 0 98 34t36 95v70q0 61 -36 95t-98 34h-358zM469 1167v-323h309q62 0 96.5 35
t34.5 96v61q0 62 -34.5 96.5t-96.5 34.5h-309z" />
    <glyph glyph-name="C" unicode="C" horiz-adv-x="1333"
d="M735 -25q-297 0 -465 187.5t-168 542.5q0 358 169.5 553.5t463.5 195.5q198 0 327.5 -81.5t207.5 -254.5l-269 -139q-31 97 -93 148t-173 51q-139 0 -221 -91t-82 -258v-229q0 -167 82 -257.5t221 -90.5q109 0 179.5 58.5t105.5 154.5l254 -148q-82 -169 -214 -255.5
t-325 -86.5z" />
    <glyph glyph-name="D" unicode="D" horiz-adv-x="1427"
d="M158 0v1430h538q292 0 460.5 -183.5t168.5 -531.5t-168.5 -531.5t-460.5 -183.5h-538zM469 276h227q144 0 221.5 80.5t77.5 247.5v221q0 167 -77.5 247.5t-221.5 80.5h-227v-877z" />
    <glyph glyph-name="E" unicode="E" horiz-adv-x="1243"
d="M1130 0h-972v1430h972v-277h-661v-293h567v-274h-567v-310h661v-276z" />
    <glyph glyph-name="F" unicode="F" horiz-adv-x="1198"
d="M469 0h-311v1430h948v-277h-637v-293h543v-274h-543v-586z" />
    <glyph glyph-name="G" unicode="G" horiz-adv-x="1472"
d="M1065 0v227h-10q-18 -113 -114 -182.5t-253 -69.5q-255 0 -416 187q-170 197 -170 547q0 352 176.5 548.5t471.5 196.5q391 0 550 -332l-253 -145q-76 201 -297 201q-151 0 -234.5 -87t-83.5 -262v-229q0 -174 83.5 -261t234.5 -87q122 0 201 56t79 157v72h-266v260h563
v-797h-262z" />
    <glyph glyph-name="H" unicode="H" horiz-adv-x="1482"
d="M1014 0v586h-545v-586h-311v1430h311v-570h545v570h311v-1430h-311z" />
    <glyph glyph-name="I" unicode="I" horiz-adv-x="884"
d="M782 0h-680v248h185v934h-185v248h680v-248h-184v-934h184v-248z" />
    <glyph glyph-name="J" unicode="J" horiz-adv-x="1144"
d="M250 1430h745v-1016q0 -203 -128.5 -320t-342.5 -117q-199 0 -320.5 105t-152.5 297l291 57q34 -186 178 -186q72 0 118 45t46 133v752h-434v250z" />
    <glyph glyph-name="K" unicode="K" horiz-adv-x="1425"
d="M1034 0l-379 623l-186 -226v-397h-311v1430h311v-680h12l203 276l322 404h352l-481 -588l524 -842h-367z" />
    <glyph glyph-name="L" unicode="L" horiz-adv-x="1085"
d="M1014 0h-856v1430h311v-1154h545v-276z" />
    <glyph glyph-name="M" unicode="M" horiz-adv-x="1677"
d="M1227 0v938h-6l-105 -209l-278 -506l-273 504l-108 225h-6v-952h-293v1430h329l351 -670h4l346 670h332v-1430h-293z" />
    <glyph glyph-name="N" unicode="N" horiz-adv-x="1482"
d="M985 0l-391 676l-137 287h-6v-963h-293v1430h340l391 -676l137 -287h6v963h293v-1430h-340z" />
    <glyph glyph-name="O" unicode="O" horiz-adv-x="1462"
d="M731 -25q-291 0 -460 191t-169 549t169 548.5t460 190.5t460 -190.5t169 -548.5t-169 -549t-460 -191zM731 252q142 0 220.5 92.5t78.5 263.5v213q0 171 -78.5 264t-220.5 93t-220.5 -93t-78.5 -264v-213q0 -171 78.5 -263.5t220.5 -92.5z" />
    <glyph glyph-name="P" unicode="P" horiz-adv-x="1343"
d="M469 0h-311v1430h676q198 0 316 -128t118 -329q0 -204 -117.5 -330.5t-316.5 -126.5h-365v-516zM469 1159v-373h328q70 0 109.5 37t39.5 105v90q0 68 -39.5 104.5t-109.5 36.5h-328z" />
    <glyph glyph-name="Q" unicode="Q" horiz-adv-x="1462"
d="M1110 -123v-254h-192q-163 0 -240.5 76.5t-77.5 226.5v60q-234 42 -366 228.5t-132 500.5q0 358 169 548.5t460 190.5t460 -190.5t169 -548.5q0 -306 -123.5 -490.5t-345.5 -232.5v-115h219zM731 252q142 0 220.5 92.5t78.5 263.5v213q0 171 -78.5 264t-220.5 93
t-220.5 -93t-78.5 -264v-213q0 -171 78.5 -263.5t220.5 -92.5z" />
    <glyph glyph-name="R" unicode="R" horiz-adv-x="1380"
d="M469 524v-524h-311v1430h678q196 0 314 -124t118 -333q0 -149 -66 -256t-194 -156l280 -561h-346l-250 524h-223zM469 786h328q70 0 109.5 37t39.5 105v90q0 68 -39.5 104.5t-109.5 36.5h-328v-373z" />
    <glyph glyph-name="S" unicode="S" horiz-adv-x="1277"
d="M621 -25q-335 0 -543 232l205 207q144 -164 358 -164q112 0 168.5 45.5t56.5 126.5q0 65 -36 102.5t-130 50.5l-141 19q-438 56 -438 426q0 197 144.5 315.5t391.5 118.5q316 0 496 -201l-207 -209q-116 136 -307 136q-103 0 -155 -36.5t-52 -103.5q0 -72 38.5 -105.5
t131.5 -47.5l141 -23q223 -36 329 -137.5t106 -286.5q0 -211 -147.5 -338t-409.5 -127z" />
    <glyph glyph-name="T" unicode="T" horiz-adv-x="1196"
d="M1141 1153h-387v-1153h-312v1153h-387v277h1086v-277z" />
    <glyph glyph-name="U" unicode="U" horiz-adv-x="1421"
d="M150 1430h303v-877q0 -155 60.5 -228t197.5 -73t197.5 73t60.5 228v877h303v-844q0 -321 -128.5 -466t-432.5 -145t-432.5 145t-128.5 466v844z" />
    <glyph glyph-name="V" unicode="V" horiz-adv-x="1331"
d="M838 0h-349l-460 1430h315l213 -687l113 -448h6l108 448l213 687h306z" />
    <glyph glyph-name="W" unicode="W" horiz-adv-x="1992"
d="M739 0h-356l-324 1430h308l135 -687l76 -397h6l90 397l157 687h340l160 -687l88 -397h6l76 397l137 687h295l-331 -1430h-355l-180 774l-70 313h-6l-71 -313z" />
    <glyph glyph-name="X" unicode="X" horiz-adv-x="1378"
d="M881 733l465 -733h-361l-309 526h-6l-301 -526h-336l459 739l-437 691h363l278 -484h6l283 484h336z" />
    <glyph glyph-name="Y" unicode="Y" horiz-adv-x="1329"
d="M821 0h-313v559l-490 871h349l307 -570h4l295 570h338l-490 -869v-561z" />
    <glyph glyph-name="Z" unicode="Z" horiz-adv-x="1243"
d="M1163 276v-276h-1083v276l704 877h-669v277h1032v-277l-707 -877h723z" />
    <glyph glyph-name="bracketleft" unicode="[" horiz-adv-x="684"
d="M582 -283h-424v1839h424v-213h-144v-1413h144v-213z" />
    <glyph glyph-name="backslash" unicode="\" horiz-adv-x="942"
d="M934 -309h-250l-610 1825h250z" />
    <glyph glyph-name="bracketright" unicode="]" horiz-adv-x="684"
d="M102 1556h424v-1839h-424v213h144v1413h-144v213z" />
    <glyph glyph-name="asciicircum" unicode="^"
d="M1145 684l-244 -117l-287 533h-12l-287 -533l-229 117l410 746h245z" />
    <glyph glyph-name="underscore" unicode="_" horiz-adv-x="1138"
d="M1077 -389h-1016v252h1016v-252z" />
    <glyph glyph-name="grave" unicode="`"
d="M582 1186l-275 360l252 125l203 -397z" />
    <glyph glyph-name="a" unicode="a" horiz-adv-x="1165"
d="M1104 0h-168q-81 0 -136 50.5t-69 137.5h-12q-24 -103 -107.5 -158t-208.5 -55q-158 0 -245.5 85t-87.5 229q0 167 120.5 251.5t339.5 84.5h170v67q0 170 -178 170q-83 0 -136 -34t-95 -93l-180 160q70 103 170.5 154t263.5 51q228 0 343.5 -100t115.5 -293v-471h100
v-236zM516 186q81 0 132.5 35t51.5 105v127h-147q-178 0 -178 -121v-31q0 -115 141 -115z" />
    <glyph glyph-name="b" unicode="b" horiz-adv-x="1245"
d="M141 0v1516h303v-621h11q23 91 103.5 148t184.5 57q204 0 309 -142.5t105 -418.5t-105 -420t-309 -144q-106 0 -184 58t-104 147h-11v-180h-303zM643 221q88 0 143.5 61t55.5 162v187q0 101 -55.5 162t-143.5 61t-143.5 -43t-55.5 -115v-317q0 -72 55.5 -115t143.5 -43z
" />
    <glyph glyph-name="c" unicode="c" horiz-adv-x="1058"
d="M575 -25q-241 0 -371 151t-130 413q0 263 131 412t370 149q163 0 273 -73t158 -208l-246 -106q-14 65 -61.5 106t-123.5 41q-91 0 -138.5 -59t-47.5 -164v-201q0 -104 47.5 -162.5t138.5 -58.5q149 0 201 160l236 -103q-104 -297 -437 -297z" />
    <glyph glyph-name="d" unicode="d" horiz-adv-x="1245"
d="M801 0v180h-10q-25 -89 -104 -147t-185 -58q-204 0 -309 144t-105 420t105 418.5t309 142.5q104 0 185 -57t104 -148h10v621h303v-1516h-303zM602 221q88 0 143.5 43t55.5 115v317q0 72 -55.5 115t-143.5 43t-143.5 -61t-55.5 -162v-187q0 -101 55.5 -162t143.5 -61z" />
    <glyph glyph-name="e" unicode="e" horiz-adv-x="1150"
d="M590 -25q-242 0 -379 150.5t-137 413.5q0 260 132.5 410.5t371.5 150.5q105 0 190 -29.5t141.5 -80.5t95 -121.5t55.5 -149.5t17 -168v-90h-690v-17q0 -109 59 -170t179 -61q86 0 145 33t119 96l151 -188q-73 -86 -188.5 -132.5t-261.5 -46.5zM584 877q-91 0 -144 -60.5
t-53 -161.5v-16h377v18q0 102 -45.5 161t-134.5 59z" />
    <glyph glyph-name="f" unicode="f" horiz-adv-x="739"
d="M195 0v840h-152v235h152v127q0 155 81.5 234.5t239.5 79.5h197v-236h-215v-205h215v-235h-215v-840h-303z" />
    <glyph glyph-name="g" unicode="g" horiz-adv-x="1130"
d="M1137 -78q0 -178 -127 -264q-136 -92 -455 -92q-269 0 -389.5 63t-120.5 187q0 89 52.5 140.5t148.5 63.5v23q-75 13 -115.5 64.5t-40.5 123.5q0 81 58 127t143 64v8q-193 87 -193 307q0 169 117 266t344 97q105 0 182 -21v41q0 162 162 162h170v-225h-237v-13
q184 -87 184 -307q0 -166 -117 -261t-344 -95q-100 0 -190 22q-47 -30 -47 -86q0 -81 129 -81h311q375 0 375 -314zM852 -119q0 49 -38 72.5t-128 23.5h-369q-38 -38 -38 -96q0 -62 51 -88t174 -26h123q123 0 174 26t51 88zM559 580q178 0 178 147v25q0 147 -178 147
t-178 -147v-25q0 -147 178 -147z" />
    <glyph glyph-name="h" unicode="h" horiz-adv-x="1220"
d="M141 0v1516h303v-623h13q32 93 105.5 150t193.5 57q165 0 250.5 -110t85.5 -316v-674h-304v649q0 108 -33.5 156.5t-115.5 48.5q-80 0 -137.5 -41.5t-57.5 -116.5v-696h-303z" />
    <glyph glyph-name="i" unicode="i" horiz-adv-x="585"
d="M293 1190q-89 0 -132.5 40t-43.5 109v45q0 69 43.5 109.5t132.5 40.5t132.5 -40.5t43.5 -109.5v-45q0 -69 -43.5 -109t-132.5 -40zM141 0v1075h303v-1075h-303z" />
    <glyph glyph-name="j" unicode="j" horiz-adv-x="585"
d="M141 -174v1249h303v-1190q0 -146 -73.5 -220.5t-229.5 -74.5h-159v236h159zM293 1190q-89 0 -132.5 40t-43.5 109v45q0 69 43.5 109.5t132.5 40.5t132.5 -40.5t43.5 -109.5v-45q0 -69 -43.5 -109t-132.5 -40z" />
    <glyph glyph-name="k" unicode="k" horiz-adv-x="1181"
d="M141 0v1516h303v-895h13l133 198l215 256h336l-359 -411l400 -664h-361l-241 455l-136 -152v-303h-303z" />
    <glyph glyph-name="l" unicode="l" horiz-adv-x="620"
d="M580 0h-138q-301 0 -301 295v1221h303v-1280h136v-236z" />
    <glyph glyph-name="m" unicode="m" horiz-adv-x="1830"
d="M444 0h-303v1075h303v-182h13q32 94 103 150.5t185 56.5q111 0 189 -56t113 -161h6q31 96 121 156.5t206 60.5q155 0 238.5 -111t83.5 -315v-674h-303v649q0 205 -148 205q-73 0 -125.5 -41.5t-52.5 -116.5v-696h-303v649q0 205 -147 205q-72 0 -125.5 -41.5
t-53.5 -116.5v-696z" />
    <glyph glyph-name="n" unicode="n" horiz-adv-x="1220"
d="M444 0h-303v1075h303v-182h13q32 93 105.5 150t193.5 57q165 0 250.5 -110t85.5 -316v-674h-304v649q0 108 -33.5 156.5t-115.5 48.5q-80 0 -137.5 -41.5t-57.5 -116.5v-696z" />
    <glyph glyph-name="o" unicode="o" horiz-adv-x="1155"
d="M578 -25q-235 0 -369.5 149.5t-134.5 414.5q0 261 133.5 411t370.5 150t370 -150t133 -411q0 -265 -134 -414.5t-369 -149.5zM578 215q91 0 139.5 55t48.5 158v219q0 103 -48.5 158t-139.5 55t-140 -55t-49 -158v-219q0 -103 49 -158t140 -55z" />
    <glyph glyph-name="p" unicode="p" horiz-adv-x="1245"
d="M141 -410v1485h303v-180h11q23 91 103.5 148t184.5 57q204 0 309 -142.5t105 -418.5t-105 -420t-309 -144q-106 0 -184 58t-104 147h-11v-590h-303zM643 221q88 0 143.5 61t55.5 162v187q0 101 -55.5 162t-143.5 61t-143.5 -43t-55.5 -115v-317q0 -72 55.5 -115
t143.5 -43z" />
    <glyph glyph-name="q" unicode="q" horiz-adv-x="1245"
d="M801 -410v590h-10q-25 -89 -104 -147t-185 -58q-204 0 -309 144t-105 420t105 418.5t309 142.5q104 0 185 -57t104 -148h10v180h303v-1485h-303zM602 221q88 0 143.5 43t55.5 115v317q0 72 -55.5 115t-143.5 43t-143.5 -61t-55.5 -162v-187q0 -101 55.5 -162t143.5 -61z
" />
    <glyph glyph-name="r" unicode="r" horiz-adv-x="827"
d="M444 0h-303v1075h303v-233h11q19 100 88 166.5t186 66.5h53v-282h-75q-138 0 -200.5 -36.5t-62.5 -127.5v-629z" />
    <glyph glyph-name="s" unicode="s" horiz-adv-x="1032"
d="M506 -25q-150 0 -257 48t-196 145l178 180q124 -137 285 -137q87 0 123.5 26t36.5 76q0 75 -109 90l-116 15q-363 46 -363 332q0 157 114.5 253.5t303.5 96.5q160 0 252.5 -39t185.5 -129l-174 -178q-110 110 -248 110q-143 0 -143 -90q0 -44 24.5 -67t88.5 -33l120 -17
q355 -47 355 -323q0 -159 -128 -259t-333 -100z" />
    <glyph glyph-name="t" unicode="t" horiz-adv-x="784"
d="M698 0h-180q-158 0 -238.5 79.5t-80.5 233.5v527h-152v235h76q59 0 82.5 28t23.5 87v176h273v-291h213v-235h-213v-604h196v-236z" />
    <glyph glyph-name="u" unicode="u" horiz-adv-x="1220"
d="M776 0v180h-10q-71 -205 -301 -205q-165 0 -250.5 109.5t-85.5 314.5v676h303v-649q0 -102 36 -153.5t118 -51.5q76 0 133 42t57 114v698h303v-1075h-303z" />
    <glyph glyph-name="v" unicode="v" horiz-adv-x="1101"
d="M731 0h-360l-353 1075h299l134 -434l100 -389h16l101 389l129 434h286z" />
    <glyph glyph-name="w" unicode="w" horiz-adv-x="1722"
d="M340 0l-301 1075h293l104 -434l74 -328h8l86 328l123 434h277l124 -434l89 -328h8l73 328l105 434h280l-297 -1075h-317l-131 455l-76 278h-6l-74 -278l-131 -455h-311z" />
    <glyph glyph-name="x" unicode="x" horiz-adv-x="1146"
d="M352 0h-315l354 547l-350 528h344l201 -338h8l194 338h320l-356 -538l358 -537h-344l-207 350h-8z" />
    <glyph glyph-name="y" unicode="y" horiz-adv-x="1093"
d="M641 573l158 502h282l-413 -1241q-42 -128 -118 -186t-212 -58h-188v236h202l37 119l-377 1130h301l158 -502l78 -311h12z" />
    <glyph glyph-name="z" unicode="z" horiz-adv-x="1060"
d="M981 0h-901v240l534 600h-516v235h869v-237l-537 -602h551v-236z" />
    <glyph glyph-name="braceleft" unicode="{" horiz-adv-x="761"
d="M659 -283h-223q-87 0 -142.5 55t-55.5 152v416q0 88 -55 135t-144 47v232q89 0 144 47t55 135v414q0 97 55.5 151.5t142.5 54.5h223v-213h-141v-440q0 -96 -62.5 -170t-150.5 -92v-8q88 -18 150.5 -92t62.5 -170v-441h141v-213z" />
    <glyph glyph-name="bar" unicode="|" horiz-adv-x="823"
d="M541 -283h-258v1839h258v-1839z" />
    <glyph glyph-name="braceright" unicode="}" horiz-adv-x="761"
d="M102 1556h224q87 0 142.5 -54.5t55.5 -151.5v-414q0 -88 55 -135t144 -47v-232q-89 0 -144 -47t-55 -135v-416q0 -97 -55.5 -152t-142.5 -55h-224v213h142v443q0 96 62.5 170t150.5 92v8q-88 18 -150.5 92t-62.5 170v438h-142v213z" />
    <glyph glyph-name="asciitilde" unicode="~"
d="M852 434q-70 0 -127 17.5t-131 56.5q-127 67 -225 67q-46 0 -80 -12t-80 -43l-100 172q86 127 268 127q70 0 127 -17.5t131 -56.5q127 -67 225 -67q46 0 80 12t80 43l100 -172q-86 -127 -268 -127z" />
    <glyph glyph-name="uni00A0" unicode="&#xa0;" horiz-adv-x="483"
 />
    <glyph glyph-name="exclamdown" unicode="&#xa1;" horiz-adv-x="655"
d="M487 -354h-319v397l94 582h129l96 -582v-397zM328 739q-93 0 -138 42.5t-45 113.5v49q0 71 45 113.5t138 42.5t137.5 -42.5t44.5 -113.5v-49q0 -71 -44.5 -113.5t-137.5 -42.5z" />
    <glyph glyph-name="cent" unicode="&#xa2;" horiz-adv-x="1130"
d="M711 -233h-226v219q-192 37 -296.5 178t-104.5 364t105 365.5t296 177.5v219h226v-217q234 -38 329 -250l-217 -118q-48 104 -131 137v-629q93 32 150 141l215 -121q-103 -214 -346 -249v-217zM373 614v-172q0 -172 133 -225v623q-65 -26 -99 -84.5t-34 -141.5z" />
    <glyph glyph-name="sterling" unicode="&#xa3;" horiz-adv-x="1191"
d="M1135 0h-1000v279q80 36 125 99.5t45 149.5q0 41 -8 68h-227v246h135q-37 92 -37 192q0 188 138 304t374 116q318 0 483 -248l-225 -157q-56 73 -116 105t-134 32q-100 0 -153.5 -52t-53.5 -149q0 -58 29 -143h401v-246h-307q4 -36 4 -57q0 -173 -157 -258v-19h684v-262z
" />
    <glyph glyph-name="currency" unicode="&#xa4;" horiz-adv-x="1286"
d="M643 219q-156 0 -270 62l-187 -189l-166 164l187 186q-66 117 -66 273q0 155 66 272l-187 187l166 163l187 -188q113 61 270 61t270 -61l187 188l166 -163l-187 -187q66 -117 66 -272q0 -156 -66 -273l187 -186l-166 -164l-187 189q-114 -62 -270 -62zM643 438
q94 0 146.5 57.5t52.5 161.5v115q0 104 -52.5 161.5t-146.5 57.5t-146.5 -57.5t-52.5 -161.5v-115q0 -104 52.5 -161.5t146.5 -57.5z" />
    <glyph glyph-name="yen" unicode="&#xa5;" horiz-adv-x="1331"
d="M1161 272h-344v-272h-313v272h-344v185h344v139h-344v184h225l-346 650h352l283 -564h4l280 564h334l-356 -650h225v-184h-344v-139h344v-185z" />
    <glyph glyph-name="brokenbar" unicode="&#xa6;" horiz-adv-x="823"
d="M541 821h-258v735h258v-735zM283 -283v736h258v-736h-258z" />
    <glyph glyph-name="section" unicode="&#xa7;" horiz-adv-x="1165"
d="M999 27q0 -165 -123.5 -261t-320.5 -96q-249 0 -408 148l148 180q113 -113 264 -113q86 0 136 33.5t50 95.5q0 55 -41.5 87.5t-136.5 58.5l-157 43q-308 89 -308 303q0 90 55 163t165 119v35q-158 104 -158 285q0 164 122 255t320 91q255 0 412 -147l-150 -181
q-57 57 -119 85t-149 28q-84 0 -133 -29t-49 -92q0 -52 41 -82.5t137 -56.5l158 -43q309 -87 309 -307q0 -91 -54.5 -164t-166.5 -119v-33q157 -103 157 -286zM811 537q0 59 -36 101t-128 69l-155 43q-21 5 -66 20q-74 -87 -74 -172q0 -56 36 -97.5t128 -68.5l156 -43
q15 -4 67 -22q72 84 72 170z" />
    <glyph glyph-name="dieresis" unicode="&#xa8;"
d="M389 1229q-164 0 -164 129v51q0 129 164 129t164 -129v-51q0 -129 -164 -129zM840 1229q-164 0 -164 129v51q0 129 164 129t164 -129v-51q0 -129 -164 -129z" />
    <glyph glyph-name="copyright" unicode="&#xa9;" horiz-adv-x="1622"
d="M811 -25q-155 0 -286 51.5t-225.5 146t-148 234t-53.5 308.5t53.5 308.5t148 233.5t225.5 145.5t286 51.5t286 -51.5t225.5 -145.5t148 -233.5t53.5 -308.5t-53.5 -308.5t-148 -234t-225.5 -146t-286 -51.5zM811 106q160 0 289 71.5t200.5 194.5t71.5 273v139
q0 111 -42 210t-115 171.5t-178 115t-226 42.5t-226 -42.5t-178 -115t-115 -171.5t-42 -210v-139q0 -150 71.5 -273t200.5 -194.5t289 -71.5zM825 274q-201 0 -313.5 120t-112.5 321t112.5 320.5t313.5 119.5q280 0 371 -231l-205 -99q-27 59 -65 89t-101 30
q-67 0 -106 -39.5t-39 -107.5v-164q0 -68 39 -108t106 -40q120 0 181 119l206 -96q-111 -234 -387 -234z" />
    <glyph glyph-name="ordfeminine" unicode="&#xaa;" horiz-adv-x="919"
d="M829 829v-153h-122q-58 0 -99 30.5t-51 100.5h-8q-20 -71 -77.5 -107t-143.5 -36q-106 0 -170 59.5t-64 163.5q0 227 328 227h115v39q0 69 -29.5 101t-99.5 32q-114 0 -179 -92l-114 102q81 146 317 146q151 0 234.5 -71.5t83.5 -209.5v-332h79zM537 999h-109
q-127 0 -127 -88v-28q0 -80 109 -80q57 0 92 27t35 79v90z" />
    <glyph glyph-name="guillemotleft" unicode="&#xab;" horiz-adv-x="1142"
d="M547 289l-88 -189l-381 328v258l381 328l88 -189l-246 -268zM571 428v258l381 328l88 -189l-245 -268l245 -268l-88 -189z" />
    <glyph glyph-name="logicalnot" unicode="&#xac;"
d="M1092 160h-248v346h-738v242h986v-588z" />
    <glyph glyph-name="uni00AD" unicode="&#xad;" horiz-adv-x="825"
d="M717 477h-608v295h608v-295z" />
    <glyph glyph-name="registered" unicode="&#xae;" horiz-adv-x="950"
d="M475 610q-175 0 -294.5 120t-119.5 302t119.5 302t294.5 120t294.5 -120t119.5 -302t-119.5 -302t-294.5 -120zM475 707q128 0 215.5 79t87.5 213v66q0 134 -87.5 213.5t-215.5 79.5t-215.5 -79.5t-87.5 -213.5v-66q0 -134 87.5 -213t215.5 -79zM428 944v-125h-131v428
h209q83 0 123.5 -39t40.5 -104q0 -98 -76 -135l88 -150h-141l-66 125h-47zM428 1040h51q58 0 58 47v15q0 47 -58 47h-51v-109z" />
    <glyph glyph-name="macron" unicode="&#xaf;"
d="M301 1278v211h627v-211h-627z" />
    <glyph glyph-name="degree" unicode="&#xb0;" horiz-adv-x="962"
d="M481 684q-160 0 -269.5 107.5t-109.5 277.5t109.5 277.5t269.5 107.5q164 0 271.5 -110.5t107.5 -274.5q0 -170 -109.5 -277.5t-269.5 -107.5zM481 879q77 0 124.5 53.5t47.5 136.5t-47.5 137t-124.5 54t-124.5 -54t-47.5 -137t47.5 -136.5t124.5 -53.5z" />
    <glyph glyph-name="plusminus" unicode="&#xb1;"
d="M745 377h-262v342h-346v244h346v337h262v-337h347v-244h-347v-342zM137 0v244h955v-244h-955z" />
    <glyph glyph-name="uni00B2" unicode="&#xb2;" horiz-adv-x="710"
d="M659 844v-170h-591v180l223 170q82 61 109.5 94t27.5 76v2q0 37 -26.5 53.5t-61.5 16.5q-87 0 -113 -92l-182 67q31 91 111 146t204 55q137 0 214 -64.5t77 -169.5q0 -97 -61.5 -166.5t-171.5 -130.5l-121 -67h362z" />
    <glyph glyph-name="uni00B3" unicode="&#xb3;" horiz-adv-x="706"
d="M240 1143h69q54 0 80 16q25 16 25 39v8q0 31 -25 52.5t-67 21.5q-44 0 -88 -23t-76 -65l-127 121q57 66 125 97.5t172 31.5q144 0 225.5 -56.5t81.5 -150.5q0 -69 -45 -113.5t-111 -52.5v-8q79 -12 123.5 -57.5t44.5 -116.5q0 -103 -88.5 -164t-232.5 -61
q-123 0 -197 40.5t-121 112.5l156 119q55 -111 162 -111q47 0 74.5 22.5t27.5 59.5v4q0 66 -125 66h-63v168z" />
    <glyph glyph-name="acute" unicode="&#xb4;"
d="M922 1546l-275 -360l-180 88l203 397z" />
    <glyph glyph-name="uni00B5" unicode="&#xb5;" horiz-adv-x="1232"
d="M444 -410h-303v1485h303v-653q0 -101 36 -151t116 -50q79 0 135.5 43t56.5 115v696h304v-1075h-304v180h-10q-28 -91 -88.5 -148t-148.5 -57q-108 0 -148 86h-10l61 -278v-193z" />
    <glyph glyph-name="paragraph" unicode="&#xb6;" horiz-adv-x="1386"
d="M496 -305v837q-181 0 -307 132t-126 317t126 317t307 132h782v-218h-135v-1517h-223v1517h-201v-1517h-223z" />
    <glyph glyph-name="periodcentered" unicode="&#xb7;" horiz-adv-x="733"
d="M367 436q-89 0 -135 44.5t-46 119.5v41q0 75 46 119.5t135 44.5t134.5 -44.5t45.5 -119.5v-41q0 -75 -45.5 -119.5t-134.5 -44.5z" />
    <glyph glyph-name="cedilla" unicode="&#xb8;"
d="M643 -434q-177 0 -254 90l94 115q49 -60 135 -60q40 0 65.5 13t25.5 38q0 70 -154 82l-43 4l45 213h137l-37 -174l9 -8q62 15 98 15q66 0 107.5 -35.5t41.5 -106.5q0 -66 -40 -109.5t-98 -60t-132 -16.5z" />
    <glyph glyph-name="uni00B9" unicode="&#xb9;" horiz-adv-x="704"
d="M664 674h-564v162h191v430h-12l-125 -170l-138 98l174 236h308v-594h166v-162z" />
    <glyph glyph-name="ordmasculine" unicode="&#xba;" horiz-adv-x="886"
d="M444 664q-172 0 -269 104t-97 285t97 285t269 104t269.5 -104t97.5 -285t-97.5 -285t-269.5 -104zM444 823q71 0 109.5 42.5t38.5 127.5v119q0 85 -38.5 127.5t-109.5 42.5q-70 0 -108.5 -42.5t-38.5 -127.5v-119q0 -85 38.5 -127.5t108.5 -42.5z" />
    <glyph glyph-name="guillemotright" unicode="&#xbb;" horiz-adv-x="1142"
d="M190 100l-88 189l246 268l-246 268l88 189l381 -328v-258zM596 289l246 268l-246 268l88 189l381 -328v-258l-381 -328z" />
    <glyph glyph-name="onequarter" unicode="&#xbc;" horiz-adv-x="1714"
d="M664 674h-564v162h191v430h-12l-125 -170l-138 98l174 236h308v-594h166v-162zM233 0l1084 1430h221l-1083 -1430h-222zM1040 143v174l306 439h235v-457h94v-156h-94v-143h-201v143h-340zM1202 299h178v231h-14z" />
    <glyph glyph-name="onehalf" unicode="&#xbd;" horiz-adv-x="1759"
d="M664 674h-564v162h191v430h-12l-125 -170l-138 98l174 236h308v-594h166v-162zM455 0h-222l1084 1430h221zM1708 170v-170h-592v180l223 170q82 62 110 95t28 75v2q0 37 -26.5 53.5t-61.5 16.5q-87 0 -113 -92l-182 67q31 91 111 146t204 55q137 0 214 -64t77 -169
q0 -97 -62 -166.5t-172 -130.5l-120 -68h362z" />
    <glyph glyph-name="threequarters" unicode="&#xbe;" horiz-adv-x="1695"
d="M240 1143h69q54 0 80 16q25 16 25 39v8q0 31 -25 52.5t-67 21.5q-44 0 -88 -23t-76 -65l-127 121q57 66 125 97.5t172 31.5q144 0 225.5 -56.5t81.5 -150.5q0 -69 -45 -113.5t-111 -52.5v-8q79 -12 123.5 -57.5t44.5 -116.5q0 -103 -88.5 -164t-232.5 -61
q-123 0 -197 40.5t-121 112.5l156 119q55 -111 162 -111q47 0 74.5 22.5t27.5 59.5v4q0 66 -125 66h-63v168zM436 0h-221l1083 1430h222zM1563 0h-201v143h-340v174l305 439h236v-457h94v-156h-94v-143zM1362 299v231h-14l-164 -231h178z" />
    <glyph glyph-name="questiondown" unicode="&#xbf;" horiz-adv-x="1011"
d="M532 -379q-220 0 -348.5 116.5t-128.5 305.5q0 164 103 273t256 135v147h286v-313q-167 -6 -245 -55.5t-78 -161.5v-29q0 -76 45.5 -118t120.5 -42q77 0 129.5 48t72.5 126l250 -104q-20 -65 -53.5 -120t-87.5 -104t-136.5 -76.5t-185.5 -27.5zM553 739
q-93 0 -137.5 42.5t-44.5 113.5v49q0 71 44.5 113.5t137.5 42.5t137.5 -42.5t44.5 -113.5v-49q0 -71 -44.5 -113.5t-137.5 -42.5z" />
    <glyph glyph-name="Agrave" unicode="&#xc0;" horiz-adv-x="1402"
d="M1362 0h-324l-102 340h-477l-103 -340h-315l471 1430h385zM387 1876l252 125l203 -397l-180 -88zM532 604h328l-160 543h-10z" />
    <glyph glyph-name="Aacute" unicode="&#xc1;" horiz-adv-x="1402"
d="M1362 0h-324l-102 340h-477l-103 -340h-315l471 1430h385zM532 604h328l-160 543h-10zM547 1604l203 397l251 -125l-274 -360z" />
    <glyph glyph-name="Acircumflex" unicode="&#xc2;" horiz-adv-x="1402"
d="M1362 0h-324l-102 340h-477l-103 -340h-315l471 1430h385zM297 1632l270 326h254l271 -326l-150 -119l-248 236l-248 -236zM532 604h328l-160 543h-10z" />
    <glyph glyph-name="Atilde" unicode="&#xc3;" horiz-adv-x="1402"
d="M1362 0h-324l-102 340h-477l-103 -340h-315l471 1430h385zM860 604l-160 543h-10l-158 -543h328zM850 1561q-67 0 -158 41q-39 17 -57.5 24t-47.5 14t-55 7q-34 0 -59.5 -12t-60.5 -40l-107 140q87 131 234 131q66 0 157 -41q39 -17 57.5 -24t47.5 -14t55 -7
q34 0 60.5 11.5t60.5 39.5l106 -139q-87 -131 -233 -131z" />
    <glyph glyph-name="Adieresis" unicode="&#xc4;" horiz-adv-x="1402"
d="M1362 0h-324l-102 340h-477l-103 -340h-315l471 1430h385zM860 604l-160 543h-10l-158 -543h328zM469 1559q-164 0 -164 129v51q0 129 164 129t164 -129v-51q0 -129 -164 -129zM920 1559q-164 0 -164 129v51q0 129 164 129q163 0 163 -129v-51q0 -129 -163 -129z" />
    <glyph glyph-name="Aring" unicode="&#xc5;" horiz-adv-x="1402"
d="M1362 0h-324l-102 340h-477l-103 -340h-315l471 1430h385zM860 604l-160 543h-10l-158 -543h328zM694 1473q-128 0 -215.5 82t-87.5 210q0 129 87.5 211t215.5 82t215.5 -82t87.5 -211q0 -128 -87.5 -210t-215.5 -82zM694 1626q50 0 77.5 28.5t27.5 76.5v69
q0 48 -27.5 76.5t-77.5 28.5t-77 -28.5t-27 -76.5v-69q0 -48 27 -76.5t77 -28.5z" />
    <glyph glyph-name="AE" unicode="&#xc6;" horiz-adv-x="1982"
d="M897 0v340h-428l-160 -340h-311l698 1430h1174v-277h-664v-293h570v-274h-570v-310h664v-276h-973zM594 604h303v549h-47z" />
    <glyph glyph-name="Ccedilla" unicode="&#xc7;" horiz-adv-x="1333"
d="M735 1178q-139 0 -221 -91t-82 -258v-229q0 -167 82 -257.5t221 -90.5q109 0 179.5 58.5t105.5 154.5l254 -148q-166 -342 -529 -342l-18 -88l8 -8q62 15 99 15q66 0 107.5 -35.5t41.5 -106.5q0 -66 -40 -109.5t-98 -60t-132 -16.5q-177 0 -254 90l94 115q49 -60 135 -60
q40 0 65 13t25 38q0 70 -153 82l-43 4l28 138q-239 36 -373.5 220t-134.5 499q0 358 169.5 553.5t463.5 195.5q198 0 327.5 -81.5t207.5 -254.5l-269 -139q-31 97 -93 148t-173 51z" />
    <glyph glyph-name="Egrave" unicode="&#xc8;" horiz-adv-x="2635"
d="M2523 0h-2365v1430h2365v-277h-2054v-293h1960v-274h-1960v-310h2054v-276z" />
    <glyph glyph-name="Eacute" unicode="&#xc9;" horiz-adv-x="1243"
d="M1130 0h-972v1430h972v-277h-661v-293h567v-274h-567v-310h661v-276zM498 1604l202 397l252 -125l-274 -360z" />
    <glyph glyph-name="Ecircumflex" unicode="&#xca;" horiz-adv-x="1243"
d="M1130 0h-972v1430h972v-277h-661v-293h567v-274h-567v-310h661v-276zM248 1632l270 326h254l270 -326l-149 -119l-248 236l-248 -236z" />
    <glyph glyph-name="Edieresis" unicode="&#xcb;" horiz-adv-x="1243"
d="M1130 0h-972v1430h972v-277h-661v-293h567v-274h-567v-310h661v-276zM420 1559q-164 0 -164 129v51q0 129 164 129t164 -129v-51q0 -129 -164 -129zM870 1559q-163 0 -163 129v51q0 129 163 129q164 0 164 -129v-51q0 -129 -164 -129z" />
    <glyph glyph-name="Igrave" unicode="&#xcc;" horiz-adv-x="884"
d="M782 0h-680v248h185v934h-185v248h680v-248h-184v-934h184v-248zM137 1876l252 125l203 -397l-180 -88z" />
    <glyph glyph-name="Iacute" unicode="&#xcd;" horiz-adv-x="884"
d="M782 0h-680v248h185v934h-185v248h680v-248h-184v-934h184v-248zM297 1604l203 397l252 -125l-275 -360z" />
    <glyph glyph-name="Icircumflex" unicode="&#xce;" horiz-adv-x="884"
d="M782 0h-680v248h185v934h-185v248h680v-248h-184v-934h184v-248zM47 1632l270 326h254l271 -326l-150 -119l-248 236l-247 -236z" />
    <glyph glyph-name="Idieresis" unicode="&#xcf;" horiz-adv-x="884"
d="M782 0h-680v248h185v934h-185v248h680v-248h-184v-934h184v-248zM219 1559q-164 0 -164 129v51q0 129 164 129t164 -129v-51q0 -129 -164 -129zM670 1559q-164 0 -164 129v51q0 129 164 129t164 -129v-51q0 -129 -164 -129z" />
    <glyph glyph-name="Eth" unicode="&#xd0;" horiz-adv-x="1437"
d="M168 0v608h-154v234h154v588h539q291 0 459.5 -183.5t168.5 -531.5t-168.5 -531.5t-459.5 -183.5h-539zM479 276h228q144 0 221.5 80.5t77.5 247.5v221q0 167 -77.5 247.5t-221.5 80.5h-228v-311h244v-234h-244v-332z" />
    <glyph glyph-name="Ntilde" unicode="&#xd1;" horiz-adv-x="1482"
d="M985 0l-391 676l-137 287h-6v-963h-293v1430h340l391 -676l137 -287h6v963h293v-1430h-340zM895 1561q-67 0 -158 41q-40 17 -57.5 24t-46.5 14t-55 7q-34 0 -60.5 -12t-60.5 -40l-107 140q87 131 234 131q66 0 157 -41q39 -17 57.5 -24t47.5 -14t55 -7q34 0 60.5 11.5
t60.5 39.5l106 -139q-87 -131 -233 -131z" />
    <glyph glyph-name="Ograve" unicode="&#xd2;" horiz-adv-x="3149"
d="M1106 -25v277h1284q145 0 236.5 94.5t91.5 261.5v213q0 167 -91.5 262t-236.5 95h-1284v276h1313q291 0 459.5 -190.5t168.5 -548.5t-168.5 -549t-459.5 -191h-1313zM2044 -25h-1313q-291 0 -460 191t-169 549t169 548.5t460 190.5h1313v-276h-1284q-145 0 -236.5 -95
t-91.5 -262v-213q0 -167 91.5 -261.5t236.5 -94.5h1284v-277z" />
    <glyph glyph-name="Oacute" unicode="&#xd3;" horiz-adv-x="1462"
d="M731 -25q-291 0 -460 191t-169 549t169 548.5t460 190.5t460 -190.5t169 -548.5t-169 -549t-460 -191zM731 252q142 0 220.5 92.5t78.5 263.5v213q0 171 -78.5 264t-220.5 93t-220.5 -93t-78.5 -264v-213q0 -171 78.5 -263.5t220.5 -92.5zM1038 1876l-274 -360l-180 88
l202 397z" />
    <glyph glyph-name="Ocircumflex" unicode="&#xd4;" horiz-adv-x="1462"
d="M731 -25q-291 0 -460 191t-169 549t169 548.5t460 190.5t460 -190.5t169 -548.5t-169 -549t-460 -191zM731 252q142 0 220.5 92.5t78.5 263.5v213q0 171 -78.5 264t-220.5 93t-220.5 -93t-78.5 -264v-213q0 -171 78.5 -263.5t220.5 -92.5zM604 1958h254l270 -326
l-149 -119l-248 236l-248 -236l-149 119z" />
    <glyph glyph-name="Otilde" unicode="&#xd5;" horiz-adv-x="1462"
d="M731 -25q-291 0 -460 191t-169 549t169 548.5t460 190.5t460 -190.5t169 -548.5t-169 -549t-460 -191zM731 252q142 0 220.5 92.5t78.5 263.5v213q0 171 -78.5 264t-220.5 93t-220.5 -93t-78.5 -264v-213q0 -171 78.5 -263.5t220.5 -92.5zM887 1561q-67 0 -158 41
q-39 17 -57.5 24t-47.5 14t-55 7q-34 0 -59.5 -12t-60.5 -40l-107 140q87 131 233 131q67 0 158 -41q39 -17 57.5 -24t47.5 -14t55 -7q34 0 60.5 11.5t60.5 39.5l106 -139q-87 -131 -233 -131z" />
    <glyph glyph-name="Odieresis" unicode="&#xd6;" horiz-adv-x="1462"
d="M731 -25q-291 0 -460 191t-169 549t169 548.5t460 190.5t460 -190.5t169 -548.5t-169 -549t-460 -191zM731 252q142 0 220.5 92.5t78.5 263.5v213q0 171 -78.5 264t-220.5 93t-220.5 -93t-78.5 -264v-213q0 -171 78.5 -263.5t220.5 -92.5zM506 1559q-164 0 -164 129v51
q0 129 164 129t164 -129v-51q0 -129 -164 -129zM956 1559q-163 0 -163 129v51q0 129 163 129q164 0 164 -129v-51q0 -129 -164 -129z" />
    <glyph glyph-name="multiply" unicode="&#xd7;"
d="M899 145l-285 299l-284 -299l-168 168l284 299l-284 299l168 168l284 -299l285 299l168 -168l-285 -299l285 -299z" />
    <glyph glyph-name="Oslash" unicode="&#xd8;" horiz-adv-x="3149"
d="M1106 -25v277h1284q145 0 236.5 94.5t91.5 261.5v213q0 167 -91.5 262t-236.5 95h-1284v276h1313q291 0 459.5 -190.5t168.5 -548.5t-168.5 -549t-459.5 -191h-1313zM909 317q-177 0 -285 108.5t-108 285.5t108 285t285 108t285.5 -108t108.5 -285t-108.5 -285.5
t-285.5 -108.5zM897 475l211 227v3l-211 227l-45 -29l147 -158l-6 -12h-305v-59h305l6 -12l-147 -158zM2044 -25h-1313q-291 0 -460 191t-169 549t169 548.5t460 190.5h1313v-276h-1284q-145 0 -236.5 -95t-91.5 -262v-213q0 -167 91.5 -261.5t236.5 -94.5h1284v-277z" />
    <glyph glyph-name="Ugrave" unicode="&#xd9;" horiz-adv-x="2867"
d="M711 252v-277q-304 0 -432.5 145t-128.5 466v844h303v-877q0 -155 60.5 -228t197.5 -73zM2157 -25h-1446l-9 37v209l9 31h1446q137 0 197.5 73t60.5 228v877h303v-844q0 -321 -128.5 -466t-432.5 -145z" />
    <glyph glyph-name="Uacute" unicode="&#xda;" horiz-adv-x="1421"
d="M150 1430h303v-877q0 -155 60.5 -228t197.5 -73t197.5 73t60.5 228v877h303v-844q0 -321 -128.5 -466t-432.5 -145t-432.5 145t-128.5 466v844zM1018 1876l-275 -360l-180 88l203 397z" />
    <glyph glyph-name="Ucircumflex" unicode="&#xdb;" horiz-adv-x="1421"
d="M150 1430h303v-877q0 -155 60.5 -228t197.5 -73t197.5 73t60.5 228v877h303v-844q0 -321 -128.5 -466t-432.5 -145t-432.5 145t-128.5 466v844zM584 1958h254l270 -326l-150 -119l-247 236l-248 -236l-150 119z" />
    <glyph glyph-name="Udieresis" unicode="&#xdc;" horiz-adv-x="1421"
d="M150 1430h303v-877q0 -155 60.5 -228t197.5 -73t197.5 73t60.5 228v877h303v-844q0 -321 -128.5 -466t-432.5 -145t-432.5 145t-128.5 466v844zM485 1559q-163 0 -163 129v51q0 129 163 129q164 0 164 -129v-51q0 -129 -164 -129zM936 1559q-164 0 -164 129v51
q0 129 164 129t164 -129v-51q0 -129 -164 -129z" />
    <glyph glyph-name="Yacute" unicode="&#xdd;" horiz-adv-x="1329"
d="M821 0h-313v559l-490 871h349l307 -570h4l295 570h338l-490 -869v-561zM518 1604l203 397l252 -125l-275 -360z" />
    <glyph glyph-name="Thorn" unicode="&#xde;" horiz-adv-x="1343"
d="M469 0h-311v1430h311v-246h365q196 0 315 -127.5t119 -329.5t-119 -329.5t-315 -127.5h-365v-270zM469 913v-372h328q70 0 109.5 36.5t39.5 104.5v90q0 68 -39.5 104.5t-109.5 36.5h-328z" />
    <glyph glyph-name="germandbls" unicode="&#xdf;" horiz-adv-x="1417"
d="M1366 354q0 -172 -111.5 -275.5t-285.5 -103.5q-265 0 -381 154l172 176q47 -55 95.5 -79.5t109.5 -24.5q57 0 89.5 30t32.5 86q0 52 -30 80t-105 52l-63 20q-112 37 -171 107.5t-59 189.5q0 122 75.5 204t213.5 113v4q0 117 -55.5 172.5t-169.5 55.5t-169.5 -55.5
t-55.5 -172.5v-1087h-303v840h-152v235h152v8q0 211 142.5 334t377.5 123t373.5 -121t138.5 -332v-198h-115q-97 0 -135.5 -21t-38.5 -75q0 -46 27 -67.5t100 -47.5l63 -21q117 -37 177.5 -109t60.5 -194z" />
    <glyph glyph-name="agrave" unicode="&#xe0;" horiz-adv-x="1165"
d="M1104 0h-168q-81 0 -136 50.5t-69 137.5h-12q-24 -103 -107.5 -158t-208.5 -55q-158 0 -245.5 85t-87.5 229q0 167 120.5 251.5t339.5 84.5h170v67q0 170 -178 170q-83 0 -136 -34t-95 -93l-180 160q70 103 170.5 154t263.5 51q228 0 343.5 -100t115.5 -293v-471h100
v-236zM516 186q81 0 132.5 35t51.5 105v127h-147q-178 0 -178 -121v-31q0 -115 141 -115zM518 1186l-274 360l252 125l202 -397z" />
    <glyph glyph-name="aacute" unicode="&#xe1;" horiz-adv-x="1165"
d="M1104 0h-168q-81 0 -136 50.5t-69 137.5h-12q-24 -103 -107.5 -158t-208.5 -55q-158 0 -245.5 85t-87.5 229q0 167 120.5 251.5t339.5 84.5h170v67q0 170 -178 170q-83 0 -136 -34t-95 -93l-180 160q70 103 170.5 154t263.5 51q228 0 343.5 -100t115.5 -293v-471h100
v-236zM516 186q81 0 132.5 35t51.5 105v127h-147q-178 0 -178 -121v-31q0 -115 141 -115zM858 1546l-274 -360l-181 88l203 397z" />
    <glyph glyph-name="acircumflex" unicode="&#xe2;" horiz-adv-x="1165"
d="M1104 0h-168q-81 0 -136 50.5t-69 137.5h-12q-24 -103 -107.5 -158t-208.5 -55q-158 0 -245.5 85t-87.5 229q0 167 120.5 251.5t339.5 84.5h170v67q0 170 -178 170q-83 0 -136 -34t-95 -93l-180 160q70 103 170.5 154t263.5 51q228 0 343.5 -100t115.5 -293v-471h100
v-236zM516 186q81 0 132.5 35t51.5 105v127h-147q-178 0 -178 -121v-31q0 -115 141 -115zM424 1628h254l270 -325l-149 -119l-248 235l-248 -235l-149 119z" />
    <glyph glyph-name="atilde" unicode="&#xe3;" horiz-adv-x="1165"
d="M1104 0h-168q-81 0 -136 50.5t-69 137.5h-12q-24 -103 -107.5 -158t-208.5 -55q-158 0 -245.5 85t-87.5 229q0 167 120.5 251.5t339.5 84.5h170v67q0 170 -178 170q-83 0 -136 -34t-95 -93l-180 160q70 103 170.5 154t263.5 51q228 0 343.5 -100t115.5 -293v-471h100
v-236zM516 186q81 0 132.5 35t51.5 105v127h-147q-178 0 -178 -121v-31q0 -115 141 -115zM707 1231q-67 0 -158 41q-39 17 -57.5 24t-47.5 14t-55 7q-34 0 -60.5 -11.5t-60.5 -39.5l-106 139q87 131 233 131q67 0 158 -41q39 -17 57.5 -24t47.5 -14t55 -7q34 0 60.5 11.5
t60.5 39.5l106 -139q-87 -131 -233 -131z" />
    <glyph glyph-name="adieresis" unicode="&#xe4;" horiz-adv-x="1165"
d="M1104 0h-168q-81 0 -136 50.5t-69 137.5h-12q-24 -103 -107.5 -158t-208.5 -55q-158 0 -245.5 85t-87.5 229q0 167 120.5 251.5t339.5 84.5h170v67q0 170 -178 170q-83 0 -136 -34t-95 -93l-180 160q70 103 170.5 154t263.5 51q228 0 343.5 -100t115.5 -293v-471h100
v-236zM516 186q81 0 132.5 35t51.5 105v127h-147q-178 0 -178 -121v-31q0 -115 141 -115zM326 1229q-164 0 -164 129v51q0 129 164 129q163 0 163 -129v-51q0 -129 -163 -129zM776 1229q-164 0 -164 129v51q0 129 164 129t164 -129v-51q0 -129 -164 -129z" />
    <glyph glyph-name="aring" unicode="&#xe5;" horiz-adv-x="1165"
d="M1104 0h-168q-81 0 -136 50.5t-69 137.5h-12q-24 -103 -107.5 -158t-208.5 -55q-158 0 -245.5 85t-87.5 229q0 167 120.5 251.5t339.5 84.5h170v67q0 170 -178 170q-83 0 -136 -34t-95 -93l-180 160q70 103 170.5 154t263.5 51q228 0 343.5 -100t115.5 -293v-471h100
v-236zM516 186q81 0 132.5 35t51.5 105v127h-147q-178 0 -178 -121v-31q0 -115 141 -115zM551 1143q-128 0 -215.5 82t-87.5 211t87.5 211t215.5 82t215.5 -82t87.5 -211t-87.5 -211t-215.5 -82zM551 1296q51 0 77.5 27.5t26.5 77.5v69q0 50 -26.5 77.5t-77.5 27.5
t-78 -27.5t-27 -77.5v-69q0 -50 27 -77.5t78 -27.5z" />
    <glyph glyph-name="ae" unicode="&#xe6;" horiz-adv-x="1769"
d="M700 461h-147q-83 0 -130.5 -31t-47.5 -90v-29q0 -125 145 -125q78 0 129 35t51 105v135zM1006 639h376v18q0 102 -45.5 161t-134.5 59q-91 0 -143.5 -60.5t-52.5 -161.5v-16zM1249 217q147 0 264 125l152 -188q-73 -86 -189 -132.5t-262 -46.5q-150 0 -261.5 58.5
t-155.5 152.5h-13q-82 -211 -378 -211q-159 0 -247.5 88.5t-88.5 231.5q0 166 124.5 255t335.5 89h170v53q0 170 -178 170q-83 0 -136 -34t-95 -93l-180 160q70 103 170.5 154t263.5 51q205 0 303 -152h12q96 152 344 152q104 0 187.5 -29.5t139.5 -80t94 -121t54.5 -149.5
t16.5 -169v-90h-692v-17q0 -105 64.5 -166t180.5 -61z" />
    <glyph glyph-name="ccedilla" unicode="&#xe7;" horiz-adv-x="1058"
d="M575 1100q163 0 273 -73t158 -208l-246 -106q-14 65 -61.5 106t-123.5 41q-91 0 -138.5 -59t-47.5 -164v-201q0 -104 47.5 -162.5t138.5 -58.5q149 0 201 160l236 -103q-104 -288 -416 -297l-18 -88l8 -8q62 15 98 15q66 0 108 -35.5t42 -106.5q0 -66 -40.5 -109.5
t-98.5 -60t-132 -16.5q-177 0 -254 90l94 115q49 -60 136 -60q40 0 65 13t25 38q0 70 -154 82l-43 4l29 138q-188 35 -287.5 179.5t-99.5 373.5q0 263 131 412t370 149z" />
    <glyph glyph-name="egrave" unicode="&#xe8;" horiz-adv-x="1150"
d="M590 -25q-242 0 -379 150.5t-137 413.5q0 260 132.5 410.5t371.5 150.5q105 0 190 -29.5t141.5 -80.5t95 -121.5t55.5 -149.5t17 -168v-90h-690v-17q0 -109 59 -170t179 -61q86 0 145 33t119 96l151 -188q-73 -86 -188.5 -132.5t-261.5 -46.5zM584 877q-91 0 -144 -60.5
t-53 -161.5v-16h377v18q0 102 -45.5 161t-134.5 59zM557 1186l-274 360l252 125l202 -397z" />
    <glyph glyph-name="eacute" unicode="&#xe9;" horiz-adv-x="1150"
d="M590 -25q-242 0 -379 150.5t-137 413.5q0 260 132.5 410.5t371.5 150.5q105 0 190 -29.5t141.5 -80.5t95 -121.5t55.5 -149.5t17 -168v-90h-690v-17q0 -109 59 -170t179 -61q86 0 145 33t119 96l151 -188q-73 -86 -188.5 -132.5t-261.5 -46.5zM584 877q-91 0 -144 -60.5
t-53 -161.5v-16h377v18q0 102 -45.5 161t-134.5 59zM897 1546l-274 -360l-181 88l203 397z" />
    <glyph glyph-name="ecircumflex" unicode="&#xea;" horiz-adv-x="1150"
d="M590 -25q-242 0 -379 150.5t-137 413.5q0 260 132.5 410.5t371.5 150.5q105 0 190 -29.5t141.5 -80.5t95 -121.5t55.5 -149.5t17 -168v-90h-690v-17q0 -109 59 -170t179 -61q86 0 145 33t119 96l151 -188q-73 -86 -188.5 -132.5t-261.5 -46.5zM584 877q-91 0 -144 -60.5
t-53 -161.5v-16h377v18q0 102 -45.5 161t-134.5 59zM463 1628h254l270 -325l-149 -119l-248 235l-248 -235l-149 119z" />
    <glyph glyph-name="edieresis" unicode="&#xeb;" horiz-adv-x="1150"
d="M590 -25q-242 0 -379 150.5t-137 413.5q0 260 132.5 410.5t371.5 150.5q105 0 190 -29.5t141.5 -80.5t95 -121.5t55.5 -149.5t17 -168v-90h-690v-17q0 -109 59 -170t179 -61q86 0 145 33t119 96l151 -188q-73 -86 -188.5 -132.5t-261.5 -46.5zM584 877q-91 0 -144 -60.5
t-53 -161.5v-16h377v18q0 102 -45.5 161t-134.5 59zM365 1229q-164 0 -164 129v51q0 129 164 129q163 0 163 -129v-51q0 -129 -163 -129zM815 1229q-164 0 -164 129v51q0 129 164 129t164 -129v-51q0 -129 -164 -129z" />
    <glyph glyph-name="igrave" unicode="&#xec;" horiz-adv-x="585"
d="M444 0h-303v1075h303v-1075zM-12 1546l252 125l202 -397l-180 -88z" />
    <glyph glyph-name="iacute" unicode="&#xed;" horiz-adv-x="585"
d="M444 0h-303v1075h303v-1075zM147 1274l203 397l252 -125l-274 -360z" />
    <glyph glyph-name="icircumflex" unicode="&#xee;" horiz-adv-x="585"
d="M444 0h-303v1075h303v-1075zM-102 1303l270 325h254l270 -325l-149 -119l-248 235l-248 -235z" />
    <glyph glyph-name="idieresis" unicode="&#xef;" horiz-adv-x="585"
d="M444 0h-303v1075h303v-1075zM70 1229q-164 0 -164 129v51q0 129 164 129q163 0 163 -129v-51q0 -129 -163 -129zM520 1229q-164 0 -164 129v51q0 129 164 129t164 -129v-51q0 -129 -164 -129z" />
    <glyph glyph-name="eth" unicode="&#xf0;" horiz-adv-x="1234"
d="M879 1542l102 -123l-150 -90q306 -318 306 -760q0 -298 -138.5 -446t-382.5 -148q-252 0 -392 144t-140 399q0 232 110.5 369t294.5 137q212 0 320 -201l14 6q-56 188 -229 361l-182 -109l-105 123l164 96q-137 113 -326 216h463q17 -9 51 -35q12 -11 50 -39zM610 201
q100 0 156.5 62.5t56.5 178.5v111q0 116 -57 179t-156 63t-156 -63t-57 -179v-111q0 -116 56.5 -178.5t156.5 -62.5z" />
    <glyph glyph-name="ntilde" unicode="&#xf1;" horiz-adv-x="1220"
d="M444 0h-303v1075h303v-182h13q32 93 105.5 150t193.5 57q165 0 250.5 -110t85.5 -316v-674h-304v649q0 108 -33.5 156.5t-115.5 48.5q-80 0 -137.5 -41.5t-57.5 -116.5v-696zM770 1231q-67 0 -158 41q-40 17 -57.5 24t-46.5 14t-55 7q-34 0 -60.5 -11.5t-60.5 -39.5
l-107 139q87 131 234 131q66 0 157 -41q39 -17 57.5 -24t47.5 -14t55 -7q34 0 60.5 11.5t60.5 39.5l107 -139q-87 -131 -234 -131z" />
    <glyph glyph-name="ograve" unicode="&#xf2;" horiz-adv-x="1155"
d="M578 -25q-235 0 -369.5 149.5t-134.5 414.5q0 261 133.5 411t370.5 150t370 -150t133 -411q0 -265 -134 -414.5t-369 -149.5zM578 215q91 0 139.5 55t48.5 158v219q0 103 -48.5 158t-139.5 55t-140 -55t-49 -158v-219q0 -103 49 -158t140 -55zM545 1186l-275 360l252 125
l203 -397z" />
    <glyph glyph-name="oacute" unicode="&#xf3;" horiz-adv-x="1155"
d="M578 -25q-235 0 -369.5 149.5t-134.5 414.5q0 261 133.5 411t370.5 150t370 -150t133 -411q0 -265 -134 -414.5t-369 -149.5zM578 215q91 0 139.5 55t48.5 158v219q0 103 -48.5 158t-139.5 55t-140 -55t-49 -158v-219q0 -103 49 -158t140 -55zM885 1546l-275 -360
l-180 88l203 397z" />
    <glyph glyph-name="ocircumflex" unicode="&#xf4;" horiz-adv-x="1155"
d="M578 -25q-235 0 -369.5 149.5t-134.5 414.5q0 261 133.5 411t370.5 150t370 -150t133 -411q0 -265 -134 -414.5t-369 -149.5zM578 215q91 0 139.5 55t48.5 158v219q0 103 -48.5 158t-139.5 55t-140 -55t-49 -158v-219q0 -103 49 -158t140 -55zM451 1628h254l270 -325
l-150 -119l-247 235l-248 -235l-150 119z" />
    <glyph glyph-name="otilde" unicode="&#xf5;" horiz-adv-x="1155"
d="M578 -25q-235 0 -369.5 149.5t-134.5 414.5q0 261 133.5 411t370.5 150t370 -150t133 -411q0 -265 -134 -414.5t-369 -149.5zM578 215q91 0 139.5 55t48.5 158v219q0 103 -48.5 158t-139.5 55t-140 -55t-49 -158v-219q0 -103 49 -158t140 -55zM733 1231q-67 0 -158 41
q-40 17 -57.5 24t-46.5 14t-55 7q-34 0 -60.5 -11.5t-60.5 -39.5l-107 139q87 131 234 131q67 0 158 -41q40 -17 57.5 -24t46.5 -14t55 -7q34 0 60.5 11.5t60.5 39.5l107 -139q-87 -131 -234 -131z" />
    <glyph glyph-name="odieresis" unicode="&#xf6;" horiz-adv-x="1155"
d="M578 -25q-235 0 -369.5 149.5t-134.5 414.5q0 261 133.5 411t370.5 150t370 -150t133 -411q0 -265 -134 -414.5t-369 -149.5zM578 215q91 0 139.5 55t48.5 158v219q0 103 -48.5 158t-139.5 55t-140 -55t-49 -158v-219q0 -103 49 -158t140 -55zM352 1229q-164 0 -164 129
v51q0 129 164 129t164 -129v-51q0 -129 -164 -129zM803 1229q-164 0 -164 129v51q0 129 164 129t164 -129v-51q0 -129 -164 -129z" />
    <glyph glyph-name="divide" unicode="&#xf7;"
d="M1090 506h-953v242h953v-242zM614 57q-91 0 -134.5 40t-43.5 102v49q0 62 43.5 101.5t134.5 39.5t135 -39.5t44 -101.5v-49q0 -62 -44 -102t-135 -40zM614 860q-91 0 -134.5 39.5t-43.5 101.5v50q0 62 43.5 101.5t134.5 39.5t135 -39.5t44 -101.5v-50q0 -62 -44 -101.5
t-135 -39.5z" />
    <glyph glyph-name="oslash" unicode="&#xf8;" horiz-adv-x="1171"
d="M193 -102l-164 122l137 170q-84 141 -84 349q0 261 133.5 411t370.5 150q154 0 270 -70l123 148l164 -123l-139 -172q86 -136 86 -346q0 -261 -133.5 -411.5t-370.5 -150.5q-154 0 -271 68zM586 197q93 0 145.5 65t52.5 176v201l-329 -395q53 -47 131 -47zM387 637v-199
l328 393q-54 48 -129 48q-93 0 -146 -65.5t-53 -176.5z" />
    <glyph glyph-name="ugrave" unicode="&#xf9;" horiz-adv-x="1220"
d="M776 0v180h-10q-71 -205 -301 -205q-165 0 -250.5 109.5t-85.5 314.5v676h303v-649q0 -102 36 -153.5t118 -51.5q76 0 133 42t57 114v698h303v-1075h-303zM573 1186l-274 360l252 125l203 -397z" />
    <glyph glyph-name="uacute" unicode="&#xfa;" horiz-adv-x="1220"
d="M776 0v180h-10q-71 -205 -301 -205q-165 0 -250.5 109.5t-85.5 314.5v676h303v-649q0 -102 36 -153.5t118 -51.5q76 0 133 42t57 114v698h303v-1075h-303zM913 1546l-274 -360l-180 88l203 397z" />
    <glyph glyph-name="ucircumflex" unicode="&#xfb;" horiz-adv-x="1220"
d="M776 0v180h-10q-71 -205 -301 -205q-165 0 -250.5 109.5t-85.5 314.5v676h303v-649q0 -102 36 -153.5t118 -51.5q76 0 133 42t57 114v698h303v-1075h-303zM479 1628h254l271 -325l-150 -119l-248 235l-248 -235l-149 119z" />
    <glyph glyph-name="udieresis" unicode="&#xfc;" horiz-adv-x="1220"
d="M776 0v180h-10q-71 -205 -301 -205q-165 0 -250.5 109.5t-85.5 314.5v676h303v-649q0 -102 36 -153.5t118 -51.5q76 0 133 42t57 114v698h303v-1075h-303zM381 1229q-164 0 -164 129v51q0 129 164 129t164 -129v-51q0 -129 -164 -129zM831 1229q-163 0 -163 129v51
q0 129 163 129q164 0 164 -129v-51q0 -129 -164 -129z" />
    <glyph glyph-name="yacute" unicode="&#xfd;" horiz-adv-x="1093"
d="M641 573l158 502h282l-413 -1241q-42 -128 -118 -186t-212 -58h-188v236h202l37 119l-377 1130h301l158 -502l78 -311h12zM864 1546l-274 -360l-180 88l202 397z" />
    <glyph glyph-name="thorn" unicode="&#xfe;" horiz-adv-x="1245"
d="M141 -410v1926h303v-621h11q23 91 103.5 148t184.5 57q204 0 309 -142.5t105 -418.5t-105 -420t-309 -144q-106 0 -184 58t-104 147h-11v-590h-303zM643 221q88 0 143.5 61t55.5 162v187q0 101 -55.5 162t-143.5 61t-143.5 -43t-55.5 -115v-317q0 -72 55.5 -115
t143.5 -43z" />
    <glyph glyph-name="ydieresis" unicode="&#xff;" horiz-adv-x="1093"
d="M641 573l158 502h282l-413 -1241q-42 -128 -118 -186t-212 -58h-188v236h202l37 119l-377 1130h301l158 -502l78 -311h12zM332 1229q-164 0 -164 129v51q0 129 164 129t164 -129v-51q0 -129 -164 -129zM782 1229q-164 0 -164 129v51q0 129 164 129t164 -129v-51
q0 -129 -164 -129z" />
    <glyph glyph-name="Amacron" unicode="&#x100;" horiz-adv-x="1402"
d="M1362 0h-324l-102 340h-477l-103 -340h-315l471 1430h385zM381 1608v211h627v-211h-627zM532 604h328l-160 543h-10z" />
    <glyph glyph-name="amacron" unicode="&#x101;" horiz-adv-x="1165"
d="M1104 0h-168q-81 0 -136 50.5t-69 137.5h-12q-24 -103 -107.5 -158t-208.5 -55q-158 0 -245.5 85t-87.5 229q0 167 120.5 251.5t339.5 84.5h170v67q0 170 -178 170q-83 0 -136 -34t-95 -93l-180 160q70 103 170.5 154t263.5 51q228 0 343.5 -100t115.5 -293v-471h100
v-236zM516 186q81 0 132.5 35t51.5 105v127h-147q-178 0 -178 -121v-31q0 -115 141 -115zM238 1278v211h626v-211h-626z" />
    <glyph glyph-name="Abreve" unicode="&#x102;" horiz-adv-x="1402"
d="M1362 0h-324l-102 340h-477l-103 -340h-315l471 1430h385zM860 604l-160 543h-10l-158 -543h328zM694 1516q-71 0 -131 23t-99 56.5t-72.5 84t-51 91.5t-35.5 93l166 86l39 -66q48 -82 89 -120t95 -38t96.5 38.5t90.5 119.5l39 66l163 -86q-17 -51 -38 -95.5t-55 -92.5
t-74.5 -82t-98 -56t-123.5 -22z" />
    <glyph glyph-name="abreve" unicode="&#x103;" horiz-adv-x="1165"
d="M1104 0h-168q-81 0 -136 50.5t-69 137.5h-12q-24 -103 -107.5 -158t-208.5 -55q-158 0 -245.5 85t-87.5 229q0 167 120.5 251.5t339.5 84.5h170v67q0 170 -178 170q-83 0 -136 -34t-95 -93l-180 160q70 103 170.5 154t263.5 51q228 0 343.5 -100t115.5 -293v-471h100
v-236zM516 186q81 0 132.5 35t51.5 105v127h-147q-178 0 -178 -121v-31q0 -115 141 -115zM551 1186q-274 0 -389 348l166 86l41 -68q48 -79 89.5 -117t92.5 -38t94 38t90 117l41 68l164 -86q-21 -63 -50 -117.5t-75 -110t-114 -88t-150 -32.5z" />
    <glyph glyph-name="Aogonek" unicode="&#x104;" horiz-adv-x="1402"
d="M41 0l471 1430h385l465 -1430q-137 -86 -185.5 -129t-48.5 -86q0 -68 78 -68q59 0 113 58l108 -105q-55 -104 -249 -104q-114 0 -184 41.5t-70 132.5q0 81 58.5 137t184.5 115l-2 8h-127l-102 340h-477l-103 -340h-315zM860 604l-160 543h-10l-158 -543h328z" />
    <glyph glyph-name="aogonek" unicode="&#x105;" horiz-adv-x="1165"
d="M1104 238v-238q-137 -86 -185.5 -129t-48.5 -86q0 -68 78 -68q59 0 113 58l108 -105q-55 -104 -249 -104q-114 0 -184 41.5t-70 132.5q0 81 58.5 137t184.5 115l-4 10q-70 11 -116 60t-58 126h-12q-24 -103 -107.5 -158t-208.5 -55q-158 0 -245.5 85t-87.5 229
q0 167 120.5 251.5t339.5 84.5h170v67q0 170 -178 170q-83 0 -136 -34t-95 -93l-180 160q70 103 170.5 154t263.5 51q228 0 343.5 -100t115.5 -293v-469h100zM700 453h-147q-178 0 -178 -121v-31q0 -115 141 -115q81 0 132.5 35t51.5 105v127z" />
    <glyph glyph-name="Cacute" unicode="&#x106;" horiz-adv-x="1333"
d="M735 -25q-297 0 -465 187.5t-168 542.5q0 358 169.5 553.5t463.5 195.5q198 0 327.5 -81.5t207.5 -254.5l-269 -139q-31 97 -93 148t-173 51q-139 0 -221 -91t-82 -258v-229q0 -167 82 -257.5t221 -90.5q109 0 179.5 58.5t105.5 154.5l254 -148q-82 -169 -214 -255.5
t-325 -86.5zM1034 1876l-274 -360l-180 88l202 397z" />
    <glyph glyph-name="cacute" unicode="&#x107;" horiz-adv-x="1058"
d="M575 -25q-241 0 -371 151t-130 413q0 263 131 412t370 149q163 0 273 -73t158 -208l-246 -106q-14 65 -61.5 106t-123.5 41q-91 0 -138.5 -59t-47.5 -164v-201q0 -104 47.5 -162.5t138.5 -58.5q149 0 201 160l236 -103q-104 -297 -437 -297zM870 1546l-274 -360l-180 88
l202 397z" />
    <glyph glyph-name="Ccircumflex" unicode="&#x108;" horiz-adv-x="1333"
d="M735 -25q-297 0 -465 187.5t-168 542.5q0 358 169.5 553.5t463.5 195.5q198 0 327.5 -81.5t207.5 -254.5l-269 -139q-31 97 -93 148t-173 51q-139 0 -221 -91t-82 -258v-229q0 -167 82 -257.5t221 -90.5q109 0 179.5 58.5t105.5 154.5l254 -148q-82 -169 -214 -255.5
t-325 -86.5zM600 1958h254l270 -326l-149 -119l-248 236l-248 -236l-149 119z" />
    <glyph glyph-name="ccircumflex" unicode="&#x109;" horiz-adv-x="1058"
d="M575 -25q-241 0 -371 151t-130 413q0 263 131 412t370 149q163 0 273 -73t158 -208l-246 -106q-14 65 -61.5 106t-123.5 41q-91 0 -138.5 -59t-47.5 -164v-201q0 -104 47.5 -162.5t138.5 -58.5q149 0 201 160l236 -103q-104 -297 -437 -297zM436 1628h254l271 -325
l-150 -119l-248 235l-248 -235l-149 119z" />
    <glyph glyph-name="Cdotaccent" unicode="&#x10a;" horiz-adv-x="1333"
d="M735 -25q-297 0 -465 187.5t-168 542.5q0 358 169.5 553.5t463.5 195.5q198 0 327.5 -81.5t207.5 -254.5l-269 -139q-31 97 -93 148t-173 51q-139 0 -221 -91t-82 -258v-229q0 -167 82 -257.5t221 -90.5q109 0 179.5 58.5t105.5 154.5l254 -148q-82 -169 -214 -255.5
t-325 -86.5zM727 1540q-182 0 -182 143v60q0 143 182 143t182 -143v-60q0 -143 -182 -143z" />
    <glyph glyph-name="cdotaccent" unicode="&#x10b;" horiz-adv-x="1058"
d="M575 -25q-241 0 -371 151t-130 413q0 263 131 412t370 149q163 0 273 -73t158 -208l-246 -106q-14 65 -61.5 106t-123.5 41q-91 0 -138.5 -59t-47.5 -164v-201q0 -104 47.5 -162.5t138.5 -58.5q149 0 201 160l236 -103q-104 -297 -437 -297zM563 1210q-182 0 -182 144v59
q0 143 182 143t182 -143v-59q0 -144 -182 -144z" />
    <glyph glyph-name="Ccaron" unicode="&#x10c;" horiz-adv-x="1333"
d="M735 -25q-297 0 -465 187.5t-168 542.5q0 358 169.5 553.5t463.5 195.5q198 0 327.5 -81.5t207.5 -254.5l-269 -139q-31 97 -93 148t-173 51q-139 0 -221 -91t-82 -258v-229q0 -167 82 -257.5t221 -90.5q109 0 179.5 58.5t105.5 154.5l254 -148q-82 -169 -214 -255.5
t-325 -86.5zM854 1532h-254l-270 326l149 118l248 -235l248 235l149 -118z" />
    <glyph glyph-name="ccaron" unicode="&#x10d;" horiz-adv-x="1058"
d="M575 -25q-241 0 -371 151t-130 413q0 263 131 412t370 149q163 0 273 -73t158 -208l-246 -106q-14 65 -61.5 106t-123.5 41q-91 0 -138.5 -59t-47.5 -164v-201q0 -104 47.5 -162.5t138.5 -58.5q149 0 201 160l236 -103q-104 -297 -437 -297zM690 1202h-254l-270 326
l149 119l248 -236l248 236l150 -119z" />
    <glyph glyph-name="Dcaron" unicode="&#x10e;" horiz-adv-x="1427"
d="M158 0v1430h538q292 0 460.5 -183.5t168.5 -531.5t-168.5 -531.5t-460.5 -183.5h-538zM469 276h227q144 0 221.5 80.5t77.5 247.5v221q0 167 -77.5 247.5t-221.5 80.5h-227v-877zM788 1532h-253l-271 326l150 118l248 -235l247 235l150 -118z" />
    <glyph glyph-name="dcaron" unicode="&#x10f;" horiz-adv-x="1396"
d="M801 0v180h-10q-25 -89 -104 -147t-185 -58q-204 0 -309 144t-105 420t105 418.5t309 142.5q104 0 185 -57t104 -148h10v621h303v-1516h-303zM602 221q88 0 143.5 43t55.5 115v317q0 72 -55.5 115t-143.5 43t-143.5 -61t-55.5 -162v-187q0 -101 55.5 -162t143.5 -61z
M1567 1516l-135 -441h-199l12 441h322z" />
    <glyph glyph-name="Dcroat" unicode="&#x110;" horiz-adv-x="1437"
d="M168 0v608h-154v234h154v588h539q291 0 459.5 -183.5t168.5 -531.5t-168.5 -531.5t-459.5 -183.5h-539zM479 276h228q144 0 221.5 80.5t77.5 247.5v221q0 167 -77.5 247.5t-221.5 80.5h-228v-311h244v-234h-244v-332z" />
    <glyph glyph-name="dcroat" unicode="&#x111;" horiz-adv-x="1251"
d="M801 0v180h-10q-25 -89 -104 -147t-185 -58q-204 0 -309 144t-105 420t105 418.5t309 142.5q104 0 185 -57t104 -148h10v313h-289v205h289v103h303v-103h125v-205h-125v-1208h-303zM602 221q88 0 143.5 43t55.5 115v317q0 72 -55.5 115t-143.5 43t-143.5 -61t-55.5 -162
v-187q0 -101 55.5 -162t143.5 -61z" />
    <glyph glyph-name="Emacron" unicode="&#x112;" horiz-adv-x="1243"
d="M1130 0h-972v1430h972v-277h-661v-293h567v-274h-567v-310h661v-276zM332 1608v211h626v-211h-626z" />
    <glyph glyph-name="emacron" unicode="&#x113;" horiz-adv-x="1150"
d="M590 -25q-242 0 -379 150.5t-137 413.5q0 260 132.5 410.5t371.5 150.5q105 0 190 -29.5t141.5 -80.5t95 -121.5t55.5 -149.5t17 -168v-90h-690v-17q0 -109 59 -170t179 -61q86 0 145 33t119 96l151 -188q-73 -86 -188.5 -132.5t-261.5 -46.5zM584 877q-91 0 -144 -60.5
t-53 -161.5v-16h377v18q0 102 -45.5 161t-134.5 59zM276 1278v211h627v-211h-627z" />
    <glyph glyph-name="Ebreve" unicode="&#x114;" horiz-adv-x="1243"
d="M1130 0h-972v1430h972v-277h-661v-293h567v-274h-567v-310h661v-276zM645 1516q-71 0 -131 23t-99 56.5t-72.5 84t-51 91.5t-35.5 93l166 86l39 -66q48 -82 89 -120t95 -38t96 38.5t90 119.5l39 66l164 -86q-17 -51 -38 -95.5t-55 -92.5t-74.5 -82t-98 -56t-123.5 -22z
" />
    <glyph glyph-name="ebreve" unicode="&#x115;" horiz-adv-x="1150"
d="M590 -25q-242 0 -379 150.5t-137 413.5q0 260 132.5 410.5t371.5 150.5q105 0 190 -29.5t141.5 -80.5t95 -121.5t55.5 -149.5t17 -168v-90h-690v-17q0 -109 59 -170t179 -61q86 0 145 33t119 96l151 -188q-73 -86 -188.5 -132.5t-261.5 -46.5zM584 877q-91 0 -144 -60.5
t-53 -161.5v-16h377v18q0 102 -45.5 161t-134.5 59zM590 1186q-274 0 -389 348l166 86l41 -68q48 -79 89.5 -117t92.5 -38t94 38t90 117l41 68l164 -86q-21 -63 -50 -117.5t-75 -110t-114 -88t-150 -32.5z" />
    <glyph glyph-name="Edotaccent" unicode="&#x116;" horiz-adv-x="1243"
d="M1130 0h-972v1430h972v-277h-661v-293h567v-274h-567v-310h661v-276zM645 1540q-182 0 -182 143v60q0 143 182 143t182 -143v-60q0 -143 -182 -143z" />
    <glyph glyph-name="edotaccent" unicode="&#x117;" horiz-adv-x="1150"
d="M590 -25q-242 0 -379 150.5t-137 413.5q0 260 132.5 410.5t371.5 150.5q105 0 190 -29.5t141.5 -80.5t95 -121.5t55.5 -149.5t17 -168v-90h-690v-17q0 -109 59 -170t179 -61q86 0 145 33t119 96l151 -188q-73 -86 -188.5 -132.5t-261.5 -46.5zM584 877q-91 0 -144 -60.5
t-53 -161.5v-16h377v18q0 102 -45.5 161t-134.5 59zM590 1210q-182 0 -182 144v59q0 143 182 143t182 -143v-59q0 -144 -182 -144z" />
    <glyph glyph-name="Eogonek" unicode="&#x118;" horiz-adv-x="1243"
d="M158 0v1430h972v-277h-661v-293h567v-274h-567v-310h661v-276q-132 -82 -181.5 -127t-49.5 -88q0 -68 78 -68q59 0 113 58l108 -105q-55 -104 -250 -104q-114 0 -184 41.5t-70 132.5q0 81 59 137t185 115l-2 8h-778z" />
    <glyph glyph-name="eogonek" unicode="&#x119;" horiz-adv-x="1150"
d="M688 -434q-72 0 -125.5 15.5t-89 55t-35.5 101.5q0 80 57.5 132t176.5 105l-2 9q-44 -9 -90 -9q-242 0 -374 152.5t-132 411.5q0 260 132.5 410.5t371.5 150.5q105 0 190 -29.5t141.5 -80.5t95 -121.5t55.5 -149.5t17 -168v-90h-690v-17q0 -109 60.5 -170t181.5 -61
q141 0 262 129l151 -188q-19 -24 -73 -66q-9 -7 -146 -108q-84 -61 -135 -109q-47 -44 -47 -88q0 -33 22 -49.5t56 -16.5q56 0 110 58l107 -105q-55 -104 -248 -104zM387 639h377v18q0 102 -45.5 161t-134.5 59q-91 0 -144 -60.5t-53 -161.5v-16z" />
    <glyph glyph-name="Ecaron" unicode="&#x11a;" horiz-adv-x="1243"
d="M1130 0h-972v1430h972v-277h-661v-293h567v-274h-567v-310h661v-276zM248 1858l149 118l248 -235l248 235l149 -118l-270 -326h-254z" />
    <glyph glyph-name="ecaron" unicode="&#x11b;" horiz-adv-x="1150"
d="M590 -25q-242 0 -379 150.5t-137 413.5q0 260 132.5 410.5t371.5 150.5q105 0 190 -29.5t141.5 -80.5t95 -121.5t55.5 -149.5t17 -168v-90h-690v-17q0 -109 59 -170t179 -61q86 0 145 33t119 96l151 -188q-73 -86 -188.5 -132.5t-261.5 -46.5zM584 877q-91 0 -144 -60.5
t-53 -161.5v-16h377v18q0 102 -45.5 161t-134.5 59zM717 1202h-254l-270 326l149 119l248 -236l248 236l149 -119z" />
    <glyph glyph-name="Gcircumflex" unicode="&#x11c;" horiz-adv-x="1472"
d="M1065 0v227h-10q-18 -113 -114 -182.5t-253 -69.5q-255 0 -416 187q-170 197 -170 547q0 352 176.5 548.5t471.5 196.5q391 0 550 -332l-253 -145q-76 201 -297 201q-151 0 -234.5 -87t-83.5 -262v-229q0 -174 83.5 -261t234.5 -87q122 0 201 56t79 157v72h-266v260h563
v-797h-262zM606 1958h254l270 -326l-149 -119l-248 236l-248 -236l-149 119z" />
    <glyph glyph-name="gcircumflex" unicode="&#x11d;" horiz-adv-x="1150"
d="M1137 -78q0 -178 -127 -264q-136 -92 -455 -92q-269 0 -389.5 63t-120.5 187q0 89 52.5 140.5t148.5 63.5v23q-75 13 -115.5 64.5t-40.5 123.5q0 81 58 127t143 64v8q-193 87 -193 307q0 169 117 266t344 97q115 0 203 -25h356v-203h-131q33 -56 33 -135
q0 -166 -117 -261t-344 -95q-100 0 -190 22q-47 -30 -47 -86q0 -81 129 -81h311q375 0 375 -314zM559 580q178 0 178 147v25q0 147 -178 147t-178 -147v-25q0 -147 178 -147zM852 -119q0 49 -38 72.5t-128 23.5h-369q-38 -38 -38 -96q0 -62 51 -88t174 -26h123q123 0 174 26
t51 88zM444 1628h254l271 -325l-150 -119l-248 235l-247 -235l-150 119z" />
    <glyph glyph-name="Gbreve" unicode="&#x11e;" horiz-adv-x="1472"
d="M1065 0v227h-10q-18 -113 -114 -182.5t-253 -69.5q-255 0 -416 187q-170 197 -170 547q0 352 176.5 548.5t471.5 196.5q391 0 550 -332l-253 -145q-76 201 -297 201q-151 0 -234.5 -87t-83.5 -262v-229q0 -174 83.5 -261t234.5 -87q122 0 201 56t79 157v72h-266v260h563
v-797h-262zM733 1516q-71 0 -131 23t-99 56.5t-72.5 84t-51 91.5t-35.5 93l166 86l39 -66q48 -82 89 -120t95 -38t96.5 38.5t90.5 119.5l38 66l164 -86q-17 -51 -38 -95.5t-55 -92.5t-74.5 -82t-98 -56t-123.5 -22z" />
    <glyph glyph-name="gbreve" unicode="&#x11f;" horiz-adv-x="1150"
d="M1137 -78q0 -178 -127 -264q-136 -92 -455 -92q-269 0 -389.5 63t-120.5 187q0 89 52.5 140.5t148.5 63.5v23q-75 13 -115.5 64.5t-40.5 123.5q0 81 58 127t143 64v8q-193 87 -193 307q0 169 117 266t344 97q115 0 203 -25h356v-203h-131q33 -56 33 -135
q0 -166 -117 -261t-344 -95q-100 0 -190 22q-47 -30 -47 -86q0 -81 129 -81h311q375 0 375 -314zM559 580q178 0 178 147v25q0 147 -178 147t-178 -147v-25q0 -147 178 -147zM852 -119q0 49 -38 72.5t-128 23.5h-369q-38 -38 -38 -96q0 -62 51 -88t174 -26h123q123 0 174 26
t51 88zM571 1186q-274 0 -389 348l166 86l41 -68q48 -79 89.5 -117t92.5 -38t94.5 38.5t90.5 116.5l41 68l164 -86q-16 -49 -37 -93t-55 -92.5t-75 -83t-99 -57t-124 -22.5z" />
    <glyph glyph-name="Gdotaccent" unicode="&#x120;" horiz-adv-x="1472"
d="M1065 0v227h-10q-18 -113 -114 -182.5t-253 -69.5q-255 0 -416 187q-170 197 -170 547q0 352 176.5 548.5t471.5 196.5q391 0 550 -332l-253 -145q-76 201 -297 201q-151 0 -234.5 -87t-83.5 -262v-229q0 -174 83.5 -261t234.5 -87q122 0 201 56t79 157v72h-266v260h563
v-797h-262zM733 1540q-182 0 -182 143v60q0 143 182 143t182 -143v-60q0 -143 -182 -143z" />
    <glyph glyph-name="gdotaccent" unicode="&#x121;" horiz-adv-x="1150"
d="M1137 -78q0 -178 -127 -264q-136 -92 -455 -92q-269 0 -389.5 63t-120.5 187q0 89 52.5 140.5t148.5 63.5v23q-75 13 -115.5 64.5t-40.5 123.5q0 81 58 127t143 64v8q-193 87 -193 307q0 169 117 266t344 97q115 0 203 -25h356v-203h-131q33 -56 33 -135
q0 -166 -117 -261t-344 -95q-100 0 -190 22q-47 -30 -47 -86q0 -81 129 -81h311q375 0 375 -314zM559 580q178 0 178 147v25q0 147 -178 147t-178 -147v-25q0 -147 178 -147zM852 -119q0 49 -38 72.5t-128 23.5h-369q-38 -38 -38 -96q0 -62 51 -88t174 -26h123q123 0 174 26
t51 88zM563 1210q-182 0 -182 144v59q0 143 182 143t182 -143v-59q0 -144 -182 -144z" />
    <glyph glyph-name="uni0122" unicode="&#x122;" horiz-adv-x="1472"
d="M1065 0v227h-10q-18 -113 -114 -182.5t-253 -69.5q-255 0 -416 187q-170 197 -170 547q0 352 176.5 548.5t471.5 196.5q391 0 550 -332l-253 -145q-76 201 -297 201q-151 0 -234.5 -87t-83.5 -262v-229q0 -174 83.5 -261t234.5 -87q122 0 201 56t79 157v72h-266v260h563
v-797h-262zM713 -86q68 0 105.5 -33t37.5 -94v-29q0 -93 -38 -181t-99 -140h-174q51 42 80 89.5t47 113.5q-103 8 -103 124v23q0 61 38 94t106 33z" />
    <glyph glyph-name="uni0123" unicode="&#x123;" horiz-adv-x="1150"
d="M1137 -78q0 -178 -127 -264q-136 -92 -455 -92q-269 0 -389.5 63t-120.5 187q0 89 52.5 140.5t148.5 63.5v23q-75 13 -115.5 64.5t-40.5 123.5q0 81 58 127t143 64v8q-193 87 -193 307q0 169 117 266t344 97q115 0 203 -25h356v-203h-131q33 -56 33 -135
q0 -166 -117 -261t-344 -95q-100 0 -190 22q-47 -30 -47 -86q0 -81 129 -81h311q375 0 375 -314zM559 580q178 0 178 147v25q0 147 -178 147t-178 -147v-25q0 -147 178 -147zM852 -119q0 49 -38 72.5t-128 23.5h-369q-38 -38 -38 -96q0 -62 51 -88t174 -26h123q123 0 174 26
t51 88zM565 1180q-68 0 -105.5 33t-37.5 94v28q0 93 38 181.5t99 140.5h174q-51 -42 -80 -89.5t-47 -113.5q103 -8 103 -125v-22q0 -61 -38 -94t-106 -33z" />
    <glyph glyph-name="Hcircumflex" unicode="&#x124;" horiz-adv-x="1482"
d="M1014 0v586h-545v-586h-311v1430h311v-570h545v570h311v-1430h-311zM344 1632l270 326h254l271 -326l-150 -119l-248 236l-247 -236z" />
    <glyph glyph-name="hcircumflex" unicode="&#x125;" horiz-adv-x="1220"
d="M141 0v1516h303v-623h13q32 93 105.5 150t193.5 57q165 0 250.5 -110t85.5 -316v-674h-304v649q0 108 -33.5 156.5t-115.5 48.5q-80 0 -137.5 -41.5t-57.5 -116.5v-696h-303zM168 1952h254l270 -326l-149 -119l-248 236l-248 -236l-149 119z" />
    <glyph glyph-name="Hbar" unicode="&#x126;" horiz-adv-x="1503"
d="M1024 0v586h-545v-586h-311v1036h-152v234h152v160h311v-160h545v160h311v-160h152v-234h-152v-1036h-311zM479 860h545v176h-545v-176z" />
    <glyph glyph-name="hbar" unicode="&#x127;" horiz-adv-x="1220"
d="M444 0h-303v1208h-127v205h127v103h303v-103h287v-205h-287v-315h13q32 93 105.5 150t193.5 57q165 0 250.5 -110t85.5 -316v-674h-304v649q0 108 -33.5 156.5t-115.5 48.5q-80 0 -137.5 -41.5t-57.5 -116.5v-696z" />
    <glyph glyph-name="Itilde" unicode="&#x128;" horiz-adv-x="884"
d="M782 0h-680v248h185v934h-185v248h680v-248h-184v-934h184v-248zM600 1561q-67 0 -158 41q-40 17 -57.5 24t-46.5 14t-55 7q-34 0 -60.5 -12t-60.5 -40l-107 140q87 131 234 131q66 0 157 -41q39 -17 57.5 -24t47.5 -14t55 -7q34 0 60.5 11.5t60.5 39.5l107 -139
q-87 -131 -234 -131z" />
    <glyph glyph-name="itilde" unicode="&#x129;" horiz-adv-x="585"
d="M444 0h-303v1075h303v-1075zM451 1231q-67 0 -158 41q-39 17 -57.5 24t-47.5 14t-55 7q-34 0 -60.5 -11.5t-60.5 -39.5l-106 139q87 131 233 131q67 0 158 -41q39 -17 57.5 -24t47.5 -14t55 -7q34 0 60.5 11.5t60.5 39.5l106 -139q-87 -131 -233 -131z" />
    <glyph glyph-name="Imacron" unicode="&#x12a;" horiz-adv-x="884"
d="M782 0h-680v248h185v934h-185v248h680v-248h-184v-934h184v-248zM131 1608v211h627v-211h-627z" />
    <glyph glyph-name="imacron" unicode="&#x12b;" horiz-adv-x="585"
d="M444 0h-303v1075h303v-1075zM-18 1278v211h626v-211h-626z" />
    <glyph glyph-name="Ibreve" unicode="&#x12c;" horiz-adv-x="884"
d="M782 0h-680v248h185v934h-185v248h680v-248h-184v-934h184v-248zM444 1516q-71 0 -131 23t-99 56.5t-72.5 84t-51 91.5t-35.5 93l166 86l39 -66q48 -82 89 -120t95 -38t96.5 38.5t90.5 119.5l39 66l164 -86q-17 -50 -38 -95t-55.5 -93t-75 -82t-98 -56t-123.5 -22z" />
    <glyph glyph-name="ibreve" unicode="&#x12d;" horiz-adv-x="585"
d="M444 0h-303v1075h303v-1075zM295 1186q-274 0 -389 348l166 86l41 -68q48 -79 89.5 -117t92.5 -38t94 38t90 117l41 68l164 -86q-21 -63 -50 -117.5t-75 -110t-114 -88t-150 -32.5z" />
    <glyph glyph-name="Iogonek" unicode="&#x12e;" horiz-adv-x="884"
d="M102 0v248h185v934h-185v248h682v-248h-186v-934h186v-248q-136 -85 -184.5 -128.5t-48.5 -86.5q0 -68 78 -68q58 0 112 58l109 -105q-55 -104 -250 -104q-114 0 -184 41.5t-70 132.5q0 81 59 137t185 115l-2 8h-486z" />
    <glyph glyph-name="iogonek" unicode="&#x12f;" horiz-adv-x="585"
d="M141 0v1075h303v-1075q-136 -85 -184.5 -128.5t-48.5 -86.5q0 -68 78 -68q58 0 112 58l109 -105q-55 -104 -250 -104q-114 0 -184 41.5t-70 132.5q0 81 59 137t185 115l-2 8h-107zM293 1190q-89 0 -132.5 40t-43.5 109v45q0 69 43.5 109.5t132.5 40.5t132.5 -40.5
t43.5 -109.5v-45q0 -69 -43.5 -109t-132.5 -40z" />
    <glyph glyph-name="Idotaccent" unicode="&#x130;" horiz-adv-x="884"
d="M782 0h-680v248h185v934h-185v248h680v-248h-184v-934h184v-248zM444 1540q-182 0 -182 143v60q0 143 182 143q183 0 183 -143v-60q0 -143 -183 -143z" />
    <glyph glyph-name="dotlessi" unicode="&#x131;" horiz-adv-x="585"
d="M444 0h-303v1075h303v-1075z" />
    <glyph glyph-name="IJ" unicode="&#x132;" horiz-adv-x="1343"
d="M702 1430h492v-1000q0 -209 -141.5 -331t-376.5 -122q-220 0 -350 107.5t-162 294.5l291 57q17 -91 73.5 -138.5t145.5 -47.5q86 0 147.5 49t61.5 150v731h-181v250zM150 633v797h311v-797h-311z" />
    <glyph glyph-name="ij" unicode="&#x133;" horiz-adv-x="1159"
d="M293 1190q-89 0 -132.5 40t-43.5 109v45q0 69 43.5 109.5t132.5 40.5t132.5 -40.5t43.5 -109.5v-45q0 -69 -43.5 -109t-132.5 -40zM141 0v1075h303v-1075h-303zM715 -174v1249h303v-1190q0 -146 -73.5 -220.5t-229.5 -74.5h-160v236h160zM866 1190q-89 0 -132.5 40
t-43.5 109v45q0 69 43.5 109.5t132.5 40.5t132.5 -40.5t43.5 -109.5v-45q0 -69 -43.5 -109t-132.5 -40z" />
    <glyph glyph-name="Jcircumflex" unicode="&#x134;" horiz-adv-x="1144"
d="M250 1430h745v-1016q0 -203 -128.5 -320t-342.5 -117q-199 0 -320.5 105t-152.5 297l291 57q34 -186 178 -186q72 0 118 45t46 133v752h-434v250zM494 1958h254l270 -326l-150 -119l-247 236l-248 -236l-150 119z" />
    <glyph glyph-name="jcircumflex" unicode="&#x135;" horiz-adv-x="585"
d="M-18 -410v236h159v1249h303v-1190q0 -146 -73.5 -220.5t-229.5 -74.5h-159zM168 1628h254l270 -325l-149 -119l-248 235l-248 -235l-149 119z" />
    <glyph glyph-name="uni0136" unicode="&#x136;" horiz-adv-x="1425"
d="M1034 0l-379 623l-186 -226v-397h-311v1430h311v-680h12l203 276l322 404h352l-481 -588l524 -842h-367zM745 -86q68 0 106 -33t38 -94v-29q0 -93 -38 -181t-99 -140h-174q51 42 80 89.5t47 113.5q-103 8 -103 124v23q0 61 37.5 94t105.5 33z" />
    <glyph glyph-name="uni0137" unicode="&#x137;" horiz-adv-x="1181"
d="M141 0v1516h303v-895h13l133 198l215 256h336l-359 -411l400 -664h-361l-241 455l-136 -152v-303h-303zM662 -86q68 0 105.5 -33t37.5 -94v-29q0 -93 -38 -181t-99 -140h-174q51 42 80 89.5t47 113.5q-103 8 -103 124v23q0 61 38 94t106 33z" />
    <glyph glyph-name="kgreenlandic" unicode="&#x138;" horiz-adv-x="1181"
d="M827 0l-249 449l-134 -146v-303h-303v1075h303v-454h13l141 190l231 264h340l-381 -420l394 -655h-355z" />
    <glyph glyph-name="Lacute" unicode="&#x139;" horiz-adv-x="1085"
d="M1014 0h-856v1430h311v-1154h545v-276zM168 1604l203 397l252 -125l-275 -360z" />
    <glyph glyph-name="lacute" unicode="&#x13a;" horiz-adv-x="620"
d="M580 0h-138q-301 0 -301 295v1221h303v-1280h136v-236zM602 1956l-274 -361l-181 88l203 398z" />
    <glyph glyph-name="uni013B" unicode="&#x13b;" horiz-adv-x="1085"
d="M1014 0h-856v1430h311v-1154h545v-276zM584 -86q68 0 105.5 -33t37.5 -94v-29q0 -93 -38 -181t-99 -140h-174q51 42 80 89.5t47 113.5q-103 8 -103 124v23q0 61 38 94t106 33z" />
    <glyph glyph-name="uni013C" unicode="&#x13c;" horiz-adv-x="620"
d="M580 0h-138q-301 0 -301 295v1221h303v-1280h136v-236zM356 -86q68 0 106 -33t38 -94v-29q0 -93 -38.5 -181t-99.5 -140h-174q51 42 80 89.5t47 113.5q-102 8 -102 124v23q0 61 37.5 94t105.5 33z" />
    <glyph glyph-name="Lcaron" unicode="&#x13d;" horiz-adv-x="1085"
d="M1014 0h-856v1430h311v-1154h545v-276zM616 1075l13 441h321l-135 -441h-199z" />
    <glyph glyph-name="lcaron" unicode="&#x13e;" horiz-adv-x="737"
d="M580 0h-138q-301 0 -301 295v1221h303v-1280h136v-236zM907 1516l-135 -441h-199l13 441h321z" />
    <glyph glyph-name="Ldot" unicode="&#x13f;" horiz-adv-x="1085"
d="M1014 0h-856v1430h311v-1154h545v-276zM848 659q-182 0 -182 144v59q0 144 182 144t182 -144v-59q0 -144 -182 -144z" />
    <glyph glyph-name="ldot" unicode="&#x140;" horiz-adv-x="917"
d="M580 0h-138q-301 0 -301 295v1221h303v-1280h136v-236zM743 561q-182 0 -182 144v59q0 143 182 143q183 0 183 -143v-59q0 -66 -43 -105t-140 -39z" />
    <glyph glyph-name="Lslash" unicode="&#x141;" horiz-adv-x="1105"
d="M1024 276v-276h-856v498l-182 -60v232l182 59v701h311v-603l324 105v-232l-324 -104v-320h545z" />
    <glyph glyph-name="lslash" unicode="&#x142;" horiz-adv-x="643"
d="M592 236v-236h-137q-301 0 -301 295v309l-158 -51v223l158 51v689h303v-590l213 69v-223l-213 -70v-466h135z" />
    <glyph glyph-name="Nacute" unicode="&#x143;" horiz-adv-x="1482"
d="M985 0l-391 676l-137 287h-6v-963h-293v1430h340l391 -676l137 -287h6v963h293v-1430h-340zM592 1604l203 397l252 -125l-275 -360z" />
    <glyph glyph-name="nacute" unicode="&#x144;" horiz-adv-x="1220"
d="M444 0h-303v1075h303v-182h13q32 93 105.5 150t193.5 57q165 0 250.5 -110t85.5 -316v-674h-304v649q0 108 -33.5 156.5t-115.5 48.5q-80 0 -137.5 -41.5t-57.5 -116.5v-696zM922 1546l-275 -360l-180 88l203 397z" />
    <glyph glyph-name="uni0145" unicode="&#x145;" horiz-adv-x="1482"
d="M985 0l-391 676l-137 287h-6v-963h-293v1430h340l391 -676l137 -287h6v963h293v-1430h-340zM737 -86q68 0 106 -33t38 -94v-29q0 -93 -38.5 -181t-99.5 -140h-174q51 42 80 89.5t47 113.5q-102 8 -102 124v23q0 61 37.5 94t105.5 33z" />
    <glyph glyph-name="uni0146" unicode="&#x146;" horiz-adv-x="1220"
d="M444 0h-303v1075h303v-182h13q32 93 105.5 150t193.5 57q165 0 250.5 -110t85.5 -316v-674h-304v649q0 108 -33.5 156.5t-115.5 48.5q-80 0 -137.5 -41.5t-57.5 -116.5v-696zM616 -86q68 0 106 -33t38 -94v-29q0 -93 -38 -181t-99 -140h-174q90 73 126 203
q-102 8 -102 124v23q0 61 37.5 94t105.5 33z" />
    <glyph glyph-name="Ncaron" unicode="&#x147;" horiz-adv-x="1482"
d="M985 0l-391 676l-137 287h-6v-963h-293v1430h340l391 -676l137 -287h6v963h293v-1430h-340zM342 1858l150 118l247 -235l248 235l150 -118l-271 -326h-254z" />
    <glyph glyph-name="ncaron" unicode="&#x148;" horiz-adv-x="1220"
d="M444 0h-303v1075h303v-182h13q32 93 105.5 150t193.5 57q165 0 250.5 -110t85.5 -316v-674h-304v649q0 108 -33.5 156.5t-115.5 48.5q-80 0 -137.5 -41.5t-57.5 -116.5v-696zM741 1202h-254l-270 326l150 119l247 -236l248 236l150 -119z" />
    <glyph glyph-name="napostrophe" unicode="&#x149;" horiz-adv-x="1814"
d="M311 1536q88 0 132 -40t44 -107v-43q0 -117 -63.5 -233t-159.5 -191h-190q146 133 188 266q-63 12 -95 52t-32 97v52q0 67 44 107t132 40zM1038 0h-303v1075h303v-182h13q32 93 105.5 150t193.5 57q165 0 250.5 -110t85.5 -316v-674h-304v649q0 108 -33.5 156.5
t-115.5 48.5q-80 0 -137.5 -41.5t-57.5 -116.5v-696z" />
    <glyph glyph-name="Eng" unicode="&#x14a;" horiz-adv-x="1482"
d="M451 0h-293v1430h340l391 -676l137 -287h6v963h293v-1545q0 -295 -303 -295h-162v236h172v174h-47l-391 676l-137 287h-6v-963z" />
    <glyph glyph-name="eng" unicode="&#x14b;" horiz-adv-x="1220"
d="M629 -410v236h159v823q0 108 -33.5 156.5t-115.5 48.5q-83 0 -139 -41t-56 -117v-696h-303v1075h303v-182h13q32 93 105.5 150t193.5 57q165 0 250.5 -110t85.5 -316v-789q0 -146 -73 -220.5t-228 -74.5h-162z" />
    <glyph glyph-name="Omacron" unicode="&#x14c;" horiz-adv-x="1462"
d="M731 -25q-291 0 -460 191t-169 549t169 548.5t460 190.5t460 -190.5t169 -548.5t-169 -549t-460 -191zM731 252q142 0 220.5 92.5t78.5 263.5v213q0 171 -78.5 264t-220.5 93t-220.5 -93t-78.5 -264v-213q0 -171 78.5 -263.5t220.5 -92.5zM418 1608v211h626v-211h-626z
" />
    <glyph glyph-name="omacron" unicode="&#x14d;" horiz-adv-x="1155"
d="M578 -25q-235 0 -369.5 149.5t-134.5 414.5q0 261 133.5 411t370.5 150t370 -150t133 -411q0 -265 -134 -414.5t-369 -149.5zM578 215q91 0 139.5 55t48.5 158v219q0 103 -48.5 158t-139.5 55t-140 -55t-49 -158v-219q0 -103 49 -158t140 -55zM264 1278v211h627v-211
h-627z" />
    <glyph glyph-name="Obreve" unicode="&#x14e;" horiz-adv-x="1462"
d="M731 -25q-291 0 -460 191t-169 549t169 548.5t460 190.5t460 -190.5t169 -548.5t-169 -549t-460 -191zM731 252q142 0 220.5 92.5t78.5 263.5v213q0 171 -78.5 264t-220.5 93t-220.5 -93t-78.5 -264v-213q0 -171 78.5 -263.5t220.5 -92.5zM731 1516q-71 0 -131 23
t-99 56.5t-72.5 84t-51 91.5t-35.5 93l166 86l39 -66q48 -82 89 -120t95 -38t96.5 38.5t90.5 119.5l38 66l164 -86q-17 -51 -38 -95.5t-55 -92.5t-74.5 -82t-98 -56t-123.5 -22z" />
    <glyph glyph-name="obreve" unicode="&#x14f;" horiz-adv-x="1155"
d="M578 -25q-235 0 -369.5 149.5t-134.5 414.5q0 261 133.5 411t370.5 150t370 -150t133 -411q0 -265 -134 -414.5t-369 -149.5zM578 215q91 0 139.5 55t48.5 158v219q0 103 -48.5 158t-139.5 55t-140 -55t-49 -158v-219q0 -103 49 -158t140 -55zM578 1186q-275 0 -390 348
l166 86l41 -68q48 -79 90 -117t93 -38t94 38t90 117l41 68l164 -86q-21 -63 -50 -117.5t-75 -110t-114 -88t-150 -32.5z" />
    <glyph glyph-name="Ohungarumlaut" unicode="&#x150;" horiz-adv-x="1462"
d="M731 -25q-291 0 -460 191t-169 549t169 548.5t460 190.5t460 -190.5t169 -548.5t-169 -549t-460 -191zM731 252q142 0 220.5 92.5t78.5 263.5v213q0 171 -78.5 264t-220.5 93t-220.5 -93t-78.5 -264v-213q0 -171 78.5 -263.5t220.5 -92.5zM821 1876l-274 -360l-166 79
l203 398zM1241 1876l-274 -360l-166 79l203 398z" />
    <glyph glyph-name="ohungarumlaut" unicode="&#x151;" horiz-adv-x="1155"
d="M578 -25q-235 0 -369.5 149.5t-134.5 414.5q0 261 133.5 411t370.5 150t370 -150t133 -411q0 -265 -134 -414.5t-369 -149.5zM578 215q91 0 139.5 55t48.5 158v219q0 103 -48.5 158t-139.5 55t-140 -55t-49 -158v-219q0 -103 49 -158t140 -55zM668 1546l-275 -360
l-166 80l203 397zM1087 1546l-274 -360l-166 80l203 397z" />
    <glyph glyph-name="OE" unicode="&#x152;" horiz-adv-x="2043"
d="M1931 0h-964q-92 -25 -236 -25q-291 0 -460 191t-169 549t169 548.5t460 190.5q138 0 252 -24h948v-277h-663v-293h569v-274h-569v-310h663v-276zM731 252q120 0 225 18v887q-108 21 -225 21q-141 0 -220 -93.5t-79 -263.5v-213q0 -170 79 -263t220 -93z" />
    <glyph glyph-name="oe" unicode="&#x153;" horiz-adv-x="1845"
d="M578 215q91 0 139.5 55t48.5 158v219q0 103 -48.5 158t-139.5 55t-140 -55t-49 -158v-219q0 -103 49 -158t140 -55zM1079 639h377v18q0 102 -45.5 161t-134.5 59q-91 0 -144 -60.5t-53 -161.5v-16zM1290 -25q-134 0 -230.5 41.5t-129.5 110.5h-12q-87 -152 -340 -152
q-234 0 -369 153t-135 417q0 260 133.5 407.5t370.5 147.5q245 0 340 -152h12q42 73 132 112.5t218 39.5q235 0 363.5 -147.5t128.5 -401.5v-90h-693v-17q0 -109 62 -170t184 -61q86 0 145 33t119 96l152 -188q-73 -86 -189 -132.5t-262 -46.5z" />
    <glyph glyph-name="Racute" unicode="&#x154;" horiz-adv-x="1380"
d="M469 524v-524h-311v1430h678q196 0 314 -124t118 -333q0 -149 -66 -256t-194 -156l280 -561h-346l-250 524h-223zM469 786h328q70 0 109.5 37t39.5 105v90q0 68 -39.5 104.5t-109.5 36.5h-328v-373zM971 1876l-275 -360l-180 88l203 397z" />
    <glyph glyph-name="racute" unicode="&#x155;" horiz-adv-x="827"
d="M444 0h-303v1075h303v-233h11q19 100 88 166.5t186 66.5h53v-282h-75q-138 0 -200.5 -36.5t-62.5 -127.5v-629zM768 1546l-274 -360l-181 88l203 397z" />
    <glyph glyph-name="uni0156" unicode="&#x156;" horiz-adv-x="1380"
d="M469 524v-524h-311v1430h678q196 0 314 -124t118 -333q0 -149 -66 -256t-194 -156l280 -561h-346l-250 524h-223zM469 786h328q70 0 109.5 37t39.5 105v90q0 68 -39.5 104.5t-109.5 36.5h-328v-373zM723 -86q68 0 105.5 -33t37.5 -94v-29q0 -93 -38 -181t-99 -140h-174
q51 42 80 89.5t47 113.5q-102 8 -102 124v23q0 61 37.5 94t105.5 33z" />
    <glyph glyph-name="uni0157" unicode="&#x157;" horiz-adv-x="827"
d="M444 0h-303v1075h303v-233h11q19 100 88 166.5t186 66.5h53v-282h-75q-138 0 -200.5 -36.5t-62.5 -127.5v-629zM291 -86q68 0 105.5 -33t37.5 -94v-29q0 -93 -38 -181t-99 -140h-174q51 42 80 89.5t47 113.5q-103 8 -103 124v23q0 61 38 94t106 33z" />
    <glyph glyph-name="Rcaron" unicode="&#x158;" horiz-adv-x="1380"
d="M469 524v-524h-311v1430h678q196 0 314 -124t118 -333q0 -149 -66 -256t-194 -156l280 -561h-346l-250 524h-223zM469 786h328q70 0 109.5 37t39.5 105v90q0 68 -39.5 104.5t-109.5 36.5h-328v-373zM791 1532h-254l-271 326l150 118l248 -235l247 235l150 -118z" />
    <glyph glyph-name="rcaron" unicode="&#x159;" horiz-adv-x="827"
d="M444 0h-303v1075h303v-233h11q19 100 88 166.5t186 66.5h53v-282h-75q-138 0 -200.5 -36.5t-62.5 -127.5v-629zM588 1202h-254l-271 326l150 119l248 -236l248 236l149 -119z" />
    <glyph glyph-name="Sacute" unicode="&#x15a;" horiz-adv-x="1277"
d="M621 -25q-335 0 -543 232l205 207q144 -164 358 -164q112 0 168.5 45.5t56.5 126.5q0 65 -36 102.5t-130 50.5l-141 19q-438 56 -438 426q0 197 144.5 315.5t391.5 118.5q316 0 496 -201l-207 -209q-116 136 -307 136q-103 0 -155 -36.5t-52 -103.5q0 -72 38.5 -105.5
t131.5 -47.5l141 -23q223 -36 329 -137.5t106 -286.5q0 -211 -147.5 -338t-409.5 -127zM942 1876l-274 -360l-181 88l203 397z" />
    <glyph glyph-name="sacute" unicode="&#x15b;" horiz-adv-x="1032"
d="M506 -25q-150 0 -257 48t-196 145l178 180q124 -137 285 -137q87 0 123.5 26t36.5 76q0 75 -109 90l-116 15q-363 46 -363 332q0 157 114.5 253.5t303.5 96.5q160 0 252.5 -39t185.5 -129l-174 -178q-110 110 -248 110q-143 0 -143 -90q0 -44 24.5 -67t88.5 -33l120 -17
q355 -47 355 -323q0 -159 -128 -259t-333 -100zM821 1546l-274 -360l-180 88l202 397z" />
    <glyph glyph-name="Scircumflex" unicode="&#x15c;" horiz-adv-x="1277"
d="M621 -25q-335 0 -543 232l205 207q144 -164 358 -164q112 0 168.5 45.5t56.5 126.5q0 65 -36 102.5t-130 50.5l-141 19q-438 56 -438 426q0 197 144.5 315.5t391.5 118.5q316 0 496 -201l-207 -209q-116 136 -307 136q-103 0 -155 -36.5t-52 -103.5q0 -72 38.5 -105.5
t131.5 -47.5l141 -23q223 -36 329 -137.5t106 -286.5q0 -211 -147.5 -338t-409.5 -127zM508 1958h254l270 -326l-149 -119l-248 236l-248 -236l-149 119z" />
    <glyph glyph-name="scircumflex" unicode="&#x15d;" horiz-adv-x="1032"
d="M506 -25q-150 0 -257 48t-196 145l178 180q124 -137 285 -137q87 0 123.5 26t36.5 76q0 75 -109 90l-116 15q-363 46 -363 332q0 157 114.5 253.5t303.5 96.5q160 0 252.5 -39t185.5 -129l-174 -178q-110 110 -248 110q-143 0 -143 -90q0 -44 24.5 -67t88.5 -33l120 -17
q355 -47 355 -323q0 -159 -128 -259t-333 -100zM387 1628h254l270 -325l-149 -119l-248 235l-248 -235l-149 119z" />
    <glyph glyph-name="Scedilla" unicode="&#x15e;" horiz-adv-x="1277"
d="M639 1180q-103 0 -155 -36.5t-52 -103.5q0 -72 38.5 -105.5t131.5 -47.5l141 -23q223 -36 329 -137.5t106 -286.5q0 -196 -131 -322t-361 -141l-18 -90l8 -8q62 15 98 15q66 0 108 -35.5t42 -106.5q0 -66 -40.5 -109.5t-98.5 -60t-132 -16.5q-177 0 -254 90l95 115
q49 -60 135 -60q40 0 65 13t25 38q0 70 -154 82l-43 4l27 129q-279 21 -471 230l205 207q144 -164 358 -164q112 0 168.5 45.5t56.5 126.5q0 65 -36 102.5t-130 50.5l-141 19q-438 56 -438 426q0 197 144.5 315.5t391.5 118.5q316 0 496 -201l-207 -209q-116 136 -307 136z
" />
    <glyph glyph-name="scedilla" unicode="&#x15f;" horiz-adv-x="1032"
d="M537 -434q-177 0 -254 90l94 115q49 -60 135 -60q40 0 65 13t25 38q0 70 -153 82l-43 4l26 132q-231 19 -379 188l178 180q124 -137 285 -137q87 0 123.5 26t36.5 76q0 75 -109 90l-116 15q-363 46 -363 332q0 157 114.5 253.5t303.5 96.5q160 0 252.5 -39t185.5 -129
l-174 -178q-110 110 -248 110q-143 0 -143 -90q0 -44 24.5 -67t88.5 -33l120 -17q355 -47 355 -323q0 -143 -106.5 -241.5t-291.5 -115.5l-18 -90l8 -8q62 15 98 15q66 0 108 -35.5t42 -106.5q0 -66 -40 -109.5t-98 -60t-132 -16.5z" />
    <glyph glyph-name="Scaron" unicode="&#x160;" horiz-adv-x="1277"
d="M621 -25q-335 0 -543 232l205 207q144 -164 358 -164q112 0 168.5 45.5t56.5 126.5q0 65 -36 102.5t-130 50.5l-141 19q-438 56 -438 426q0 197 144.5 315.5t391.5 118.5q316 0 496 -201l-207 -209q-116 136 -307 136q-103 0 -155 -36.5t-52 -103.5q0 -72 38.5 -105.5
t131.5 -47.5l141 -23q223 -36 329 -137.5t106 -286.5q0 -211 -147.5 -338t-409.5 -127zM762 1532h-254l-270 326l149 118l248 -235l248 235l149 -118z" />
    <glyph glyph-name="scaron" unicode="&#x161;" horiz-adv-x="1032"
d="M506 -25q-150 0 -257 48t-196 145l178 180q124 -137 285 -137q87 0 123.5 26t36.5 76q0 75 -109 90l-116 15q-363 46 -363 332q0 157 114.5 253.5t303.5 96.5q160 0 252.5 -39t185.5 -129l-174 -178q-110 110 -248 110q-143 0 -143 -90q0 -44 24.5 -67t88.5 -33l120 -17
q355 -47 355 -323q0 -159 -128 -259t-333 -100zM641 1202h-254l-270 326l149 119l248 -236l248 236l149 -119z" />
    <glyph glyph-name="uni0162" unicode="&#x162;" horiz-adv-x="1196"
d="M627 -434q-177 0 -254 90l94 115q49 -60 135 -60q40 0 65 13t25 38q0 70 -153 82l-43 4l30 152h-84v1153h-387v277h1086v-277h-387v-1153h-90l-23 -113l8 -8q62 15 99 15q66 0 107.5 -35.5t41.5 -106.5q0 -66 -40 -109.5t-98 -60t-132 -16.5z" />
    <glyph glyph-name="uni0163" unicode="&#x163;" horiz-adv-x="784"
d="M498 -434q-177 0 -254 90l94 115q49 -60 135 -60q40 0 65 13t25 38q0 70 -153 82l-43 4l34 166q-202 52 -202 299v527h-152v235h76q59 0 82.5 28t23.5 87v176h273v-291h213v-235h-213v-604h196v-236h-163l-23 -113l8 -8q62 15 98 15q66 0 108 -35.5t42 -106.5
q0 -66 -40 -109.5t-98 -60t-132 -16.5z" />
    <glyph glyph-name="Tcaron" unicode="&#x164;" horiz-adv-x="1196"
d="M1141 1153h-387v-1153h-312v1153h-387v277h1086v-277zM203 1858l149 118l248 -235l248 235l149 -118l-270 -326h-254z" />
    <glyph glyph-name="tcaron" unicode="&#x165;" horiz-adv-x="794"
d="M698 0h-180q-158 0 -238.5 79.5t-80.5 233.5v527h-152v235h76q59 0 82.5 28t23.5 87v176h273v-291h213v-235h-213v-604h196v-236zM965 1620l-136 -440h-198l12 440h322z" />
    <glyph glyph-name="Tbar" unicode="&#x166;" horiz-adv-x="1216"
d="M1049 561h-285v-561h-311v561h-285v234h285v358h-387v277h1085v-277h-387v-358h285v-234z" />
    <glyph glyph-name="tbar" unicode="&#x167;" horiz-adv-x="800"
d="M707 236v-236h-181q-158 0 -238.5 79.5t-80.5 233.5v140h-131v204h131v183h-152v235h76q59 0 83 28.5t24 86.5v176h272v-291h213v-235h-213v-183h174v-204h-174v-217h197z" />
    <glyph glyph-name="Utilde" unicode="&#x168;" horiz-adv-x="1421"
d="M150 1430h303v-877q0 -155 60.5 -228t197.5 -73t197.5 73t60.5 228v877h303v-844q0 -321 -128.5 -466t-432.5 -145t-432.5 145t-128.5 466v844zM866 1561q-66 0 -157 41q-39 17 -57.5 24t-47.5 14t-55 7q-34 0 -60.5 -12t-60.5 -40l-106 140q87 131 233 131q67 0 158 -41
q40 -17 57.5 -24t46.5 -14t55 -7q34 0 60.5 11.5t60.5 39.5l107 -139q-87 -131 -234 -131z" />
    <glyph glyph-name="utilde" unicode="&#x169;" horiz-adv-x="1220"
d="M776 0v180h-10q-71 -205 -301 -205q-165 0 -250.5 109.5t-85.5 314.5v676h303v-649q0 -102 36 -153.5t118 -51.5q76 0 133 42t57 114v698h303v-1075h-303zM762 1231q-67 0 -158 41q-39 17 -57.5 24t-47.5 14t-55 7q-34 0 -60 -11.5t-60 -39.5l-107 139q87 131 234 131
q66 0 157 -41q39 -17 57.5 -24t47.5 -14t55 -7q34 0 60.5 11.5t60.5 39.5l106 -139q-87 -131 -233 -131z" />
    <glyph glyph-name="Umacron" unicode="&#x16a;" horiz-adv-x="1421"
d="M150 1430h303v-877q0 -155 60.5 -228t197.5 -73t197.5 73t60.5 228v877h303v-844q0 -321 -128.5 -466t-432.5 -145t-432.5 145t-128.5 466v844zM397 1608v211h627v-211h-627z" />
    <glyph glyph-name="umacron" unicode="&#x16b;" horiz-adv-x="1220"
d="M776 0v180h-10q-71 -205 -301 -205q-165 0 -250.5 109.5t-85.5 314.5v676h303v-649q0 -102 36 -153.5t118 -51.5q76 0 133 42t57 114v698h303v-1075h-303zM293 1278v211h627v-211h-627z" />
    <glyph glyph-name="Ubreve" unicode="&#x16c;" horiz-adv-x="1421"
d="M150 1430h303v-877q0 -155 60.5 -228t197.5 -73t197.5 73t60.5 228v877h303v-844q0 -321 -128.5 -466t-432.5 -145t-432.5 145t-128.5 466v844zM711 1516q-71 0 -131 23t-99 56.5t-72.5 84t-51 91.5t-35.5 93l165 86l39 -66q48 -82 89.5 -120t95.5 -38t96 38.5t90 119.5
l39 66l164 -86q-17 -51 -38 -95.5t-55 -92.5t-74.5 -82t-98 -56t-123.5 -22z" />
    <glyph glyph-name="ubreve" unicode="&#x16d;" horiz-adv-x="1220"
d="M776 0v180h-10q-71 -205 -301 -205q-165 0 -250.5 109.5t-85.5 314.5v676h303v-649q0 -102 36 -153.5t118 -51.5q76 0 133 42t57 114v698h303v-1075h-303zM606 1186q-274 0 -389 348l166 86l41 -68q48 -79 89.5 -117t92.5 -38t94.5 38.5t90.5 116.5l40 68l164 -86
q-21 -63 -50 -117.5t-75 -110t-114 -88t-150 -32.5z" />
    <glyph glyph-name="Uring" unicode="&#x16e;" horiz-adv-x="1421"
d="M150 1430h303v-877q0 -155 60.5 -228t197.5 -73t197.5 73t60.5 228v877h303v-844q0 -321 -128.5 -466t-432.5 -145t-432.5 145t-128.5 466v844zM711 1473q-128 0 -215.5 82t-87.5 210q0 129 87.5 211t215.5 82t215.5 -82t87.5 -211q0 -128 -87.5 -210t-215.5 -82z
M711 1626q50 0 77 28.5t27 76.5v69q0 48 -27 76.5t-77 28.5t-77.5 -28.5t-27.5 -76.5v-69q0 -48 27.5 -76.5t77.5 -28.5z" />
    <glyph glyph-name="uring" unicode="&#x16f;" horiz-adv-x="1220"
d="M776 0v180h-10q-71 -205 -301 -205q-165 0 -250.5 109.5t-85.5 314.5v676h303v-649q0 -102 36 -153.5t118 -51.5q76 0 133 42t57 114v698h303v-1075h-303zM606 1143q-128 0 -215.5 82t-87.5 211t87.5 211t215.5 82t215.5 -82t87.5 -211t-87.5 -211t-215.5 -82zM606 1296
q51 0 78 27.5t27 77.5v69q0 50 -27 77.5t-78 27.5t-77.5 -27.5t-26.5 -77.5v-69q0 -50 26.5 -77.5t77.5 -27.5z" />
    <glyph glyph-name="Uhungarumlaut" unicode="&#x170;" horiz-adv-x="1421"
d="M150 1430h303v-877q0 -155 60.5 -228t197.5 -73t197.5 73t60.5 228v877h303v-844q0 -321 -128.5 -466t-432.5 -145t-432.5 145t-128.5 466v844zM801 1876l-275 -360l-166 79l203 398zM1221 1876l-275 -360l-166 79l203 398z" />
    <glyph glyph-name="uhungarumlaut" unicode="&#x171;" horiz-adv-x="1220"
d="M776 0v180h-10q-71 -205 -301 -205q-165 0 -250.5 109.5t-85.5 314.5v676h303v-649q0 -102 36 -153.5t118 -51.5q76 0 133 42t57 114v698h303v-1075h-303zM696 1546l-274 -360l-166 80l203 397zM1116 1546l-274 -360l-166 80l203 397z" />
    <glyph glyph-name="Uogonek" unicode="&#x172;" horiz-adv-x="1421"
d="M150 1430h303v-877q0 -155 60.5 -228t197.5 -73t197.5 73t60.5 228v877h303v-844q0 -229 -53.5 -360.5t-196.5 -237.5q-18 -13 -57 -38.5t-59.5 -40.5t-45.5 -37t-36 -44t-11 -45q0 -33 22 -49.5t56 -16.5q56 0 110 58l109 -105q-55 -104 -248 -104q-111 0 -181.5 42
t-70.5 130q0 80 58.5 130t185.5 103l-4 13q-64 -9 -139 -9q-304 0 -432.5 145t-128.5 466v844z" />
    <glyph glyph-name="uogonek" unicode="&#x173;" horiz-adv-x="1220"
d="M1077 1075v-1075q-132 -82 -181.5 -127t-49.5 -88q0 -68 78 -68q58 0 112 58l109 -105q-55 -104 -250 -104q-114 0 -184 41.5t-70 132.5q0 81 59 137t185 115l-2 8h-107v180h-10q-71 -205 -301 -205q-165 0 -250.5 109.5t-85.5 314.5v676h303v-649q0 -102 36 -153.5
t118 -51.5q76 0 133 42t57 114v698h301z" />
    <glyph glyph-name="Wcircumflex" unicode="&#x174;" horiz-adv-x="1992"
d="M739 0h-356l-324 1430h308l135 -687l76 -397h6l90 397l157 687h340l160 -687l88 -397h6l76 397l137 687h295l-331 -1430h-355l-180 774l-70 313h-6l-71 -313zM600 1632l270 326h254l271 -326l-150 -119l-248 236l-247 -236z" />
    <glyph glyph-name="wcircumflex" unicode="&#x175;" horiz-adv-x="1722"
d="M340 0l-301 1075h293l104 -434l74 -328h8l86 328l123 434h277l124 -434l89 -328h8l73 328l105 434h280l-297 -1075h-317l-131 455l-76 278h-6l-74 -278l-131 -455h-311zM465 1303l270 325h254l271 -325l-150 -119l-248 235l-248 -235z" />
    <glyph glyph-name="Ycircumflex" unicode="&#x176;" horiz-adv-x="1329"
d="M821 0h-313v559l-490 871h349l307 -570h4l295 570h338l-490 -869v-561zM268 1632l271 326h254l270 -326l-150 -119l-247 236l-248 -236z" />
    <glyph glyph-name="ycircumflex" unicode="&#x177;" horiz-adv-x="1093"
d="M641 573l158 502h282l-413 -1241q-42 -128 -118 -186t-212 -58h-188v236h202l37 119l-377 1130h301l158 -502l78 -311h12zM430 1628h254l270 -325l-149 -119l-248 235l-248 -235l-149 119z" />
    <glyph glyph-name="Ydieresis" unicode="&#x178;" horiz-adv-x="1329"
d="M821 0h-313v559l-490 871h349l307 -570h4l295 570h338l-490 -869v-561zM440 1559q-164 0 -164 129v51q0 129 164 129t164 -129v-51q0 -129 -164 -129zM891 1559q-164 0 -164 129v51q0 129 164 129t164 -129v-51q0 -129 -164 -129z" />
    <glyph glyph-name="Zacute" unicode="&#x179;" horiz-adv-x="1243"
d="M1163 276v-276h-1083v276l704 877h-669v277h1032v-277l-707 -877h723zM473 1604l203 397l252 -125l-275 -360z" />
    <glyph glyph-name="zacute" unicode="&#x17a;" horiz-adv-x="1060"
d="M981 0h-901v240l534 600h-516v235h869v-237l-537 -602h551v-236zM385 1274l203 397l252 -125l-275 -360z" />
    <glyph glyph-name="Zdotaccent" unicode="&#x17b;" horiz-adv-x="1243"
d="M1163 276v-276h-1083v276l704 877h-669v277h1032v-277l-707 -877h723zM621 1540q-183 0 -183 143v60q0 143 183 143q182 0 182 -143v-60q0 -143 -182 -143z" />
    <glyph glyph-name="zdotaccent" unicode="&#x17c;" horiz-adv-x="1060"
d="M981 0h-901v240l534 600h-516v235h869v-237l-537 -602h551v-236zM532 1210q-182 0 -182 144v59q0 143 182 143q183 0 183 -143v-59q0 -66 -43 -105t-140 -39z" />
    <glyph glyph-name="Zcaron" unicode="&#x17d;" horiz-adv-x="1243"
d="M1163 276v-276h-1083v276l704 877h-669v277h1032v-277l-707 -877h723zM223 1858l150 118l248 -235l247 235l150 -118l-270 -326h-254z" />
    <glyph glyph-name="zcaron" unicode="&#x17e;" horiz-adv-x="1060"
d="M981 0h-901v240l534 600h-516v235h869v-237l-537 -602h551v-236zM135 1528l150 119l247 -236l248 236l150 -119l-271 -326h-253z" />
    <glyph glyph-name="uni017F" unicode="&#x17f;" horiz-adv-x="638"
d="M195 0v840h-152v235h152v127q0 155 81.5 234.5t239.5 79.5h197v-236h-215v-1280h-303z" />
    <glyph glyph-name="uni018F" unicode="&#x18f;" horiz-adv-x="1462"
d="M102 715v102h928v6q0 169 -79.5 262t-219.5 93q-130 0 -199 -57t-100 -171l-280 101q57 181 205 292t374 111q292 0 460.5 -188.5t168.5 -550.5t-168.5 -551t-460.5 -189t-460.5 189t-168.5 551zM731 252q130 0 208.5 80.5t88.5 228.5h-594q10 -148 88.5 -228.5
t208.5 -80.5z" />
    <glyph glyph-name="florin" unicode="&#x192;" horiz-adv-x="991"
d="M10 -274l25 235h235l58 553h-217l24 246h217l37 358q14 141 104 226.5t248 85.5h226l-25 -236h-244l-45 -434h256l-20 -246h-260l-49 -479q-14 -141 -103.5 -225t-249.5 -84h-217z" />
    <glyph glyph-name="Ohorn" unicode="&#x1a0;" horiz-adv-x="1462"
d="M1149 1647h254v-193q0 -105 -44 -155.5t-157 -51.5q158 -194 158 -532q0 -358 -169 -549t-460 -191t-460 191t-169 549t169 548.5t460 190.5q105 0 191 -24h227v217zM731 252q142 0 220.5 92.5t78.5 263.5v213q0 171 -78.5 264t-220.5 93t-220.5 -93t-78.5 -264v-213
q0 -171 78.5 -263.5t220.5 -92.5z" />
    <glyph glyph-name="ohorn" unicode="&#x1a1;" horiz-adv-x="1155"
d="M874 1292h254v-192q0 -97 -32 -144t-107 -57q92 -139 92 -354q0 -264 -134.5 -417t-368.5 -153t-369 153t-135 417q0 260 133.5 407.5t370.5 147.5q91 0 174 -25h122v217zM578 215q91 0 139.5 55t48.5 158v219q0 103 -48.5 158t-139.5 55t-140 -55t-49 -158v-219
q0 -103 49 -158t140 -55z" />
    <glyph glyph-name="Uhorn" unicode="&#x1af;" horiz-adv-x="1421"
d="M150 1430h303v-877q0 -155 60.5 -228t197.5 -73t197.5 73t60.5 228v877h157v217h254v-193q0 -82 -24 -128t-84 -64v-676q0 -321 -128.5 -466t-432.5 -145t-432.5 145t-128.5 466v844z" />
    <glyph glyph-name="uhorn" unicode="&#x1b0;" horiz-adv-x="1220"
d="M1208 1292v-192q0 -92 -29.5 -140.5t-101.5 -60.5v-899h-301v180h-10q-71 -205 -301 -205q-165 0 -250.5 109.5t-85.5 314.5v676h303v-649q0 -102 36 -153.5t118 -51.5q76 0 133 42t57 114v698h178v217h254z" />
    <glyph glyph-name="uni01CD" unicode="&#x1cd;" horiz-adv-x="1402"
d="M1362 0h-324l-102 340h-477l-103 -340h-315l471 1430h385zM297 1858l149 118l248 -235l248 235l150 -118l-271 -326h-254zM532 604h328l-160 543h-10z" />
    <glyph glyph-name="uni01CE" unicode="&#x1ce;" horiz-adv-x="1165"
d="M1104 0h-168q-81 0 -136 50.5t-69 137.5h-12q-24 -103 -107.5 -158t-208.5 -55q-158 0 -245.5 85t-87.5 229q0 167 120.5 251.5t339.5 84.5h170v67q0 170 -178 170q-83 0 -136 -34t-95 -93l-180 160q70 103 170.5 154t263.5 51q228 0 343.5 -100t115.5 -293v-471h100
v-236zM516 186q81 0 132.5 35t51.5 105v127h-147q-178 0 -178 -121v-31q0 -115 141 -115zM678 1202h-254l-270 326l149 119l248 -236l248 236l149 -119z" />
    <glyph glyph-name="uni01CF" unicode="&#x1cf;" horiz-adv-x="884"
d="M782 0h-680v248h185v934h-185v248h680v-248h-184v-934h184v-248zM47 1858l150 118l247 -235l248 235l150 -118l-271 -326h-254z" />
    <glyph glyph-name="uni01D0" unicode="&#x1d0;" horiz-adv-x="585"
d="M444 0h-303v1075h303v-1075zM-102 1528l149 119l248 -236l248 236l149 -119l-270 -326h-254z" />
    <glyph glyph-name="uni01D1" unicode="&#x1d1;" horiz-adv-x="1462"
d="M731 -25q-291 0 -460 191t-169 549t169 548.5t460 190.5t460 -190.5t169 -548.5t-169 -549t-460 -191zM731 252q142 0 220.5 92.5t78.5 263.5v213q0 171 -78.5 264t-220.5 93t-220.5 -93t-78.5 -264v-213q0 -171 78.5 -263.5t220.5 -92.5zM858 1532h-254l-270 326
l149 118l248 -235l248 235l149 -118z" />
    <glyph glyph-name="uni01D2" unicode="&#x1d2;" horiz-adv-x="1155"
d="M578 -25q-235 0 -369.5 149.5t-134.5 414.5q0 261 133.5 411t370.5 150t370 -150t133 -411q0 -265 -134 -414.5t-369 -149.5zM578 215q91 0 139.5 55t48.5 158v219q0 103 -48.5 158t-139.5 55t-140 -55t-49 -158v-219q0 -103 49 -158t140 -55zM705 1202h-254l-271 326
l150 119l248 -236l247 236l150 -119z" />
    <glyph glyph-name="uni01D3" unicode="&#x1d3;" horiz-adv-x="1421"
d="M150 1430h303v-877q0 -155 60.5 -228t197.5 -73t197.5 73t60.5 228v877h303v-844q0 -321 -128.5 -466t-432.5 -145t-432.5 145t-128.5 466v844zM838 1532h-254l-271 326l150 118l248 -235l247 235l150 -118z" />
    <glyph glyph-name="uni01D4" unicode="&#x1d4;" horiz-adv-x="1220"
d="M776 0v180h-10q-71 -205 -301 -205q-165 0 -250.5 109.5t-85.5 314.5v676h303v-649q0 -102 36 -153.5t118 -51.5q76 0 133 42t57 114v698h303v-1075h-303zM733 1202h-254l-270 326l149 119l248 -236l248 236l150 -119z" />
    <glyph glyph-name="uni01D5" unicode="&#x1d5;" horiz-adv-x="1421"
d="M150 1430h303v-877q0 -155 60.5 -228t197.5 -73t197.5 73t60.5 228v877h303v-844q0 -321 -128.5 -466t-432.5 -145t-432.5 145t-128.5 466v844zM397 1939v211h627v-211h-627zM485 1532q-163 0 -163 129v51q0 129 163 129q164 0 164 -129v-51q0 -129 -164 -129zM936 1532
q-164 0 -164 129v51q0 129 164 129t164 -129v-51q0 -129 -164 -129z" />
    <glyph glyph-name="uni01D6" unicode="&#x1d6;" horiz-adv-x="1220"
d="M776 0v180h-10q-71 -205 -301 -205q-165 0 -250.5 109.5t-85.5 314.5v676h303v-649q0 -102 36 -153.5t118 -51.5q76 0 133 42t57 114v698h303v-1075h-303zM291 1610v211h627v-211h-627zM379 1202q-164 0 -164 129v51q0 129 164 129t164 -129v-51q0 -129 -164 -129z
M829 1202q-163 0 -163 129v51q0 129 163 129q164 0 164 -129v-51q0 -129 -164 -129z" />
    <glyph glyph-name="uni01D7" unicode="&#x1d7;" horiz-adv-x="1421"
d="M150 1430h303v-877q0 -155 60.5 -228t197.5 -73t197.5 73t60.5 228v877h303v-844q0 -321 -128.5 -466t-432.5 -145t-432.5 145t-128.5 466v844zM1006 2191l-275 -360l-162 80l203 397zM485 1532q-163 0 -163 129v51q0 129 163 129q164 0 164 -129v-51q0 -129 -164 -129z
M936 1532q-164 0 -164 129v51q0 129 164 129t164 -129v-51q0 -129 -164 -129z" />
    <glyph glyph-name="uni01D8" unicode="&#x1d8;" horiz-adv-x="1220"
d="M776 0v180h-10q-71 -205 -301 -205q-165 0 -250.5 109.5t-85.5 314.5v676h303v-649q0 -102 36 -153.5t118 -51.5q76 0 133 42t57 114v698h303v-1075h-303zM899 1862l-274 -361l-162 80l203 397zM379 1202q-164 0 -164 129v51q0 129 164 129t164 -129v-51
q0 -129 -164 -129zM829 1202q-163 0 -163 129v51q0 129 163 129q164 0 164 -129v-51q0 -129 -164 -129z" />
    <glyph glyph-name="uni01D9" unicode="&#x1d9;" horiz-adv-x="1421"
d="M150 1430h303v-877q0 -155 60.5 -228t197.5 -73t197.5 73t60.5 228v877h303v-844q0 -321 -128.5 -466t-432.5 -145t-432.5 145t-128.5 466v844zM807 1880h-193l-297 301l140 131l254 -213l254 213l139 -131zM485 1532q-163 0 -163 129v51q0 129 163 129q164 0 164 -129
v-51q0 -129 -164 -129zM936 1532q-164 0 -164 129v51q0 129 164 129t164 -129v-51q0 -129 -164 -129z" />
    <glyph glyph-name="uni01DA" unicode="&#x1da;" horiz-adv-x="1220"
d="M776 0v180h-10q-71 -205 -301 -205q-165 0 -250.5 109.5t-85.5 314.5v676h303v-649q0 -102 36 -153.5t118 -51.5q76 0 133 42t57 114v698h303v-1075h-303zM700 1550h-192l-297 301l139 131l254 -213l254 213l139 -131zM379 1202q-164 0 -164 129v51q0 129 164 129
t164 -129v-51q0 -129 -164 -129zM829 1202q-163 0 -163 129v51q0 129 163 129q164 0 164 -129v-51q0 -129 -164 -129z" />
    <glyph glyph-name="uni01DB" unicode="&#x1db;" horiz-adv-x="1421"
d="M150 1430h303v-877q0 -155 60.5 -228t197.5 -73t197.5 73t60.5 228v877h303v-844q0 -321 -128.5 -466t-432.5 -145t-432.5 145t-128.5 466v844zM690 1831l-274 360l233 117l203 -397zM485 1532q-163 0 -163 129v51q0 129 163 129q164 0 164 -129v-51q0 -129 -164 -129z
M936 1532q-164 0 -164 129v51q0 129 164 129t164 -129v-51q0 -129 -164 -129z" />
    <glyph glyph-name="uni01DC" unicode="&#x1dc;" horiz-adv-x="1220"
d="M776 0v180h-10q-71 -205 -301 -205q-165 0 -250.5 109.5t-85.5 314.5v676h303v-649q0 -102 36 -153.5t118 -51.5q76 0 133 42t57 114v698h303v-1075h-303zM584 1501l-275 361l234 116l202 -397zM379 1202q-164 0 -164 129v51q0 129 164 129t164 -129v-51
q0 -129 -164 -129zM829 1202q-163 0 -163 129v51q0 129 163 129q164 0 164 -129v-51q0 -129 -164 -129z" />
    <glyph glyph-name="Aringacute" unicode="&#x1fa;" horiz-adv-x="1402"
d="M1362 0h-324l-102 340h-477l-103 -340h-315l471 1430h385zM860 604l-160 543h-10l-158 -543h328zM987 2189l-307 -190l-109 117l265 239zM694 1485q-133 0 -222 66t-89 180q0 113 88.5 179t222.5 66t223 -66t89 -179q0 -114 -89.5 -180t-222.5 -66zM694 1628q57 0 85 22
t28 70v21q0 48 -28 70t-85 22t-84.5 -21.5t-27.5 -70.5v-21q0 -49 27.5 -70.5t84.5 -21.5z" />
    <glyph glyph-name="aringacute" unicode="&#x1fb;" horiz-adv-x="1165"
d="M1104 0h-168q-81 0 -136 50.5t-69 137.5h-12q-24 -103 -107.5 -158t-208.5 -55q-158 0 -245.5 85t-87.5 229q0 167 120.5 251.5t339.5 84.5h170v67q0 170 -178 170q-83 0 -136 -34t-95 -93l-180 160q70 103 170.5 154t263.5 51q228 0 343.5 -100t115.5 -293v-471h100
v-236zM516 186q81 0 132.5 35t51.5 105v127h-147q-178 0 -178 -121v-31q0 -115 141 -115zM844 1860l-307 -191l-109 117l264 239zM551 1155q-133 0 -222 66t-89 180t88.5 180t222.5 66t222.5 -66t88.5 -180t-89 -180t-222 -66zM551 1298q113 0 113 93v20q0 92 -113 92
t-113 -92v-20q0 -93 113 -93z" />
    <glyph glyph-name="AEacute" unicode="&#x1fc;" horiz-adv-x="1982"
d="M897 0v340h-428l-160 -340h-311l698 1430h1174v-277h-664v-293h570v-274h-570v-310h664v-276h-973zM594 604h303v549h-47zM1174 1604l202 397l252 -125l-274 -360z" />
    <glyph glyph-name="aeacute" unicode="&#x1fd;" horiz-adv-x="1769"
d="M700 461h-147q-83 0 -130.5 -31t-47.5 -90v-29q0 -125 145 -125q78 0 129 35t51 105v135zM1006 639h376v18q0 102 -45.5 161t-134.5 59q-91 0 -143.5 -60.5t-52.5 -161.5v-16zM1249 217q147 0 264 125l152 -188q-73 -86 -189 -132.5t-262 -46.5q-150 0 -261.5 58.5
t-155.5 152.5h-13q-82 -211 -378 -211q-159 0 -247.5 88.5t-88.5 231.5q0 166 124.5 255t335.5 89h170v53q0 170 -178 170q-83 0 -136 -34t-95 -93l-180 160q70 103 170.5 154t263.5 51q205 0 303 -152h12q96 152 344 152q104 0 187.5 -29.5t139.5 -80t94 -121t54.5 -149.5
t16.5 -169v-90h-692v-17q0 -105 64.5 -166t180.5 -61zM1192 1546l-274 -360l-181 88l203 397z" />
    <glyph glyph-name="Oslashacute" unicode="&#x1fe;" horiz-adv-x="1462"
d="M1106 -25v277h1284q145 0 236.5 94.5t91.5 261.5v213q0 167 -91.5 262t-236.5 95h-1284v276h1313q291 0 459.5 -190.5t168.5 -548.5t-168.5 -549t-459.5 -191h-1313zM909 317q-177 0 -285 108.5t-108 285.5t108 285t285 108t285.5 -108t108.5 -285t-108.5 -285.5
t-285.5 -108.5zM897 475l211 227v3l-211 227l-45 -29l147 -158l-6 -12h-305v-59h305l6 -12l-147 -158zM2044 -25h-1313q-291 0 -460 191t-169 549t169 548.5t460 190.5h1313v-276h-1284q-145 0 -236.5 -95t-91.5 -262v-213q0 -167 91.5 -261.5t236.5 -94.5h1284v-277z" />
    <glyph glyph-name="oslashacute" unicode="&#x1ff;" horiz-adv-x="1171"
d="M193 -102l-164 122l137 170q-84 141 -84 349q0 261 133.5 411t370.5 150q154 0 270 -70l123 148l164 -123l-139 -172q86 -136 86 -346q0 -261 -133.5 -411.5t-370.5 -150.5q-154 0 -271 68zM586 197q93 0 145.5 65t52.5 176v201l-329 -395q53 -47 131 -47zM387 637v-199
l328 393q-54 48 -129 48q-93 0 -146 -65.5t-53 -176.5zM893 1546l-275 -360l-180 88l203 397z" />
    <glyph glyph-name="uni0218" unicode="&#x218;" horiz-adv-x="1277"
d="M621 -25q-335 0 -543 232l205 207q144 -164 358 -164q112 0 168.5 45.5t56.5 126.5q0 65 -36 102.5t-130 50.5l-141 19q-438 56 -438 426q0 197 144.5 315.5t391.5 118.5q316 0 496 -201l-207 -209q-116 136 -307 136q-103 0 -155 -36.5t-52 -103.5q0 -72 38.5 -105.5
t131.5 -47.5l141 -23q223 -36 329 -137.5t106 -286.5q0 -211 -147.5 -338t-409.5 -127zM633 -86q68 0 105.5 -33t37.5 -94v-29q0 -93 -38 -181t-99 -140h-174q51 42 80 89.5t47 113.5q-103 8 -103 124v23q0 61 38 94t106 33z" />
    <glyph glyph-name="uni0219" unicode="&#x219;" horiz-adv-x="1032"
d="M506 -25q-150 0 -257 48t-196 145l178 180q124 -137 285 -137q87 0 123.5 26t36.5 76q0 75 -109 90l-116 15q-363 46 -363 332q0 157 114.5 253.5t303.5 96.5q160 0 252.5 -39t185.5 -129l-174 -178q-110 110 -248 110q-143 0 -143 -90q0 -44 24.5 -67t88.5 -33l120 -17
q355 -47 355 -323q0 -159 -128 -259t-333 -100zM508 -86q68 0 105.5 -33t37.5 -94v-29q0 -93 -38 -181t-99 -140h-174q51 42 80 89.5t47 113.5q-102 8 -102 124v23q0 61 37.5 94t105.5 33z" />
    <glyph glyph-name="uni021A" unicode="&#x21a;" horiz-adv-x="1196"
d="M1141 1153h-387v-1153h-312v1153h-387v277h1086v-277zM596 -86q68 0 105.5 -33t37.5 -94v-29q0 -93 -38 -181t-99 -140h-174q51 42 80 89.5t47 113.5q-102 8 -102 124v23q0 61 37.5 94t105.5 33z" />
    <glyph glyph-name="uni021B" unicode="&#x21b;" horiz-adv-x="784"
d="M698 0h-180q-158 0 -238.5 79.5t-80.5 233.5v527h-152v235h76q59 0 82.5 28t23.5 87v176h273v-291h213v-235h-213v-604h196v-236zM467 -86q68 0 105.5 -33t37.5 -94v-29q0 -93 -38 -181t-99 -140h-174q51 42 80 89.5t47 113.5q-102 8 -102 124v23q0 61 37.5 94t105.5 33z
" />
    <glyph glyph-name="uni0237" unicode="&#x237;" horiz-adv-x="585"
d="M-18 -410v236h159v1249h303v-1190q0 -146 -73.5 -220.5t-229.5 -74.5h-159z" />
    <glyph glyph-name="uni0259" unicode="&#x259;" horiz-adv-x="1150"
d="M74 614h690v17q0 109 -56.5 170t-170.5 61q-46 0 -84 -9.5t-69.5 -30.5t-49 -36t-46.5 -44l-9 -9l-152 189q151 178 444 178q242 0 374 -152.5t132 -410.5q0 -260 -132.5 -411t-371.5 -151q-105 0 -190 29.5t-141.5 80.5t-95 121.5t-55.5 149.5t-17 168v90zM387 436v-18
q0 -102 45 -160.5t135 -58.5q91 0 144 60t53 161v16h-377z" />
    <glyph glyph-name="uni02BB" unicode="&#x2bb;"
d="M616 1180q-68 0 -105.5 33t-37.5 94v28q0 93 38 181.5t99 140.5h174q-51 -42 -80 -89.5t-47 -113.5q103 -8 103 -125v-22q0 -61 -38 -94t-106 -33z" />
    <glyph glyph-name="uni02BC" unicode="&#x2bc;"
d="M614 1516l-135 -441h-198l12 441h321z" />
    <glyph glyph-name="circumflex" unicode="&#x2c6;"
d="M487 1628h254l271 -325l-150 -119l-248 235l-247 -235l-150 119z" />
    <glyph glyph-name="caron" unicode="&#x2c7;"
d="M741 1202h-254l-270 326l150 119l247 -236l248 236l150 -119z" />
    <glyph glyph-name="breve" unicode="&#x2d8;"
d="M614 1186q-274 0 -389 348l166 86l41 -68q48 -79 89.5 -117t92.5 -38t94.5 38.5t90.5 116.5l41 68l164 -86q-16 -49 -37 -93t-55 -92.5t-75 -83t-99 -57t-124 -22.5z" />
    <glyph glyph-name="dotaccent" unicode="&#x2d9;"
d="M614 1210q-182 0 -182 144v59q0 143 182 143q183 0 183 -143v-59q0 -66 -43 -105t-140 -39z" />
    <glyph glyph-name="ring" unicode="&#x2da;"
d="M614 1143q-128 0 -215.5 82t-87.5 211t87.5 211t215.5 82t216 -82.5t88 -210.5t-88 -210.5t-216 -82.5zM614 1296q51 0 78 27.5t27 77.5v69q0 50 -27 77.5t-78 27.5t-77.5 -27.5t-26.5 -77.5v-69q0 -50 26.5 -77.5t77.5 -27.5z" />
    <glyph glyph-name="ogonek" unicode="&#x2db;"
d="M430 -434q-114 0 -184 41.5t-70 132.5q0 81 59 137t185 115l-17 53h191l20 -45q-136 -85 -184.5 -128.5t-48.5 -86.5q0 -68 78 -68q58 0 112 58l109 -105q-55 -104 -250 -104z" />
    <glyph glyph-name="tilde" unicode="&#x2dc;"
d="M770 1231q-67 0 -158 41q-40 17 -57.5 24t-46.5 14t-55 7q-34 0 -60.5 -11.5t-60.5 -39.5l-107 139q87 131 234 131q66 0 157 -41q39 -17 57.5 -24t47.5 -14t55 -7q34 0 60.5 11.5t60.5 39.5l107 -139q-87 -131 -234 -131z" />
    <glyph glyph-name="hungarumlaut" unicode="&#x2dd;"
d="M705 1546l-275 -360l-166 80l203 397zM684 1266l203 397l237 -117l-274 -360z" />
    <glyph glyph-name="uni0300" unicode="&#x300;" horiz-adv-x="0"
d="M-31 1186l-274 360l252 125l203 -397z" />
    <glyph glyph-name="uni0301" unicode="&#x301;" horiz-adv-x="0"
d="M309 1546l-274 -360l-180 88l202 397z" />
    <glyph glyph-name="uni0302" unicode="&#x302;" horiz-adv-x="0"
d="M-125 1628h254l270 -325l-149 -119l-248 235l-248 -235l-149 119z" />
    <glyph glyph-name="uni0303" unicode="&#x303;" horiz-adv-x="0"
d="M158 1231q-67 0 -158 41q-39 17 -57.5 24t-47.5 14t-55 7q-34 0 -60.5 -11.5t-60.5 -39.5l-106 139q87 131 233 131q67 0 158 -41q39 -17 57.5 -24t47.5 -14t55 -7q34 0 60.5 11.5t60.5 39.5l106 -139q-87 -131 -233 -131z" />
    <glyph glyph-name="uni0304" unicode="&#x304;" horiz-adv-x="0"
d="M-311 1278v211h626v-211h-626z" />
    <glyph glyph-name="uni0306" unicode="&#x306;" horiz-adv-x="0"
d="M2 1186q-274 0 -389 348l166 86l41 -68q48 -79 89.5 -117t92.5 -38t94 38t90 117l41 68l164 -86q-21 -63 -50 -117.5t-75 -110t-114 -88t-150 -32.5z" />
    <glyph glyph-name="uni0307" unicode="&#x307;" horiz-adv-x="0"
d="M2 1210q-182 0 -182 144v59q0 143 182 143t182 -143v-59q0 -144 -182 -144z" />
    <glyph glyph-name="uni0308" unicode="&#x308;" horiz-adv-x="0"
d="M-223 1229q-164 0 -164 129v51q0 129 164 129t164 -129v-51q0 -129 -164 -129zM227 1229q-164 0 -164 129v51q0 129 164 129t164 -129v-51q0 -129 -164 -129z" />
    <glyph glyph-name="uni0309" unicode="&#x309;" horiz-adv-x="0"
d="M-246 1425v217h293q103 0 152 -40.5t49 -108.5q0 -117 -117 -258l-57 -70l-154 72l84 188h-250z" />
    <glyph glyph-name="uni030A" unicode="&#x30a;" horiz-adv-x="0"
d="M2 1143q-128 0 -215.5 82t-87.5 211t87.5 211t215.5 82t215.5 -82t87.5 -211t-87.5 -211t-215.5 -82zM2 1296q51 0 77.5 27.5t26.5 77.5v69q0 50 -26.5 77.5t-77.5 27.5t-77.5 -27.5t-26.5 -77.5v-69q0 -50 26.5 -77.5t77.5 -27.5z" />
    <glyph glyph-name="uni030B" unicode="&#x30b;" horiz-adv-x="0"
d="M92 1546l-274 -360l-166 80l203 397zM72 1266l202 397l238 -117l-274 -360z" />
    <glyph glyph-name="uni030C" unicode="&#x30c;" horiz-adv-x="0"
d="M129 1202h-254l-270 326l149 119l248 -236l248 236l149 -119z" />
    <glyph glyph-name="uni0312" unicode="&#x312;" horiz-adv-x="0"
d="M4 1180q-68 0 -105.5 33t-37.5 94v28q0 93 38 181.5t99 140.5h174q-51 -42 -80 -89.5t-47 -113.5q102 -8 102 -125v-22q0 -61 -37.5 -94t-105.5 -33z" />
    <glyph glyph-name="uni0315" unicode="&#x315;" horiz-adv-x="0"
d="M336 1516l-135 -441h-199l12 441h322z" />
    <glyph glyph-name="uni031B" unicode="&#x31b;" horiz-adv-x="0"
d="M256 1292v-192q0 -110 -43.5 -158.5t-161.5 -48.5h-307v182h258v217h254z" />
    <glyph glyph-name="uni0323" unicode="&#x323;" horiz-adv-x="0"
d="M0 -418q-87 0 -126.5 35t-39.5 94v53q0 59 39.5 94.5t126.5 35.5t126.5 -35.5t39.5 -94.5v-53q0 -59 -39.5 -94t-126.5 -35z" />
    <glyph glyph-name="uni0326" unicode="&#x326;" horiz-adv-x="0"
d="M-2 -86q68 0 105.5 -33t37.5 -94v-29q0 -93 -38 -181t-99 -140h-174q51 42 80 89.5t47 113.5q-102 8 -102 124v23q0 61 37.5 94t105.5 33z" />
    <glyph glyph-name="uni0327" unicode="&#x327;" horiz-adv-x="0"
d="M31 -434q-177 0 -254 90l94 115q49 -60 135 -60q40 0 65 13t25 38q0 70 -153 82l-43 4l45 213h137l-37 -174l8 -8q62 15 99 15q66 0 107.5 -35.5t41.5 -106.5q0 -66 -40 -109.5t-98 -60t-132 -16.5z" />
    <glyph glyph-name="uni0328" unicode="&#x328;" horiz-adv-x="0"
d="M-182 -434q-114 0 -184 41.5t-70 132.5q0 81 58.5 137t184.5 115l-16 53h191l20 -45q-136 -85 -184.5 -128.5t-48.5 -86.5q0 -68 77 -68q59 0 113 58l109 -105q-55 -104 -250 -104z" />
    <glyph glyph-name="uni037E" unicode="&#x37e;" horiz-adv-x="675"
d="M338 346q89 0 134.5 -44.5t45.5 -119.5v-41q0 -124 -60.5 -245.5t-158.5 -196.5h-205q78 74 127 140t74 143q-69 12 -103 54t-34 105v41q0 75 45.5 119.5t134.5 44.5zM338 729q-89 0 -134.5 44.5t-45.5 119.5v41q0 75 45.5 119.5t134.5 44.5t134.5 -44.5t45.5 -119.5v-41
q0 -75 -45.5 -119.5t-134.5 -44.5z" />
    <glyph glyph-name="tonos" unicode="&#x384;"
d="M870 1630l-149 -444l-195 28l72 457z" />
    <glyph glyph-name="dieresistonos" unicode="&#x385;"
d="M375 1239q-131 0 -131 119v49q0 121 131 121t131 -119v-49q0 -121 -131 -121zM842 1636l-150 -450l-129 22l72 463zM977 1239q-131 0 -131 119v49q0 121 131 121t131 -119v-49q0 -121 -131 -121z" />
    <glyph glyph-name="Alphatonos" unicode="&#x386;" horiz-adv-x="1402"
d="M1362 0h-324l-102 340h-477l-103 -340h-315l471 1430h385zM86 1214l72 457l272 -41l-149 -444zM532 604h328l-160 543h-10z" />
    <glyph glyph-name="anoteleia" unicode="&#x387;" horiz-adv-x="675"
d="M338 729q-89 0 -134.5 44.5t-45.5 119.5v41q0 75 45.5 119.5t134.5 44.5t134.5 -44.5t45.5 -119.5v-41q0 -75 -45.5 -119.5t-134.5 -44.5z" />
    <glyph glyph-name="Epsilontonos" unicode="&#x388;" horiz-adv-x="1439"
d="M1327 0h-973v1430h973v-277h-661v-293h567v-274h-567v-310h661v-276zM-31 1214l72 457l272 -41l-149 -444z" />
    <glyph glyph-name="Etatonos" unicode="&#x389;" horiz-adv-x="1679"
d="M1210 0v586h-544v-586h-312v1430h312v-570h544v570h312v-1430h-312zM-31 1214l72 457l272 -41l-149 -444z" />
    <glyph glyph-name="Iotatonos" unicode="&#x38a;" horiz-adv-x="1136"
d="M1034 0h-680v248h185v934h-185v248h680v-248h-184v-934h184v-248zM-31 1214l72 457l272 -41l-149 -444z" />
    <glyph glyph-name="Omicrontonos" unicode="&#x38c;" horiz-adv-x="1548"
d="M817 -25q-291 0 -460 191t-169 549t169 548.5t460 190.5t460 -190.5t169 -548.5t-169 -549t-460 -191zM817 252q142 0 220.5 92.5t78.5 263.5v213q0 171 -78.5 264t-220.5 93t-220.5 -93t-78.5 -264v-213q0 -171 78.5 -263.5t220.5 -92.5zM313 1630l-149 -444l-195 28
l72 457z" />
    <glyph glyph-name="Upsilontonos" unicode="&#x38e;" horiz-adv-x="1624"
d="M1116 0h-313v559l-490 871h349l307 -570h4l295 570h338l-490 -869v-561zM-31 1214l72 457l272 -41l-149 -444z" />
    <glyph glyph-name="Omegatonos" unicode="&#x38f;" horiz-adv-x="1570"
d="M190 0v274h326v21q-315 141 -315 524q0 133 42 248t120 201.5t198.5 136t267.5 49.5q196 0 340.5 -86t216.5 -228.5t72 -320.5q0 -383 -315 -524v-21h325v-274h-550v420q93 29 152.5 113t59.5 184v166q0 120 -82 207.5t-219 87.5t-219 -87.5t-82 -207.5v-166
q0 -100 60 -184t153 -113v-420h-551zM313 1630l-149 -444l-195 28l72 457z" />
    <glyph glyph-name="iotadieresistonos" unicode="&#x390;" horiz-adv-x="673"
d="M641 236v-236h-180q-158 0 -239 79.5t-81 233.5v762h303v-839h197zM18 1239q-131 0 -131 119v49q0 121 131 121q132 0 132 -119v-49q0 -121 -132 -121zM485 1636l-149 -450l-129 22l72 463zM621 1239q-132 0 -132 119v49q0 121 132 121q131 0 131 -119v-49
q0 -121 -131 -121z" />
    <glyph glyph-name="Alpha" unicode="&#x391;" horiz-adv-x="1402"
d="M1362 0h-324l-102 340h-477l-103 -340h-315l471 1430h385zM532 604h328l-160 543h-10z" />
    <glyph glyph-name="Beta" unicode="&#x392;" horiz-adv-x="1366"
d="M158 0v1430h694q177 0 277 -99.5t100 -267.5q0 -156 -72.5 -229t-193.5 -78v-13q54 0 108.5 -19.5t103 -57.5t79 -105t30.5 -153q0 -173 -105 -290.5t-264 -117.5h-757zM469 590v-328h358q62 0 98 34t36 95v70q0 61 -36 95t-98 34h-358zM469 1167v-323h309q62 0 96.5 35
t34.5 96v61q0 62 -34.5 96.5t-96.5 34.5h-309z" />
    <glyph glyph-name="Gamma" unicode="&#x393;" horiz-adv-x="1052"
d="M158 0v1430h839v-277h-528v-1153h-311z" />
    <glyph glyph-name="uni0394" unicode="&#x394;" horiz-adv-x="1400"
d="M100 0v248l408 1182h385l407 -1182v-248h-1200zM418 276h555l-273 871h-10z" />
    <glyph glyph-name="Epsilon" unicode="&#x395;" horiz-adv-x="1243"
d="M1130 0h-972v1430h972v-277h-661v-293h567v-274h-567v-310h661v-276z" />
    <glyph glyph-name="Zeta" unicode="&#x396;" horiz-adv-x="1243"
d="M1163 276v-276h-1083v276l704 877h-669v277h1032v-277l-707 -877h723z" />
    <glyph glyph-name="Eta" unicode="&#x397;" horiz-adv-x="1482"
d="M1014 0v586h-545v-586h-311v1430h311v-570h545v570h311v-1430h-311z" />
    <glyph glyph-name="Theta" unicode="&#x398;" horiz-adv-x="1482"
d="M741 -25q-300 0 -469.5 190.5t-169.5 549.5t169.5 549t469.5 190t469.5 -190t169.5 -549t-169.5 -549.5t-469.5 -190.5zM741 252q149 0 229.5 92t80.5 264v213q0 172 -80.5 264.5t-229.5 92.5t-229 -92.5t-80 -264.5v-213q0 -172 80 -264t229 -92zM938 586h-393v274h393
v-274z" />
    <glyph glyph-name="Iota" unicode="&#x399;" horiz-adv-x="884"
d="M782 0h-680v248h185v934h-185v248h680v-248h-184v-934h184v-248z" />
    <glyph glyph-name="Kappa" unicode="&#x39a;" horiz-adv-x="1425"
d="M1034 0l-379 623l-186 -226v-397h-311v1430h311v-680h12l203 276l322 404h352l-481 -588l524 -842h-367z" />
    <glyph glyph-name="Lambda" unicode="&#x39b;" horiz-adv-x="1374"
d="M506 1430h366l461 -1430h-323l-213 686l-113 449h-6l-109 -449l-213 -686h-315z" />
    <glyph glyph-name="Mu" unicode="&#x39c;" horiz-adv-x="1677"
d="M1227 0v938h-6l-105 -209l-278 -506l-273 504l-108 225h-6v-952h-293v1430h329l351 -670h4l346 670h332v-1430h-293z" />
    <glyph glyph-name="Nu" unicode="&#x39d;" horiz-adv-x="1482"
d="M985 0l-391 676l-137 287h-6v-963h-293v1430h340l391 -676l137 -287h6v963h293v-1430h-340z" />
    <glyph glyph-name="Xi" unicode="&#x39e;" horiz-adv-x="1239"
d="M113 1153v277h1013v-277h-1013zM113 0v276h1013v-276h-1013zM238 586v274h763v-274h-763z" />
    <glyph glyph-name="Omicron" unicode="&#x39f;" horiz-adv-x="1462"
d="M731 -25q-291 0 -460 191t-169 549t169 548.5t460 190.5t460 -190.5t169 -548.5t-169 -549t-460 -191zM731 252q142 0 220.5 92.5t78.5 263.5v213q0 171 -78.5 264t-220.5 93t-220.5 -93t-78.5 -264v-213q0 -171 78.5 -263.5t220.5 -92.5z" />
    <glyph glyph-name="Pi" unicode="&#x3a0;" horiz-adv-x="1452"
d="M158 0v1430h1136v-1430h-311v1153h-514v-1153h-311z" />
    <glyph glyph-name="Rho" unicode="&#x3a1;" horiz-adv-x="1343"
d="M469 0h-311v1430h676q198 0 316 -128t118 -329q0 -204 -117.5 -330.5t-316.5 -126.5h-365v-516zM469 1159v-373h328q70 0 109.5 37t39.5 105v90q0 68 -39.5 104.5t-109.5 36.5h-328z" />
    <glyph glyph-name="Sigma" unicode="&#x3a3;" horiz-adv-x="1251"
d="M1145 0h-1055v276l455 441l-434 436v277h1034v-275h-649l426 -428l-465 -453h688v-274z" />
    <glyph glyph-name="Tau" unicode="&#x3a4;" horiz-adv-x="1196"
d="M1141 1153h-387v-1153h-312v1153h-387v277h1086v-277z" />
    <glyph glyph-name="Upsilon" unicode="&#x3a5;" horiz-adv-x="1329"
d="M821 0h-313v559l-490 871h349l307 -570h4l295 570h338l-490 -869v-561z" />
    <glyph glyph-name="Phi" unicode="&#x3a6;" horiz-adv-x="1736"
d="M711 -90v156h-21q-278 0 -443 177t-165 480q0 305 165 483t443 178h21v132h315v-132h21q280 0 444 -179t164 -478q0 -305 -165 -483t-443 -178h-21v-156h-315zM717 322v806h-21q-121 0 -208 -93.5t-87 -246.5v-126q0 -153 87 -246.5t208 -93.5h21zM1020 322h20
q121 0 208 93.5t87 246.5v126q0 153 -87 246.5t-208 93.5h-20v-806z" />
    <glyph glyph-name="Chi" unicode="&#x3a7;" horiz-adv-x="1378"
d="M881 733l465 -733h-361l-309 526h-6l-301 -526h-336l459 739l-437 691h363l278 -484h6l283 484h336z" />
    <glyph glyph-name="Psi" unicode="&#x3a8;" horiz-adv-x="1720"
d="M702 0v360q-286 0 -426.5 158t-140.5 443v469h311v-469q0 -187 62.5 -266t193.5 -79v814h316v-814q132 0 194 79.5t62 265.5v469h311v-469q0 -285 -140.5 -443t-426.5 -158v-360h-316z" />
    <glyph glyph-name="uni03A9" unicode="&#x3a9;" horiz-adv-x="1482"
d="M102 0v274h326v21q-315 141 -315 524q0 133 42 248t120 201.5t198.5 136t267.5 49.5q196 0 340.5 -86t216.5 -228.5t72 -320.5q0 -383 -315 -524v-21h325v-274h-551v420q93 29 153 113t60 184v166q0 120 -82 207.5t-219 87.5t-219 -87.5t-82 -207.5v-166q0 -100 60 -184
t153 -113v-420h-551z" />
    <glyph glyph-name="Iotadieresis" unicode="&#x3aa;" horiz-adv-x="884"
d="M782 0h-680v248h185v934h-185v248h680v-248h-184v-934h184v-248zM219 1559q-164 0 -164 129v51q0 129 164 129t164 -129v-51q0 -129 -164 -129zM670 1559q-164 0 -164 129v51q0 129 164 129t164 -129v-51q0 -129 -164 -129z" />
    <glyph glyph-name="Upsilondieresis" unicode="&#x3ab;" horiz-adv-x="1329"
d="M821 0h-313v559l-490 871h349l307 -570h4l295 570h338l-490 -869v-561zM440 1559q-164 0 -164 129v51q0 129 164 129t164 -129v-51q0 -129 -164 -129zM891 1559q-164 0 -164 129v51q0 129 164 129t164 -129v-51q0 -129 -164 -129z" />
    <glyph glyph-name="alphatonos" unicode="&#x3ac;" horiz-adv-x="1366"
d="M1296 236v-236h-120q-123 0 -180.5 46t-82.5 167l-18 90h-6q-51 -169 -138.5 -248.5t-236.5 -79.5q-201 0 -313.5 145t-112.5 417t112.5 417.5t313.5 145.5q152 0 244.5 -78.5t142.5 -249.5h8l37 146l47 157h303l-237 -530l123 -309h114zM541 221q101 0 168 187l45 131
l-45 129q-67 186 -168 186q-138 0 -138 -236v-161q0 -236 138 -236zM831 1630l-149 -444l-195 28l72 457z" />
    <glyph glyph-name="epsilontonos" unicode="&#x3ad;" horiz-adv-x="1081"
d="M883 342l151 -188q-165 -179 -481 -179q-218 0 -344.5 89.5t-126.5 238.5q0 219 254 256v10q-116 17 -171.5 73t-55.5 153q0 136 119 220.5t327 84.5q153 0 263 -41t198 -127l-174 -178q-108 108 -264 108q-80 0 -122 -27t-42 -75v-21q0 -92 121 -92h210v-201h-237
q-121 0 -121 -92v-22q0 -61 47.5 -90t155.5 -29q167 0 293 129zM809 1630l-150 -444l-194 28l72 457z" />
    <glyph glyph-name="etatonos" unicode="&#x3ae;" horiz-adv-x="1249"
d="M473 0h-303v840h-100v235h168q207 0 231 -192h12q72 217 303 217q165 0 250.5 -110t85.5 -316v-1084h-303v1059q0 108 -33.5 156.5t-115.5 48.5q-80 0 -137.5 -41.5t-57.5 -116.5v-696zM881 1630l-150 -444l-194 28l71 457z" />
    <glyph glyph-name="iotatonos" unicode="&#x3af;" horiz-adv-x="673"
d="M641 236v-236h-180q-158 0 -239 79.5t-81 233.5v762h303v-839h197zM547 1630l-150 -444l-194 28l71 457z" />
    <glyph glyph-name="upsilondieresistonos" unicode="&#x3b0;" horiz-adv-x="1191"
d="M424 1075v-645q0 -110 41 -162.5t131 -52.5t131 52.5t41 162.5v645h303v-586q0 -514 -475 -514t-475 514v586h303zM322 1239q-132 0 -132 119v49q0 121 132 121q131 0 131 -119v-49q0 -121 -131 -121zM788 1636l-149 -450l-129 22l72 463zM924 1239q-131 0 -131 119v49
q0 121 131 121t131 -119v-49q0 -121 -131 -121z" />
    <glyph glyph-name="alpha" unicode="&#x3b1;" horiz-adv-x="1366"
d="M1296 236v-236h-120q-123 0 -180.5 46t-82.5 167l-18 90h-6q-51 -169 -138.5 -248.5t-236.5 -79.5q-201 0 -313.5 145t-112.5 417t112.5 417.5t313.5 145.5q152 0 244.5 -78.5t142.5 -249.5h8l37 146l47 157h303l-237 -530l123 -309h114zM541 221q101 0 168 187l45 131
l-45 129q-67 186 -168 186q-138 0 -138 -236v-161q0 -236 138 -236z" />
    <glyph glyph-name="beta" unicode="&#x3b2;" horiz-adv-x="1247"
d="M141 -410v1389q0 277 118.5 419t356.5 142q123 0 216.5 -31t149.5 -86t84 -124.5t28 -151.5q0 -274 -242 -350v-11q147 -19 226 -106.5t79 -235.5q0 -212 -107.5 -340.5t-301.5 -128.5q-108 0 -188.5 58t-104.5 147h-11v-590h-303zM567 655v236h68q66 0 109.5 45
t43.5 117v61q0 88 -42 137t-130 49q-79 0 -125.5 -56t-46.5 -157v-708q0 -77 55 -120.5t148 -43.5q97 0 151 51.5t54 143.5v69q0 82 -54.5 129t-150.5 47h-80z" />
    <glyph glyph-name="gamma" unicode="&#x3b3;" horiz-adv-x="1105"
d="M393 -410v410l-276 840h-101v235h107q120 0 184 -48t99 -171l71 -256l68 -303h16l84 303l156 475h286l-391 -1075v-410h-303z" />
    <glyph glyph-name="delta" unicode="&#x3b4;" horiz-adv-x="1155"
d="M985 1280h-323l-191 23v-9l215 -131q215 -133 305 -282.5t90 -341.5q0 -262 -133 -413t-370 -151q-233 0 -368.5 148.5t-135.5 388.5q0 228 109.5 362t269.5 134v12l-269 209v287h801v-236zM766 428v84q0 132 -35 216.5t-133 174.5q-103 -17 -156 -90t-53 -192v-193
q0 -103 49 -158t140 -55t139.5 55t48.5 158z" />
    <glyph glyph-name="epsilon" unicode="&#x3b5;" horiz-adv-x="1081"
d="M883 342l151 -188q-165 -179 -481 -179q-218 0 -344.5 89.5t-126.5 238.5q0 219 254 256v10q-116 17 -171.5 73t-55.5 153q0 136 119 220.5t327 84.5q153 0 263 -41t198 -127l-174 -178q-108 108 -264 108q-80 0 -122 -27t-42 -75v-21q0 -92 121 -92h210v-201h-237
q-121 0 -121 -92v-22q0 -61 47.5 -90t155.5 -29q167 0 293 129z" />
    <glyph glyph-name="zeta" unicode="&#x3b6;" horiz-adv-x="897"
d="M119 1280v236h766v-238l-348 -465q-80 -108 -114 -185.5t-34 -146.5v-28q0 -141 156 -181l151 -41q84 -23 128 -78.5t44 -129.5q0 -52 -24 -113l-111 -268l-246 94l99 239l-152 41q-191 51 -275.5 151t-84.5 249q0 148 47 252q63 139 213 313l260 309v10l-168 -20h-307z
" />
    <glyph glyph-name="eta" unicode="&#x3b7;" horiz-adv-x="1249"
d="M473 0h-303v840h-100v235h168q207 0 231 -192h12q72 217 303 217q165 0 250.5 -110t85.5 -316v-1084h-303v1059q0 108 -33.5 156.5t-115.5 48.5q-80 0 -137.5 -41.5t-57.5 -116.5v-696z" />
    <glyph glyph-name="theta" unicode="&#x3b8;" horiz-adv-x="1179"
d="M590 1540q244 0 368 -170q136 -190 136 -612q0 -424 -136 -611q-123 -172 -368 -172q-246 0 -369 172q-135 186 -135 611q0 423 135 612q124 170 369 170zM590 215q99 0 143.5 70t44.5 247v109h-377v-109q0 -178 44.5 -247.5t144.5 -69.5zM401 983v-106h377v106
q0 177 -44.5 247t-143.5 70q-100 0 -144.5 -69.5t-44.5 -247.5z" />
    <glyph glyph-name="iota" unicode="&#x3b9;" horiz-adv-x="673"
d="M641 236v-236h-180q-158 0 -239 79.5t-81 233.5v762h303v-839h197z" />
    <glyph glyph-name="kappa" unicode="&#x3ba;" horiz-adv-x="1187"
d="M805 0l-225 449l-136 -136v-313h-303v1075h303v-461h13l137 181l162 182q55 58 102.5 78t132.5 20h107v-235h-125l-193 -193l379 -647h-354z" />
    <glyph glyph-name="lambda" unicode="&#x3bb;" horiz-adv-x="1101"
d="M393 1075l-67 205h-176v236h182q117 0 176 -44t96 -157l352 -1079h125v-236h-131q-117 0 -176 44t-96 157l-86 266l-57 254h-23l-59 -254l-158 -467h-287z" />
    <glyph glyph-name="uni03BC" unicode="&#x3bc;" horiz-adv-x="1261"
d="M442 -410h-301v1485h303v-653q0 -101 36 -151t116 -50q81 0 136.5 43.5t55.5 114.5v696h304v-839h100v-236h-102q-241 0 -291 197h-11q-48 -222 -221 -222q-65 0 -107.5 26t-84.5 89h-10l77 -287v-213z" />
    <glyph glyph-name="nu" unicode="&#x3bd;" horiz-adv-x="1105"
d="M725 0h-360l-248 840h-101v235h107q120 0 185.5 -50t97.5 -173l75 -291l64 -309h16l82 309l158 514h286z" />
    <glyph glyph-name="xi" unicode="&#x3be;" horiz-adv-x="903"
d="M899 1280h-268q-94 0 -143.5 -45.5t-49.5 -136.5v-33q0 -79 54.5 -126.5t150.5 -47.5h100v-236h-194q-66 0 -110 -44t-44 -113v-54q0 -72 34 -111.5t118 -62.5l143 -39q84 -23 128 -78.5t44 -129.5q0 -52 -24 -113l-111 -268l-246 94l99 239l-144 39q-189 51 -267.5 152
t-78.5 270q0 133 81.5 230t223.5 118v11q-252 43 -252 249q0 74 43.5 134.5t116.5 85.5v16h-235v236h831v-236z" />
    <glyph glyph-name="omicron" unicode="&#x3bf;" horiz-adv-x="1155"
d="M578 -25q-235 0 -369.5 149.5t-134.5 414.5q0 261 133.5 411t370.5 150t370 -150t133 -411q0 -265 -134 -414.5t-369 -149.5zM578 215q91 0 139.5 55t48.5 158v219q0 103 -48.5 158t-139.5 55t-140 -55t-49 -158v-219q0 -103 49 -158t140 -55z" />
    <glyph glyph-name="pi" unicode="&#x3c0;" horiz-adv-x="1341"
d="M1077 840v-604h135v-236h-118q-158 0 -239 79.5t-81 233.5v527h-260v-840h-303v840h-164v235h1225v-235h-195z" />
    <glyph glyph-name="rho" unicode="&#x3c1;" horiz-adv-x="1181"
d="M98 -410v949q0 280 119.5 420.5t372.5 140.5q264 0 384 -141t120 -420q0 -275 -102.5 -419.5t-297.5 -144.5q-103 0 -179.5 58.5t-102.5 146.5h-11v-590h-303zM590 215q82 0 135 60.5t53 168.5v203q0 103 -48.5 158t-139.5 55t-140 -55t-49 -158v-268q0 -76 54 -120
t135 -44z" />
    <glyph glyph-name="uni03C2" unicode="&#x3c2;" horiz-adv-x="1038"
d="M532 -264l99 239l-129 35q-234 62 -331 187t-97 378q0 234 134.5 379.5t366.5 145.5q163 0 273 -73t158 -208l-246 -106q-14 65 -61.5 106t-123.5 41q-91 0 -138.5 -59t-47.5 -164v-119q0 -193 223 -252l129 -35q84 -23 128 -78.5t44 -129.5q0 -52 -24 -113l-111 -268z
" />
    <glyph glyph-name="sigma" unicode="&#x3c3;" horiz-adv-x="1200"
d="M1155 840h-235v-17q82 -51 121.5 -125t39.5 -192q0 -237 -134 -384t-369 -147q-234 0 -369 148t-135 403q0 262 132.5 405.5t371.5 143.5h577v-235zM676 840h-98q-92 0 -140.5 -51.5t-48.5 -153.5v-207q0 -103 49 -158t140 -55t139.5 55t48.5 158v207q0 131 -90 205z" />
    <glyph glyph-name="tau" unicode="&#x3c4;" horiz-adv-x="1024"
d="M852 0h-201q-158 0 -238.5 79.5t-80.5 233.5v527h-291v235h926v-235h-332v-604h217v-236z" />
    <glyph glyph-name="upsilon" unicode="&#x3c5;" horiz-adv-x="1191"
d="M424 1075v-645q0 -110 41 -162.5t131 -52.5t131 52.5t41 162.5v645h303v-586q0 -514 -475 -514t-475 514v586h303z" />
    <glyph glyph-name="phi" unicode="&#x3c6;" horiz-adv-x="1583"
d="M637 -410v385q-256 0 -402.5 149.5t-146.5 418.5q0 410 266 557l193 -182q-144 -111 -144 -306v-151q0 -122 65 -186t169 -64v422q0 222 104 344.5t316 122.5q224 0 331 -128t107 -415q0 -282 -146 -432t-415 -150v-385h-297zM934 676v-465q114 0 180 63t66 187v215
q0 102 -30 145t-93 43t-93 -43t-30 -145z" />
    <glyph glyph-name="chi" unicode="&#x3c7;" horiz-adv-x="1116"
d="M39 1075h141q115 0 174.5 -41.5t96.5 -142.5l118 -320h9l198 504h320l-348 -723l217 -526h135v-236h-142q-115 0 -174.5 42.5t-95.5 142.5l-125 354h-8l-211 -539h-319l362 756l-213 494h-135v235z" />
    <glyph glyph-name="psi" unicode="&#x3c8;" horiz-adv-x="1554"
d="M926 -410h-297v385q-508 0 -508 543v557h303v-620q0 -126 51.5 -185t153.5 -59v1243h297v-1243q102 0 153 58.5t51 185.5v620h304v-557q0 -543 -508 -543v-385z" />
    <glyph glyph-name="omega" unicode="&#x3c9;" horiz-adv-x="1576"
d="M940 756v-353q0 -103 27.5 -145.5t89.5 -42.5t89.5 42.5t27.5 145.5v209q0 186 -144 306l193 182q137 -73 201.5 -213.5t64.5 -376.5q0 -264 -104 -399.5t-287 -135.5q-243 0 -305 281h-9q-62 -281 -305 -281q-183 0 -287 135.5t-104 399.5q0 230 65.5 373.5t200.5 216.5
l193 -182q-144 -111 -144 -306v-209q0 -103 27.5 -145.5t89.5 -42.5t89.5 42.5t27.5 145.5v353h303z" />
    <glyph glyph-name="iotadieresis" unicode="&#x3ca;" horiz-adv-x="673"
d="M641 236v-236h-180q-158 0 -239 79.5t-81 233.5v762h303v-839h197zM82 1229q-164 0 -164 129v51q0 129 164 129t164 -129v-51q0 -129 -164 -129zM532 1229q-163 0 -163 129v51q0 129 163 129q164 0 164 -129v-51q0 -129 -164 -129z" />
    <glyph glyph-name="upsilondieresis" unicode="&#x3cb;" horiz-adv-x="1191"
d="M424 1075v-645q0 -110 41 -162.5t131 -52.5t131 52.5t41 162.5v645h303v-586q0 -514 -475 -514t-475 514v586h303zM385 1229q-164 0 -164 129v51q0 129 164 129t164 -129v-51q0 -129 -164 -129zM836 1229q-164 0 -164 129v51q0 129 164 129q163 0 163 -129v-51
q0 -129 -163 -129z" />
    <glyph glyph-name="omicrontonos" unicode="&#x3cc;" horiz-adv-x="1155"
d="M578 -25q-235 0 -369.5 149.5t-134.5 414.5q0 261 133.5 411t370.5 150t370 -150t133 -411q0 -265 -134 -414.5t-369 -149.5zM578 215q91 0 139.5 55t48.5 158v219q0 103 -48.5 158t-139.5 55t-140 -55t-49 -158v-219q0 -103 49 -158t140 -55zM817 1630l-149 -444
l-195 28l72 457z" />
    <glyph glyph-name="upsilontonos" unicode="&#x3cd;" horiz-adv-x="1191"
d="M424 1075v-645q0 -110 41 -162.5t131 -52.5t131 52.5t41 162.5v645h303v-586q0 -514 -475 -514t-475 514v586h303zM850 1630l-150 -444l-194 28l72 457z" />
    <glyph glyph-name="omegatonos" unicode="&#x3ce;" horiz-adv-x="1576"
d="M940 756v-353q0 -103 27.5 -145.5t89.5 -42.5t89.5 42.5t27.5 145.5v209q0 186 -144 306l193 182q137 -73 201.5 -213.5t64.5 -376.5q0 -264 -104 -399.5t-287 -135.5q-243 0 -305 281h-9q-62 -281 -305 -281q-183 0 -287 135.5t-104 399.5q0 230 65.5 373.5t200.5 216.5
l193 -182q-144 -111 -144 -306v-209q0 -103 27.5 -145.5t89.5 -42.5t89.5 42.5t27.5 145.5v353h303zM1028 1630l-149 -444l-195 28l72 457z" />
    <glyph glyph-name="uni0400" unicode="&#x400;" horiz-adv-x="1243"
d="M1130 0h-972v1430h972v-277h-661v-293h567v-274h-567v-310h661v-276zM338 1876l252 125l203 -397l-181 -88z" />
    <glyph glyph-name="uni0401" unicode="&#x401;" horiz-adv-x="1243"
d="M1130 0h-972v1430h972v-277h-661v-293h567v-274h-567v-310h661v-276zM420 1559q-164 0 -164 129v51q0 129 164 129t164 -129v-51q0 -129 -164 -129zM870 1559q-163 0 -163 129v51q0 129 163 129q164 0 164 -129v-51q0 -129 -164 -129z" />
    <glyph glyph-name="uni0402" unicode="&#x402;" horiz-adv-x="1652"
d="M967 -377v289h211q53 75 53 229v258q0 244 -234 244q-156 0 -243 -37v-606h-312v1153h-387v277h1086v-277h-387v-287h10q100 47 262 47q516 0 516 -526v-258q0 -248 -122 -377t-347 -129h-106z" />
    <glyph glyph-name="uni0403" unicode="&#x403;" horiz-adv-x="1052"
d="M158 0v1430h839v-277h-528v-1153h-311zM432 1604l203 397l252 -125l-275 -360z" />
    <glyph glyph-name="uni0404" unicode="&#x404;" horiz-adv-x="1374"
d="M756 -25q-312 0 -483 186t-171 544q0 360 172 554.5t482 194.5q200 0 328.5 -78t222.5 -241l-260 -148q-27 64 -60.5 103.5t-91 63.5t-139.5 24q-148 0 -230.5 -81.5t-93.5 -236.5h473v-274h-473v-8q6 -160 89 -243t235 -83q123 0 195 53.5t110 151.5l252 -156
q-81 -160 -215 -243t-342 -83z" />
    <glyph glyph-name="uni0405" unicode="&#x405;" horiz-adv-x="1277"
d="M621 -25q-335 0 -543 232l205 207q144 -164 358 -164q112 0 168.5 45.5t56.5 126.5q0 65 -36 102.5t-130 50.5l-141 19q-438 56 -438 426q0 197 144.5 315.5t391.5 118.5q316 0 496 -201l-207 -209q-116 136 -307 136q-103 0 -155 -36.5t-52 -103.5q0 -72 38.5 -105.5
t131.5 -47.5l141 -23q223 -36 329 -137.5t106 -286.5q0 -211 -147.5 -338t-409.5 -127z" />
    <glyph glyph-name="uni0406" unicode="&#x406;" horiz-adv-x="884"
d="M782 0h-680v248h185v934h-185v248h680v-248h-184v-934h184v-248z" />
    <glyph glyph-name="uni0407" unicode="&#x407;" horiz-adv-x="884"
d="M782 0h-680v248h185v934h-185v248h680v-248h-184v-934h184v-248zM219 1559q-164 0 -164 129v51q0 129 164 129t164 -129v-51q0 -129 -164 -129zM670 1559q-164 0 -164 129v51q0 129 164 129t164 -129v-51q0 -129 -164 -129z" />
    <glyph glyph-name="uni0408" unicode="&#x408;" horiz-adv-x="1144"
d="M250 1430h745v-1016q0 -203 -128.5 -320t-342.5 -117q-199 0 -320.5 105t-152.5 297l291 57q34 -186 178 -186q72 0 118 45t46 133v752h-434v250z" />
    <glyph glyph-name="uni0409" unicode="&#x409;" horiz-adv-x="2144"
d="M41 -12v288h170q66 72 100 222q35 166 35 477v455h952v-517h344q198 0 316.5 -127.5t118.5 -328.5q0 -203 -118 -330t-317 -127h-655v1153h-338v-221q0 -644 -184 -828q-63 -63 -136 -89.5t-182 -26.5h-106zM1298 270h308q70 0 109.5 37t39.5 105v90q0 68 -39.5 104.5
t-109.5 36.5h-308v-373z" />
    <glyph glyph-name="uni040A" unicode="&#x40a;" horiz-adv-x="2129"
d="M158 0v1430h311v-570h504v570h311v-517h344q198 0 316 -127.5t118 -328.5q0 -204 -117.5 -330.5t-316.5 -126.5h-655v586h-504v-586h-311zM1284 270h307q70 0 110 37t40 105v90q0 68 -40 104.5t-110 36.5h-307v-373z" />
    <glyph glyph-name="uni040B" unicode="&#x40b;" horiz-adv-x="1673"
d="M442 0v1153h-387v277h1086v-277h-387v-287h10q100 47 272 47q527 0 527 -526v-387h-312v399q0 244 -243 244q-167 0 -254 -37v-606h-312z" />
    <glyph glyph-name="uni040C" unicode="&#x40c;" horiz-adv-x="1382"
d="M158 0v1430h311v-570h207l213 400q49 89 107.5 129.5t148.5 40.5h127v-277h-127l-148 -279q-28 -54 -63 -83.5t-86 -47.5v-12q55 -11 92 -40.5t66 -88.5l168 -326h126v-276h-161q-88 0 -144 38t-106 136l-213 412h-207v-586h-311zM1032 1876l-274 -360l-180 88l202 397z
" />
    <glyph glyph-name="uni040D" unicode="&#x40d;" horiz-adv-x="1482"
d="M158 0v1430h303v-699l-33 -301h6l141 272l472 728h278v-1430h-303v698l33 301h-6l-142 -272l-471 -727h-278zM438 1876l252 125l203 -397l-180 -88z" />
    <glyph glyph-name="uni040E" unicode="&#x40e;" horiz-adv-x="1292"
d="M244 0v276h250l30 78l-499 1076h327l201 -445l119 -285h6l104 287l176 443h306l-504 -1229q-46 -112 -115 -156.5t-196 -44.5h-205zM651 1516q-252 0 -350 229l-43 104l236 88l65 -206q30 -15 92 -15t92 15l66 206l235 -88l-43 -104q-98 -229 -350 -229z" />
    <glyph glyph-name="uni040F" unicode="&#x40f;" horiz-adv-x="1452"
d="M580 -307v307h-422v1430h311v-1154h514v1154h311v-1430h-422v-307h-292z" />
    <glyph glyph-name="uni0410" unicode="&#x410;" horiz-adv-x="1402"
d="M1362 0h-324l-102 340h-477l-103 -340h-315l471 1430h385zM532 604h328l-160 543h-10z" />
    <glyph glyph-name="uni0411" unicode="&#x411;" horiz-adv-x="1345"
d="M158 0v1430h966v-277h-655v-268h365q199 0 316.5 -125t117.5 -320q0 -198 -118.5 -319t-315.5 -121h-676zM469 270h328q70 0 109.5 37t39.5 105v61q0 68 -39.5 104.5t-109.5 36.5h-328v-344z" />
    <glyph glyph-name="uni0412" unicode="&#x412;" horiz-adv-x="1366"
d="M158 0v1430h694q177 0 277 -99.5t100 -267.5q0 -156 -72.5 -229t-193.5 -78v-13q54 0 108.5 -19.5t103 -57.5t79 -105t30.5 -153q0 -173 -105 -290.5t-264 -117.5h-757zM469 590v-328h358q62 0 98 34t36 95v70q0 61 -36 95t-98 34h-358zM469 1167v-323h309q62 0 96.5 35
t34.5 96v61q0 62 -34.5 96.5t-96.5 34.5h-309z" />
    <glyph glyph-name="uni0413" unicode="&#x413;" horiz-adv-x="1052"
d="M158 0v1430h839v-277h-528v-1153h-311z" />
    <glyph glyph-name="uni0414" unicode="&#x414;" horiz-adv-x="1669"
d="M35 -307v583h155q80 75 123 239t43 460v455h1026v-1154h232v-583h-293v307h-993v-307h-293zM543 276h528v879h-412v-223q0 -254 -30 -424q-24 -134 -86 -225v-7z" />
    <glyph glyph-name="uni0415" unicode="&#x415;" horiz-adv-x="1243"
d="M1130 0h-972v1430h972v-277h-661v-293h567v-274h-567v-310h661v-276z" />
    <glyph glyph-name="uni0416" unicode="&#x416;" horiz-adv-x="2060"
d="M82 0v276h127l158 334q49 106 153 121v12q-50 14 -84.5 44.5t-64.5 91.5l-133 274h-127v277h129q92 0 152.5 -41t103.5 -132l192 -397h186v570h312v-570h186l193 397q43 91 103.5 132t152.5 41h127v-277h-127l-131 -274q-30 -60 -65 -91t-85 -45v-12q105 -15 154 -121
l157 -334h127v-276h-163q-89 0 -146.5 39t-103.5 139l-193 408h-186v-586h-312v586h-186l-192 -408q-46 -100 -103.5 -139t-146.5 -39h-164z" />
    <glyph glyph-name="uni0417" unicode="&#x417;" horiz-adv-x="1245"
d="M584 -25q-323 0 -525 211l205 207q138 -141 320 -141q122 0 186 42.5t64 121.5v16q0 81 -49 117.5t-154 36.5h-248v274h235q191 0 191 158v10q0 150 -215 150q-87 0 -168.5 -34t-136.5 -95l-189 196q92 99 220 154t274 55q250 0 397.5 -107t147.5 -292q0 -95 -41.5 -162
t-106 -100t-149.5 -41v-13q85 -5 155.5 -38.5t118 -105t47.5 -171.5q0 -202 -159 -325.5t-420 -123.5z" />
    <glyph glyph-name="uni0418" unicode="&#x418;" horiz-adv-x="1482"
d="M158 0v1430h303v-699l-33 -301h6l141 272l472 728h278v-1430h-303v698l33 301h-6l-142 -272l-471 -727h-278z" />
    <glyph glyph-name="uni0419" unicode="&#x419;" horiz-adv-x="1482"
d="M158 0v1430h303v-699l-33 -301h6l141 272l472 728h278v-1430h-303v698l33 301h-6l-142 -272l-471 -727h-278zM745 1516q-252 0 -350 229l-43 104l236 88l65 -206q30 -15 92 -15q63 0 93 15l65 206l236 -88l-43 -104q-98 -229 -351 -229z" />
    <glyph glyph-name="uni041A" unicode="&#x41a;" horiz-adv-x="1382"
d="M158 0v1430h311v-570h207l213 400q49 89 107.5 129.5t148.5 40.5h127v-277h-127l-148 -279q-28 -54 -63 -83.5t-86 -47.5v-12q55 -11 92 -40.5t66 -88.5l168 -326h126v-276h-161q-88 0 -144 38t-106 136l-213 412h-207v-586h-311z" />
    <glyph glyph-name="uni041B" unicode="&#x41b;" horiz-adv-x="1513"
d="M41 -12v288h170q66 72 100 222q35 166 35 477v455h1010v-1430h-312v1153h-395v-221q0 -644 -184 -828q-63 -63 -136 -89.5t-182 -26.5h-106z" />
    <glyph glyph-name="uni041C" unicode="&#x41c;" horiz-adv-x="1677"
d="M1227 0v938h-6l-105 -209l-278 -506l-273 504l-108 225h-6v-952h-293v1430h329l351 -670h4l346 670h332v-1430h-293z" />
    <glyph glyph-name="uni041D" unicode="&#x41d;" horiz-adv-x="1482"
d="M1014 0v586h-545v-586h-311v1430h311v-570h545v570h311v-1430h-311z" />
    <glyph glyph-name="uni041E" unicode="&#x41e;" horiz-adv-x="1462"
d="M731 -25q-291 0 -460 191t-169 549t169 548.5t460 190.5t460 -190.5t169 -548.5t-169 -549t-460 -191zM731 252q142 0 220.5 92.5t78.5 263.5v213q0 171 -78.5 264t-220.5 93t-220.5 -93t-78.5 -264v-213q0 -171 78.5 -263.5t220.5 -92.5z" />
    <glyph glyph-name="uni041F" unicode="&#x41f;" horiz-adv-x="1452"
d="M158 0v1430h1136v-1430h-311v1153h-514v-1153h-311z" />
    <glyph glyph-name="uni0420" unicode="&#x420;" horiz-adv-x="1343"
d="M469 0h-311v1430h676q198 0 316 -128t118 -329q0 -204 -117.5 -330.5t-316.5 -126.5h-365v-516zM469 1159v-373h328q70 0 109.5 37t39.5 105v90q0 68 -39.5 104.5t-109.5 36.5h-328z" />
    <glyph glyph-name="uni0421" unicode="&#x421;" horiz-adv-x="1333"
d="M735 -25q-297 0 -465 187.5t-168 542.5q0 358 169.5 553.5t463.5 195.5q198 0 327.5 -81.5t207.5 -254.5l-269 -139q-31 97 -93 148t-173 51q-139 0 -221 -91t-82 -258v-229q0 -167 82 -257.5t221 -90.5q109 0 179.5 58.5t105.5 154.5l254 -148q-82 -169 -214 -255.5
t-325 -86.5z" />
    <glyph glyph-name="uni0422" unicode="&#x422;" horiz-adv-x="1196"
d="M1141 1153h-387v-1153h-312v1153h-387v277h1086v-277z" />
    <glyph glyph-name="uni0423" unicode="&#x423;" horiz-adv-x="1292"
d="M244 0v276h250l30 78l-499 1076h327l201 -445l119 -285h6l104 287l176 443h306l-504 -1229q-46 -112 -115 -156.5t-196 -44.5h-205z" />
    <glyph glyph-name="uni0424" unicode="&#x424;" horiz-adv-x="1851"
d="M768 -90v184h-84q-176 0 -316.5 81t-218 222t-77.5 314t75.5 314t216 223.5t320.5 82.5h84v185h315v-185h84q180 0 320.5 -82.5t216.5 -223.5t76 -314q0 -174 -78 -315t-218.5 -221.5t-316.5 -80.5h-84v-184h-315zM684 350h90v725h-90q-143 0 -218 -81t-75 -218v-127
q0 -134 75 -216.5t218 -82.5zM1077 350h90q143 0 218 82.5t75 216.5v127q0 136 -75 217.5t-218 81.5h-90v-725z" />
    <glyph glyph-name="uni0425" unicode="&#x425;" horiz-adv-x="1378"
d="M881 733l465 -733h-361l-309 526h-6l-301 -526h-336l459 739l-437 691h363l278 -484h6l283 484h336z" />
    <glyph glyph-name="uni0426" unicode="&#x426;" horiz-adv-x="1581"
d="M1233 -307v307h-1075v1430h311v-1154h514v1154h311v-1154h232v-583h-293z" />
    <glyph glyph-name="uni0427" unicode="&#x427;" horiz-adv-x="1388"
d="M920 0v506h-11q-100 -47 -272 -47q-526 0 -526 526v445h311v-457q0 -244 244 -244q167 0 254 37v664h311v-1430h-311z" />
    <glyph glyph-name="uni0428" unicode="&#x428;" horiz-adv-x="2109"
d="M158 0v1430h311v-1154h432v1154h311v-1154h428v1154h312v-1430h-1794z" />
    <glyph glyph-name="uni0429" unicode="&#x429;" horiz-adv-x="2238"
d="M1890 -307v307h-1732v1430h311v-1154h430v1154h311v-1154h430v1154h312v-1154h231v-583h-293z" />
    <glyph glyph-name="uni042A" unicode="&#x42a;" horiz-adv-x="1552"
d="M354 0v1153h-309v277h621v-517h385q198 0 316 -127.5t118 -328.5q0 -204 -117.5 -330.5t-316.5 -126.5h-697zM666 270h348q70 0 109.5 37t39.5 105v90q0 68 -39.5 104.5t-109.5 36.5h-348v-373z" />
    <glyph glyph-name="uni042B" unicode="&#x42b;" horiz-adv-x="1910"
d="M158 0v1430h311v-517h365q198 0 316 -127.5t118 -328.5q0 -204 -117.5 -330.5t-316.5 -126.5h-676zM469 270h328q70 0 109.5 37t39.5 105v90q0 68 -39.5 104.5t-109.5 36.5h-328v-373zM1442 0v1430h311v-1430h-311z" />
    <glyph glyph-name="uni042C" unicode="&#x42c;" horiz-adv-x="1355"
d="M158 0v1430h311v-517h385q198 0 316 -127.5t118 -328.5q0 -204 -117.5 -330.5t-316.5 -126.5h-696zM469 270h348q70 0 110 37t40 105v90q0 68 -40 104.5t-110 36.5h-348v-373z" />
    <glyph glyph-name="uni042D" unicode="&#x42d;" horiz-adv-x="1374"
d="M469 586v274h473q0 152 -85.5 235t-235.5 83q-82 0 -139.5 -24t-91 -63.5t-60.5 -103.5l-260 148q94 163 222.5 241t328.5 78q309 0 480 -186.5t171 -542.5q0 -359 -173 -554.5t-478 -195.5q-401 0 -560 326l254 156q38 -98 110.5 -151.5t195.5 -53.5q150 0 235.5 82
t85.5 235v17h-473z" />
    <glyph glyph-name="uni042E" unicode="&#x42e;" horiz-adv-x="2080"
d="M1350 -25q-265 0 -427.5 156.5t-197.5 454.5h-256v-586h-311v1430h311v-570h260q28 282 193.5 438t427.5 156q291 0 459.5 -190.5t168.5 -548.5t-168.5 -549t-459.5 -191zM1350 252q142 0 220.5 92.5t78.5 263.5v213q0 171 -78.5 264t-220.5 93t-220.5 -93t-78.5 -264
v-213q0 -171 78.5 -263.5t220.5 -92.5z" />
    <glyph glyph-name="uni042F" unicode="&#x42f;" horiz-adv-x="1388"
d="M86 0v276h127l117 183q27 41 56.5 62.5t82.5 31.5v12q-161 18 -254.5 125t-93.5 283q0 209 118 333t314 124h678v-1430h-311v524h-189l-239 -374q-53 -87 -110.5 -118.5t-143.5 -31.5h-152zM592 786h328v373h-328q-70 0 -110 -36.5t-40 -104.5v-88q0 -71 40 -107.5
t110 -36.5z" />
    <glyph glyph-name="uni0430" unicode="&#x430;" horiz-adv-x="1165"
d="M1104 0h-168q-81 0 -136 50.5t-69 137.5h-12q-24 -103 -107.5 -158t-208.5 -55q-158 0 -245.5 85t-87.5 229q0 167 120.5 251.5t339.5 84.5h170v67q0 170 -178 170q-83 0 -136 -34t-95 -93l-180 160q70 103 170.5 154t263.5 51q228 0 343.5 -100t115.5 -293v-471h100
v-236zM516 186q81 0 132.5 35t51.5 105v127h-147q-178 0 -178 -121v-31q0 -115 141 -115z" />
    <glyph glyph-name="uni0431" unicode="&#x431;" horiz-adv-x="1161"
d="M586 -25q-247 0 -371 166q-133 175 -133 525q0 409 141 608t445 231l348 35v-291l-350 -35q-153 -17 -209 -94.5t-60 -285.5h11q36 107 101.5 158.5t178.5 51.5q172 0 285.5 -138t113.5 -367q0 -263 -132.5 -413.5t-368.5 -150.5zM586 215q91 0 139.5 55t48.5 158v164
q0 103 -48.5 158t-139.5 55t-140 -55t-49 -158v-164q0 -103 49 -158t140 -55z" />
    <glyph glyph-name="uni0432" unicode="&#x432;" horiz-adv-x="1179"
d="M141 0v1075h613q145 0 224 -72.5t79 -197.5q0 -104 -55.5 -161.5t-172.5 -74.5v-10q269 -24 269 -248q0 -143 -90.5 -227t-249.5 -84h-617zM436 215h266q42 0 66.5 22.5t24.5 63.5v64q0 41 -24.5 64.5t-66.5 23.5h-266v-238zM436 633h230q41 0 63.5 22.5t22.5 63.5v55
q0 41 -22.5 63.5t-63.5 22.5h-230v-227z" />
    <glyph glyph-name="uni0433" unicode="&#x433;" horiz-adv-x="909"
d="M141 0v1075h727v-235h-424v-840h-303z" />
    <glyph glyph-name="uni0434" unicode="&#x434;" horiz-adv-x="1347"
d="M20 -287v523h142q55 82 80.5 204.5t25.5 329.5v305h865v-839h184v-523h-275v287h-747v-287h-275zM479 236h350v604h-270v-86q0 -214 -22 -340q-24 -121 -58 -178z" />
    <glyph glyph-name="uni0435" unicode="&#x435;" horiz-adv-x="1150"
d="M590 -25q-242 0 -379 150.5t-137 413.5q0 260 132.5 410.5t371.5 150.5q105 0 190 -29.5t141.5 -80.5t95 -121.5t55.5 -149.5t17 -168v-90h-690v-17q0 -109 59 -170t179 -61q86 0 145 33t119 96l151 -188q-73 -86 -188.5 -132.5t-261.5 -46.5zM584 877q-91 0 -144 -60.5
t-53 -161.5v-16h377v18q0 102 -45.5 161t-134.5 59z" />
    <glyph glyph-name="uni0436" unicode="&#x436;" horiz-adv-x="1773"
d="M82 0v236h111l112 221q41 77 119 92v10q-73 17 -115 96l-92 185h-111v235h125q87 0 142 -35t96 -116l131 -260h135v411h303v-411h136l131 260q41 82 96 116.5t141 34.5h125v-235h-111l-92 -185q-42 -79 -114 -96v-10q77 -15 118 -92l113 -221h111v-236h-138
q-88 0 -142.5 34.5t-96.5 119.5l-141 274h-136v-428h-303v428h-135l-141 -274q-42 -85 -97 -119.5t-143 -34.5h-137z" />
    <glyph glyph-name="uni0437" unicode="&#x437;" horiz-adv-x="1087"
d="M516 -25q-153 0 -263 48t-206 145l178 180q120 -135 293 -135q90 0 136 31t46 88v22q0 92 -120 92h-238v201h211q121 0 121 92v21q0 48 -42 75t-122 27q-84 0 -151 -33t-109 -94l-180 160q166 205 462 205q216 0 331.5 -81t115.5 -214q0 -104 -55 -161.5t-172 -74.5v-10
q118 -12 186 -75t68 -165q0 -162 -129.5 -253t-360.5 -91z" />
    <glyph glyph-name="uni0438" unicode="&#x438;" horiz-adv-x="1253"
d="M141 0v1075h297v-432l-26 -250h6l125 230l299 452h270v-1075h-297v432l27 250h-6l-125 -229l-299 -453h-271z" />
    <glyph glyph-name="uni0439" unicode="&#x439;" horiz-adv-x="1253"
d="M141 0v1075h297v-432l-26 -250h6l125 230l299 452h270v-1075h-297v432l27 250h-6l-125 -229l-299 -453h-271zM629 1186q-252 0 -350 229l-43 105l235 88l66 -207q30 -15 92 -15t92 15l65 207l236 -88l-43 -105q-98 -229 -350 -229z" />
    <glyph glyph-name="uni043A" unicode="&#x43a;" horiz-adv-x="1210"
d="M141 0v1075h303v-411h156l141 262q43 80 97.5 114.5t140.5 34.5h125v-235h-109l-92 -172q-28 -52 -55 -75t-66 -34v-10q75 -16 119 -94l121 -219h111v-236h-142q-86 0 -138.5 34.5t-100.5 119.5l-152 274h-156v-428h-303z" />
    <glyph glyph-name="uni043B" unicode="&#x43b;" horiz-adv-x="1251"
d="M31 -12v248h139q86 111 86 499v340h854v-1075h-303v840h-260v-121q0 -271 -41 -426q-38 -144 -109 -215q-49 -49 -112.5 -69.5t-161.5 -20.5h-92z" />
    <glyph glyph-name="uni043C" unicode="&#x43c;" horiz-adv-x="1486"
d="M141 0v1075h328l270 -440h9l270 440h328v-1075h-295v698h-7l-81 -149l-220 -356l-219 356l-82 149h-6v-698h-295z" />
    <glyph glyph-name="uni043D" unicode="&#x43d;" horiz-adv-x="1253"
d="M141 0v1075h303v-411h365v411h303v-1075h-303v428h-365v-428h-303z" />
    <glyph glyph-name="uni043E" unicode="&#x43e;" horiz-adv-x="1155"
d="M578 -25q-235 0 -369.5 149.5t-134.5 414.5q0 261 133.5 411t370.5 150t370 -150t133 -411q0 -265 -134 -414.5t-369 -149.5zM578 215q91 0 139.5 55t48.5 158v219q0 103 -48.5 158t-139.5 55t-140 -55t-49 -158v-219q0 -103 49 -158t140 -55z" />
    <glyph glyph-name="uni043F" unicode="&#x43f;" horiz-adv-x="1222"
d="M141 0v1075h940v-1075h-303v840h-334v-840h-303z" />
    <glyph glyph-name="uni0440" unicode="&#x440;" horiz-adv-x="1245"
d="M141 -410v1485h303v-180h11q23 91 103.5 148t184.5 57q204 0 309 -142.5t105 -418.5t-105 -420t-309 -144q-106 0 -184 58t-104 147h-11v-590h-303zM643 221q88 0 143.5 61t55.5 162v187q0 101 -55.5 162t-143.5 61t-143.5 -43t-55.5 -115v-317q0 -72 55.5 -115
t143.5 -43z" />
    <glyph glyph-name="uni0441" unicode="&#x441;" horiz-adv-x="1058"
d="M575 -25q-241 0 -371 151t-130 413q0 263 131 412t370 149q163 0 273 -73t158 -208l-246 -106q-14 65 -61.5 106t-123.5 41q-91 0 -138.5 -59t-47.5 -164v-201q0 -104 47.5 -162.5t138.5 -58.5q149 0 201 160l236 -103q-104 -297 -437 -297z" />
    <glyph glyph-name="uni0442" unicode="&#x442;" horiz-adv-x="1007"
d="M352 0v840h-311v235h926v-235h-312v-840h-303z" />
    <glyph glyph-name="uni0443" unicode="&#x443;" horiz-adv-x="1093"
d="M641 573l158 502h282l-413 -1241q-42 -128 -118 -186t-212 -58h-188v236h202l37 119l-377 1130h301l158 -502l78 -311h12z" />
    <glyph glyph-name="uni0444" unicode="&#x444;" horiz-adv-x="1646"
d="M672 -410v525h-10q-72 -140 -236 -140q-181 0 -262.5 131.5t-81.5 430.5t81.5 431t262.5 132q160 0 236 -144h10v498h303v-498h10q77 144 236 144q181 0 262.5 -132t81.5 -431t-81.5 -430.5t-262.5 -131.5q-164 0 -236 140h-10v-525h-303zM547 193q125 0 125 118v453
q0 119 -125 119q-83 0 -118.5 -57.5t-35.5 -182.5v-211q0 -125 35.5 -182t118.5 -57zM1100 193q83 0 118 57t35 182v211q0 126 -35 183t-118 57q-125 0 -125 -119v-453q0 -118 125 -118z" />
    <glyph glyph-name="uni0445" unicode="&#x445;" horiz-adv-x="1146"
d="M352 0h-315l354 547l-350 528h344l201 -338h8l194 338h320l-356 -538l358 -537h-344l-207 350h-8z" />
    <glyph glyph-name="uni0446" unicode="&#x446;" horiz-adv-x="1296"
d="M991 -287v287h-850v1075h303v-839h334v839h303v-839h185v-523h-275z" />
    <glyph glyph-name="uni0447" unicode="&#x447;" horiz-adv-x="1183"
d="M739 0v457h-10q-79 -142 -278 -142q-182 0 -265.5 93.5t-83.5 289.5v377h304v-362q0 -80 37.5 -116t123.5 -36q84 0 128 30t44 79v405h303v-1075h-303z" />
    <glyph glyph-name="uni0448" unicode="&#x448;" horiz-adv-x="1728"
d="M141 0v1075h303v-839h269v839h303v-839h268v839h303v-1075h-1446z" />
    <glyph glyph-name="uni0449" unicode="&#x449;" horiz-adv-x="1802"
d="M1497 -287v287h-1356v1075h303v-839h269v839h303v-839h268v839h303v-839h185v-523h-275z" />
    <glyph glyph-name="uni044A" unicode="&#x44a;" horiz-adv-x="1308"
d="M301 0v840h-260v235h563v-319h283q162 0 266 -99.5t104 -277.5q0 -180 -104 -279.5t-266 -99.5h-586zM604 215h217q61 0 96 32t35 91v80q0 59 -35 91t-96 32h-217v-326z" />
    <glyph glyph-name="uni044B" unicode="&#x44b;" horiz-adv-x="1656"
d="M141 0v1075h303v-319h261q162 0 266 -99.5t104 -277.5q0 -180 -104 -279.5t-266 -99.5h-564zM444 215h195q61 0 96 32t35 91v80q0 59 -35 91t-96 32h-195v-326zM1212 0v1075h304v-1075h-304z" />
    <glyph glyph-name="uni044C" unicode="&#x44c;" horiz-adv-x="1148"
d="M141 0v1075h303v-319h283q162 0 266.5 -99.5t104.5 -277.5q0 -180 -104.5 -279.5t-266.5 -99.5h-586zM444 215h218q61 0 96 32t35 91v80q0 59 -35 91t-96 32h-218v-326z" />
    <glyph glyph-name="uni044D" unicode="&#x44d;" horiz-adv-x="1095"
d="M371 446v201h336v6q0 95 -52.5 152t-148.5 57q-93 0 -139.5 -34.5t-71.5 -106.5l-242 125q60 123 169 188.5t284 65.5q252 0 384 -149t132 -412q0 -261 -133 -412.5t-389 -151.5q-171 0 -272.5 62t-180.5 209l232 121q31 -81 82.5 -117.5t138.5 -36.5q107 0 157 55.5
t50 167.5v10h-336z" />
    <glyph glyph-name="uni044E" unicode="&#x44e;" horiz-adv-x="1683"
d="M1116 -25q-209 0 -335 118.5t-152 334.5h-185v-428h-303v1075h303v-411h187q30 207 154.5 321.5t330.5 114.5q234 0 364 -150t130 -411q0 -262 -130.5 -413t-363.5 -151zM1116 215q178 0 178 213v219q0 213 -178 213t-178 -213v-219q0 -213 178 -213z" />
    <glyph glyph-name="uni044F" unicode="&#x44f;" horiz-adv-x="1198"
d="M88 0v236h115l49 96q37 76 113 82v10q-126 18 -195.5 90.5t-69.5 202.5q0 164 105 261t266 97h586v-1075h-303v375h-166l-113 -221q-42 -85 -98 -119.5t-144 -34.5h-145zM537 590h217v270h-217q-61 0 -96 -32t-35 -91v-35q0 -50 35.5 -81t95.5 -31z" />
    <glyph glyph-name="uni0450" unicode="&#x450;" horiz-adv-x="1150"
d="M590 -25q-242 0 -379 150.5t-137 413.5q0 260 132.5 410.5t371.5 150.5q105 0 190 -29.5t141.5 -80.5t95 -121.5t55.5 -149.5t17 -168v-90h-690v-17q0 -109 59 -170t179 -61q86 0 145 33t119 96l151 -188q-73 -86 -188.5 -132.5t-261.5 -46.5zM584 877q-91 0 -144 -60.5
t-53 -161.5v-16h377v18q0 102 -45.5 161t-134.5 59zM557 1186l-274 360l252 125l202 -397z" />
    <glyph glyph-name="uni0451" unicode="&#x451;" horiz-adv-x="1150"
d="M590 -25q-242 0 -379 150.5t-137 413.5q0 260 132.5 410.5t371.5 150.5q105 0 190 -29.5t141.5 -80.5t95 -121.5t55.5 -149.5t17 -168v-90h-690v-17q0 -109 59 -170t179 -61q86 0 145 33t119 96l151 -188q-73 -86 -188.5 -132.5t-261.5 -46.5zM584 877q-91 0 -144 -60.5
t-53 -161.5v-16h377v18q0 102 -45.5 161t-134.5 59zM365 1229q-164 0 -164 129v51q0 129 164 129q163 0 163 -129v-51q0 -129 -163 -129zM815 1229q-164 0 -164 129v51q0 129 164 129t164 -129v-51q0 -129 -164 -129z" />
    <glyph glyph-name="uni0452" unicode="&#x452;" horiz-adv-x="1232"
d="M629 -410v236h159v823q0 108 -33.5 156.5t-115.5 48.5q-80 0 -137.5 -41.5t-57.5 -116.5v-696h-303v1208h-127v205h127v103h303v-103h287v-205h-287v-315h13q32 93 105.5 150t193.5 57q165 0 250.5 -110t85.5 -316v-789q0 -146 -73.5 -220.5t-230.5 -74.5h-159z" />
    <glyph glyph-name="uni0453" unicode="&#x453;" horiz-adv-x="909"
d="M141 0v1075h727v-235h-424v-840h-303zM342 1274l203 397l252 -125l-275 -360z" />
    <glyph glyph-name="uni0454" unicode="&#x454;" horiz-adv-x="1095"
d="M596 -25q-256 0 -389 151.5t-133 412.5q0 263 133 412t383 149q175 0 282 -64t170 -190l-241 -125q-25 72 -71.5 106.5t-139.5 34.5q-97 0 -148 -57t-53 -158h336v-201h-336v-10q0 -106 50.5 -164.5t156.5 -58.5q87 0 138.5 36.5t82.5 117.5l232 -121
q-79 -147 -180.5 -209t-272.5 -62z" />
    <glyph glyph-name="uni0455" unicode="&#x455;" horiz-adv-x="1032"
d="M506 -25q-150 0 -257 48t-196 145l178 180q124 -137 285 -137q87 0 123.5 26t36.5 76q0 75 -109 90l-116 15q-363 46 -363 332q0 157 114.5 253.5t303.5 96.5q160 0 252.5 -39t185.5 -129l-174 -178q-110 110 -248 110q-143 0 -143 -90q0 -44 24.5 -67t88.5 -33l120 -17
q355 -47 355 -323q0 -159 -128 -259t-333 -100z" />
    <glyph glyph-name="uni0456" unicode="&#x456;" horiz-adv-x="585"
d="M293 1190q-89 0 -132.5 40t-43.5 109v45q0 69 43.5 109.5t132.5 40.5t132.5 -40.5t43.5 -109.5v-45q0 -69 -43.5 -109t-132.5 -40zM141 0v1075h303v-1075h-303z" />
    <glyph glyph-name="uni0457" unicode="&#x457;" horiz-adv-x="585"
d="M444 0h-303v1075h303v-1075zM70 1229q-164 0 -164 129v51q0 129 164 129q163 0 163 -129v-51q0 -129 -163 -129zM520 1229q-164 0 -164 129v51q0 129 164 129t164 -129v-51q0 -129 -164 -129z" />
    <glyph glyph-name="uni0458" unicode="&#x458;" horiz-adv-x="585"
d="M141 -174v1249h303v-1190q0 -146 -73.5 -220.5t-229.5 -74.5h-159v236h159zM293 1190q-89 0 -132.5 40t-43.5 109v45q0 69 43.5 109.5t132.5 40.5t132.5 -40.5t43.5 -109.5v-45q0 -69 -43.5 -109t-132.5 -40z" />
    <glyph glyph-name="uni0459" unicode="&#x459;" horiz-adv-x="1767"
d="M31 -12v248h139q86 111 86 499v340h829v-319h261q162 0 266 -99.5t104 -277.5q0 -180 -104 -279.5t-266 -99.5h-564v840h-235v-121q0 -271 -41 -426q-38 -144 -109 -215q-49 -49 -112.5 -69.5t-161.5 -20.5h-92zM1085 215h195q61 0 96 32t35 91v80q0 59 -35 91t-96 32
h-195v-326z" />
    <glyph glyph-name="uni045A" unicode="&#x45a;" horiz-adv-x="1779"
d="M141 0v1075h303v-411h351v411h303v-319h260q162 0 266.5 -99.5t104.5 -277.5q0 -180 -104.5 -279.5t-266.5 -99.5h-563v428h-351v-428h-303zM1098 215h194q61 0 96 32t35 91v80q0 59 -35 91t-96 32h-194v-326z" />
    <glyph glyph-name="uni045B" unicode="&#x45b;" horiz-adv-x="1220"
d="M444 0h-303v1208h-127v205h127v103h303v-103h287v-205h-287v-315h13q32 93 105.5 150t193.5 57q165 0 250.5 -110t85.5 -316v-674h-304v649q0 108 -33.5 156.5t-115.5 48.5q-80 0 -137.5 -41.5t-57.5 -116.5v-696z" />
    <glyph glyph-name="uni045C" unicode="&#x45c;" horiz-adv-x="1210"
d="M141 0v1075h303v-411h156l141 262q43 80 97.5 114.5t140.5 34.5h125v-235h-109l-92 -172q-28 -52 -55 -75t-66 -34v-10q75 -16 119 -94l121 -219h111v-236h-142q-86 0 -138.5 34.5t-100.5 119.5l-152 274h-156v-428h-303zM926 1546l-275 -360l-180 88l203 397z" />
    <glyph glyph-name="uni045D" unicode="&#x45d;" horiz-adv-x="1253"
d="M141 0v1075h297v-432l-26 -250h6l125 230l299 452h270v-1075h-297v432l27 250h-6l-125 -229l-299 -453h-271zM322 1546l251 125l203 -397l-180 -88z" />
    <glyph glyph-name="uni045E" unicode="&#x45e;" horiz-adv-x="1093"
d="M641 573l158 502h282l-413 -1241q-42 -128 -118 -186t-212 -58h-188v236h202l37 119l-377 1130h301l158 -502l78 -311h12zM557 1186q-252 0 -350 229l-43 105l235 88l66 -207q30 -15 92 -15t92 15l66 207l235 -88l-43 -105q-98 -229 -350 -229z" />
    <glyph glyph-name="uni045F" unicode="&#x45f;" horiz-adv-x="1224"
d="M475 -287v287h-334v1075h303v-839h336v839h303v-1075h-333v-287h-275z" />
    <glyph glyph-name="uni0472" unicode="&#x472;" horiz-adv-x="1462"
d="M731 -25q-291 0 -460 191t-169 549t169 548.5t460 190.5t460 -190.5t169 -548.5t-169 -549t-460 -191zM731 231q145 0 229.5 91t90.5 262h-639q4 -171 89 -262t230 -91zM731 1198q-143 0 -227.5 -88t-91.5 -252h639q-7 164 -92 252t-228 88z" />
    <glyph glyph-name="uni0473" unicode="&#x473;" horiz-adv-x="1155"
d="M578 -25q-235 0 -369.5 149.5t-134.5 414.5q0 261 133.5 411t370.5 150t370 -150t133 -411q0 -265 -134 -414.5t-369 -149.5zM578 195q99 0 153.5 58t54.5 167v20h-417v-20q0 -109 55 -167t154 -58zM369 655v-14h417v14q0 109 -54.5 167.5t-153.5 58.5t-154 -58.5
t-55 -167.5z" />
    <glyph glyph-name="uni0490" unicode="&#x490;" horiz-adv-x="1052"
d="M158 0v1430h547v307h292v-584h-528v-1153h-311z" />
    <glyph glyph-name="uni0491" unicode="&#x491;" horiz-adv-x="909"
d="M141 0v1075h453v287h274v-522h-424v-840h-303z" />
    <glyph glyph-name="uni0492" unicode="&#x492;" horiz-adv-x="1116"
d="M221 0v578h-176v233h176v619h840v-277h-529v-342h353v-233h-353v-578h-311z" />
    <glyph glyph-name="uni0493" unicode="&#x493;" horiz-adv-x="944"
d="M176 0v420h-131v201h131v454h727v-235h-424v-219h252v-201h-252v-420h-303z" />
    <glyph glyph-name="uni0494" unicode="&#x494;" horiz-adv-x="1368"
d="M662 -377v289h210q74 77 74 254v131q0 244 -233 244q-157 0 -244 -37v-504h-311v1430h839v-277h-528v-389h10q100 47 262 47q516 0 516 -526v-133q0 -264 -130 -396.5t-359 -132.5h-106z" />
    <glyph glyph-name="uni0495" unicode="&#x495;" horiz-adv-x="1175"
d="M559 -410v236h172q26 30 36.5 72.5t10.5 124.5v194q0 100 -36.5 138t-125.5 38q-84 0 -128 -29.5t-44 -78.5v-285h-303v1075h727v-235h-424v-342h11q79 141 278 141q181 0 264.5 -97t83.5 -311v-233q0 -212 -95 -310t-294 -98h-133z" />
    <glyph glyph-name="uni0496" unicode="&#x496;" horiz-adv-x="2107"
d="M1790 -307v307q-74 5 -127.5 43t-97.5 135l-193 408h-186v-586h-312v586h-186l-192 -408q-46 -100 -103.5 -139t-146.5 -39h-164v276h127l158 334q49 106 153 121v12q-50 14 -84.5 44.5t-64.5 91.5l-133 274h-127v277h129q92 0 152.5 -41t103.5 -132l192 -397h186v570
h312v-570h186l193 397q43 91 103.5 132t152.5 41h127v-277h-127l-131 -274q-30 -60 -65 -91t-85 -45v-12q105 -15 154 -121l157 -334h232v-583h-293z" />
    <glyph glyph-name="uni0497" unicode="&#x497;" horiz-adv-x="1789"
d="M1491 -287v291q-110 15 -176 150l-141 274h-136v-428h-303v428h-135l-141 -274q-42 -85 -97 -119.5t-143 -34.5h-137v236h111l112 221q41 77 119 92v10q-73 17 -115 96l-92 185h-111v235h125q87 0 142 -35t96 -116l131 -260h135v411h303v-411h136l131 260q41 82 96 116.5
t141 34.5h125v-235h-111l-92 -185q-42 -79 -114 -96v-10q77 -15 118 -92l113 -221h184v-523h-274z" />
    <glyph glyph-name="uni0498" unicode="&#x498;" horiz-adv-x="1245"
d="M438 -307v295q-226 38 -379 198l205 207q138 -141 320 -141q122 0 186 42.5t64 121.5v16q0 81 -49 117.5t-154 36.5h-248v274h235q191 0 191 158v10q0 150 -215 150q-87 0 -168.5 -34t-136.5 -95l-189 196q92 99 220 154t274 55q250 0 397.5 -107t147.5 -292
q0 -95 -41.5 -162t-106 -100t-149.5 -41v-13q85 -5 155.5 -38.5t118 -105t47.5 -171.5q0 -172 -115 -288t-317 -148v-295h-293z" />
    <glyph glyph-name="uni0499" unicode="&#x499;" horiz-adv-x="1087"
d="M381 -287v275q-196 32 -334 180l178 180q120 -135 293 -135q90 0 136 31t46 88v22q0 92 -120 92h-238v201h211q121 0 121 92v21q0 48 -42 75t-122 27q-84 0 -151 -33t-109 -94l-180 160q166 205 462 205q216 0 331.5 -81t115.5 -214q0 -104 -55 -161.5t-172 -74.5v-10
q118 -12 186 -75t68 -165q0 -134 -92 -221t-259 -112v-273h-274z" />
    <glyph glyph-name="uni049A" unicode="&#x49a;" horiz-adv-x="1429"
d="M1112 -307v307q-69 5 -122 42.5t-101 131.5l-213 412h-207v-586h-311v1430h311v-570h207l213 400q45 89 105 129.5t151 40.5h127v-277h-127l-148 -279q-28 -54 -63 -83.5t-86 -47.5v-12q55 -11 92 -40.5t66 -88.5l168 -326h231v-583h-293z" />
    <glyph glyph-name="uni049B" unicode="&#x49b;" horiz-adv-x="1230"
d="M932 -287v291q-105 15 -180 150l-152 274h-156v-428h-303v1075h303v-411h156l141 262q43 80 97.5 114.5t140.5 34.5h125v-235h-109l-92 -172q-28 -52 -55 -75t-66 -34v-10q75 -16 119 -94l121 -219h184v-523h-274z" />
    <glyph glyph-name="uni049C" unicode="&#x49c;" horiz-adv-x="1546"
d="M158 0v1430h311v-570h86v273h233v-273h72l193 400q49 89 107.5 129.5t148.5 40.5h127v-277h-127l-129 -270q-25 -55 -60 -88.5t-88 -51.5v-12q55 -12 92 -44t66 -93l147 -318h127v-276h-161q-90 0 -147 37.5t-103 136.5l-193 412h-72v-273h-233v273h-86v-586h-311z" />
    <glyph glyph-name="uni049D" unicode="&#x49d;" horiz-adv-x="1374"
d="M141 0v1075h303v-411h84v233h193v-233h63l113 237q43 94 99 134t147 40h125v-235h-109l-82 -172q-25 -52 -49 -75t-61 -34v-10q41 -12 65.5 -31t46.5 -63l107 -219h110v-236h-141q-89 0 -144.5 38t-97.5 124l-129 266h-63v-233h-193v233h-84v-428h-303z" />
    <glyph glyph-name="uni04A0" unicode="&#x4a0;" horiz-adv-x="1579"
d="M354 0v1153h-309v277h621v-570h206l213 400q45 89 105 129.5t151 40.5h127v-277h-127l-147 -279q-28 -54 -63 -83.5t-87 -47.5v-12q55 -11 92 -40.5t66 -88.5l168 -326h127v-276h-162q-88 0 -144 38t-106 136l-213 412h-206v-586h-312z" />
    <glyph glyph-name="uni04A1" unicode="&#x4a1;" horiz-adv-x="1370"
d="M301 0v840h-260v235h563v-411h156l141 262q43 80 97.5 114.5t140.5 34.5h125v-235h-109l-92 -172q-28 -52 -55 -75t-66 -34v-10q75 -16 119 -94l121 -219h110v-236h-141q-86 0 -139.5 34.5t-100.5 119.5l-151 274h-156v-428h-303z" />
    <glyph glyph-name="uni04A2" unicode="&#x4a2;" horiz-adv-x="1611"
d="M1264 -307v307h-250v586h-545v-586h-311v1430h311v-570h545v570h311v-1154h231v-583h-292z" />
    <glyph glyph-name="uni04A3" unicode="&#x4a3;" horiz-adv-x="1327"
d="M1022 -287v287h-213v428h-365v-428h-303v1075h303v-411h365v411h303v-839h184v-523h-274z" />
    <glyph glyph-name="uni04A4" unicode="&#x4a4;" horiz-adv-x="1867"
d="M158 0v1430h311v-570h504v570h839v-277h-528v-1153h-311v586h-504v-586h-311z" />
    <glyph glyph-name="uni04A5" unicode="&#x4a5;" horiz-adv-x="1562"
d="M141 0v1075h303v-411h351v411h727v-235h-424v-840h-303v428h-351v-428h-303z" />
    <glyph glyph-name="uni04AA" unicode="&#x4aa;" horiz-adv-x="1333"
d="M590 -307v295q-231 42 -359.5 225t-128.5 492q0 358 169.5 553.5t463.5 195.5q198 0 327.5 -81.5t207.5 -254.5l-269 -139q-31 97 -93 148t-173 51q-139 0 -221 -91t-82 -258v-229q0 -167 82 -257.5t221 -90.5q109 0 179.5 58.5t105.5 154.5l254 -148
q-138 -272 -391 -327v-297h-293z" />
    <glyph glyph-name="uni04AB" unicode="&#x4ab;" horiz-adv-x="1058"
d="M438 -287v277q-178 41 -271 183.5t-93 365.5q0 263 131 412t370 149q163 0 273 -73t158 -208l-246 -106q-14 65 -61.5 106t-123.5 41q-91 0 -138.5 -59t-47.5 -164v-201q0 -105 47.5 -164t138.5 -59q83 0 128.5 43t72.5 119l236 -103q-79 -228 -299 -280v-279h-275z" />
    <glyph glyph-name="uni04AE" unicode="&#x4ae;" horiz-adv-x="1329"
d="M821 0h-313v559l-490 871h349l307 -570h4l295 570h338l-490 -869v-561z" />
    <glyph glyph-name="uni04AF" unicode="&#x4af;" horiz-adv-x="1101"
d="M399 -410v410l-381 1075h299l142 -434l92 -344h16l95 344l135 434h286l-381 -1075v-410h-303z" />
    <glyph glyph-name="uni04B0" unicode="&#x4b0;" horiz-adv-x="1329"
d="M508 0v326h-285v233h285l-490 871h349l307 -570h4l295 570h338l-490 -871h283v-233h-283v-326h-313z" />
    <glyph glyph-name="uni04B1" unicode="&#x4b1;" horiz-adv-x="1101"
d="M399 -410v209h-245v201h245l-381 1075h299l142 -434l92 -344h16l95 344l135 434h286l-381 -1075h246v-201h-246v-209h-303z" />
    <glyph glyph-name="uni04B2" unicode="&#x4b2;" horiz-adv-x="1423"
d="M1108 -307v307h-123l-309 526h-6l-301 -526h-336l459 739l-437 691h363l278 -484h6l283 484h336l-440 -697l288 -457h232v-583h-293z" />
    <glyph glyph-name="uni04B3" unicode="&#x4b3;" horiz-adv-x="1173"
d="M883 -287v287h-117l-207 350h-8l-199 -350h-315l354 547l-350 528h344l201 -338h8l194 338h320l-356 -538l200 -301h205v-523h-274z" />
    <glyph glyph-name="uni04B6" unicode="&#x4b6;" horiz-adv-x="1517"
d="M1169 -307v307h-249v506h-11q-100 -47 -272 -47q-526 0 -526 526v445h311v-457q0 -244 244 -244q167 0 254 37v664h311v-1154h231v-583h-293z" />
    <glyph glyph-name="uni04B7" unicode="&#x4b7;" horiz-adv-x="1257"
d="M952 -287v287h-213v457h-10q-79 -142 -278 -142q-182 0 -265.5 93.5t-83.5 289.5v377h304v-362q0 -80 37.5 -116t123.5 -36q84 0 128 30t44 79v405h303v-839h185v-523h-275z" />
    <glyph glyph-name="uni04B8" unicode="&#x4b8;" horiz-adv-x="1429"
d="M961 0v506h-11q-64 -26 -133 -37v-256h-233v248q-240 13 -356.5 144t-116.5 380v445h311v-457q0 -199 162 -236v295h233v-299q80 6 144 33v664h311v-1430h-311z" />
    <glyph glyph-name="uni04B9" unicode="&#x4b9;" horiz-adv-x="1224"
d="M780 0v422h-10q-26 -45 -82 -84v-188h-192v165q-205 0 -299.5 93t-94.5 290v377h304v-362q0 -118 90 -142v281h192v-281q38 5 65 29.5t27 58.5v416h303v-1075h-303z" />
    <glyph glyph-name="uni04BA" unicode="&#x4ba;" horiz-adv-x="1388"
d="M158 0v1430h311v-506h10q100 47 273 47q526 0 526 -527v-444h-311v457q0 243 -244 243q-169 0 -254 -36v-664h-311z" />
    <glyph glyph-name="uni04BB" unicode="&#x4bb;" horiz-adv-x="1220"
d="M141 0v1516h303v-623h13q32 93 105.5 150t193.5 57q165 0 250.5 -110t85.5 -316v-674h-304v649q0 108 -33.5 156.5t-115.5 48.5q-80 0 -137.5 -41.5t-57.5 -116.5v-696h-303z" />
    <glyph glyph-name="uni04C0" unicode="&#x4c0;" horiz-adv-x="884"
d="M782 0h-680v248h185v934h-185v248h680v-248h-184v-934h184v-248z" />
    <glyph glyph-name="uni04C1" unicode="&#x4c1;" horiz-adv-x="2060"
d="M82 0v276h127l158 334q49 106 153 121v12q-50 14 -84.5 44.5t-64.5 91.5l-133 274h-127v277h129q92 0 152.5 -41t103.5 -132l192 -397h186v570h312v-570h186l193 397q43 91 103.5 132t152.5 41h127v-277h-127l-131 -274q-30 -60 -65 -91t-85 -45v-12q105 -15 154 -121
l157 -334h127v-276h-163q-89 0 -146.5 39t-103.5 139l-193 408h-186v-586h-312v586h-186l-192 -408q-46 -100 -103.5 -139t-146.5 -39h-164zM1030 1516q-252 0 -350 229l-43 104l235 88l66 -206q30 -15 92 -15t92 15l66 206l235 -88l-43 -104q-98 -229 -350 -229z" />
    <glyph glyph-name="uni04C2" unicode="&#x4c2;" horiz-adv-x="1773"
d="M82 0v236h111l112 221q41 77 119 92v10q-73 17 -115 96l-92 185h-111v235h125q87 0 142 -35t96 -116l131 -260h135v411h303v-411h136l131 260q41 82 96 116.5t141 34.5h125v-235h-111l-92 -185q-42 -79 -114 -96v-10q77 -15 118 -92l113 -221h111v-236h-138
q-88 0 -142.5 34.5t-96.5 119.5l-141 274h-136v-428h-303v428h-135l-141 -274q-42 -85 -97 -119.5t-143 -34.5h-137zM887 1186q-252 0 -350 229l-43 105l235 88l66 -207q30 -15 92 -15t92 15l65 207l236 -88l-43 -105q-98 -229 -350 -229z" />
    <glyph glyph-name="uni04CF" unicode="&#x4cf;" horiz-adv-x="585"
d="M141 0v1516h303v-1516h-303z" />
    <glyph glyph-name="uni04D0" unicode="&#x4d0;" horiz-adv-x="1402"
d="M1362 0h-324l-102 340h-477l-103 -340h-315l471 1430h385zM860 604l-160 543h-10l-158 -543h328zM694 1516q-252 0 -350 229l-43 104l236 88l65 -206q30 -15 92 -15t92 15l66 206l235 -88l-43 -104q-98 -229 -350 -229z" />
    <glyph glyph-name="uni04D1" unicode="&#x4d1;" horiz-adv-x="1165"
d="M1104 0h-168q-81 0 -136 50.5t-69 137.5h-12q-24 -103 -107.5 -158t-208.5 -55q-158 0 -245.5 85t-87.5 229q0 167 120.5 251.5t339.5 84.5h170v67q0 170 -178 170q-83 0 -136 -34t-95 -93l-180 160q70 103 170.5 154t263.5 51q228 0 343.5 -100t115.5 -293v-471h100
v-236zM516 186q81 0 132.5 35t51.5 105v127h-147q-178 0 -178 -121v-31q0 -115 141 -115zM551 1186q-252 0 -350 229l-43 105l235 88l66 -207q30 -15 92 -15t92 15l66 207l235 -88l-43 -105q-98 -229 -350 -229z" />
    <glyph glyph-name="uni04D2" unicode="&#x4d2;" horiz-adv-x="1402"
d="M1362 0h-324l-102 340h-477l-103 -340h-315l471 1430h385zM860 604l-160 543h-10l-158 -543h328zM469 1559q-164 0 -164 129v51q0 129 164 129t164 -129v-51q0 -129 -164 -129zM920 1559q-164 0 -164 129v51q0 129 164 129q163 0 163 -129v-51q0 -129 -163 -129z" />
    <glyph glyph-name="uni04D3" unicode="&#x4d3;" horiz-adv-x="1165"
d="M1104 0h-168q-81 0 -136 50.5t-69 137.5h-12q-24 -103 -107.5 -158t-208.5 -55q-158 0 -245.5 85t-87.5 229q0 167 120.5 251.5t339.5 84.5h170v67q0 170 -178 170q-83 0 -136 -34t-95 -93l-180 160q70 103 170.5 154t263.5 51q228 0 343.5 -100t115.5 -293v-471h100
v-236zM516 186q81 0 132.5 35t51.5 105v127h-147q-178 0 -178 -121v-31q0 -115 141 -115zM326 1229q-164 0 -164 129v51q0 129 164 129q163 0 163 -129v-51q0 -129 -163 -129zM776 1229q-164 0 -164 129v51q0 129 164 129t164 -129v-51q0 -129 -164 -129z" />
    <glyph glyph-name="uni04D4" unicode="&#x4d4;" horiz-adv-x="1982"
d="M897 0v340h-428l-160 -340h-311l698 1430h1174v-277h-664v-293h570v-274h-570v-310h664v-276h-973zM594 604h303v549h-47z" />
    <glyph glyph-name="uni04D5" unicode="&#x4d5;" horiz-adv-x="1769"
d="M700 461h-147q-83 0 -130.5 -31t-47.5 -90v-29q0 -125 145 -125q78 0 129 35t51 105v135zM1006 639h376v18q0 102 -45.5 161t-134.5 59q-91 0 -143.5 -60.5t-52.5 -161.5v-16zM1249 217q147 0 264 125l152 -188q-73 -86 -189 -132.5t-262 -46.5q-150 0 -261.5 58.5
t-155.5 152.5h-13q-82 -211 -378 -211q-159 0 -247.5 88.5t-88.5 231.5q0 166 124.5 255t335.5 89h170v53q0 170 -178 170q-83 0 -136 -34t-95 -93l-180 160q70 103 170.5 154t263.5 51q205 0 303 -152h12q96 152 344 152q104 0 187.5 -29.5t139.5 -80t94 -121t54.5 -149.5
t16.5 -169v-90h-692v-17q0 -105 64.5 -166t180.5 -61z" />
    <glyph glyph-name="uni04D6" unicode="&#x4d6;" horiz-adv-x="1243"
d="M1130 0h-972v1430h972v-277h-661v-293h567v-274h-567v-310h661v-276zM645 1516q-252 0 -350 229l-43 104l235 88l66 -206q30 -15 92 -15t92 15l66 206l235 -88l-43 -104q-98 -229 -350 -229z" />
    <glyph glyph-name="uni04D7" unicode="&#x4d7;" horiz-adv-x="1150"
d="M590 -25q-242 0 -379 150.5t-137 413.5q0 260 132.5 410.5t371.5 150.5q105 0 190 -29.5t141.5 -80.5t95 -121.5t55.5 -149.5t17 -168v-90h-690v-17q0 -109 59 -170t179 -61q86 0 145 33t119 96l151 -188q-73 -86 -188.5 -132.5t-261.5 -46.5zM584 877q-91 0 -144 -60.5
t-53 -161.5v-16h377v18q0 102 -45.5 161t-134.5 59zM590 1186q-252 0 -350 229l-43 105l235 88l66 -207q30 -15 92 -15t92 15l66 207l235 -88l-43 -105q-98 -229 -350 -229z" />
    <glyph glyph-name="uni04D8" unicode="&#x4d8;" horiz-adv-x="1462"
d="M102 715v102h928v6q0 169 -79.5 262t-219.5 93q-130 0 -199 -57t-100 -171l-280 101q57 181 205 292t374 111q292 0 460.5 -188.5t168.5 -550.5t-168.5 -551t-460.5 -189t-460.5 189t-168.5 551zM731 252q130 0 208.5 80.5t88.5 228.5h-594q10 -148 88.5 -228.5
t208.5 -80.5z" />
    <glyph glyph-name="uni04D9" unicode="&#x4d9;" horiz-adv-x="1150"
d="M74 614h690v17q0 109 -56.5 170t-170.5 61q-46 0 -84 -9.5t-69.5 -30.5t-49 -36t-46.5 -44l-9 -9l-152 189q151 178 444 178q242 0 374 -152.5t132 -410.5q0 -260 -132.5 -411t-371.5 -151q-105 0 -190 29.5t-141.5 80.5t-95 121.5t-55.5 149.5t-17 168v90zM387 436v-18
q0 -102 45 -160.5t135 -58.5q91 0 144 60t53 161v16h-377z" />
    <glyph glyph-name="uni04DC" unicode="&#x4dc;" horiz-adv-x="2060"
d="M82 0v276h127l158 334q49 106 153 121v12q-50 14 -84.5 44.5t-64.5 91.5l-133 274h-127v277h129q92 0 152.5 -41t103.5 -132l192 -397h186v570h312v-570h186l193 397q43 91 103.5 132t152.5 41h127v-277h-127l-131 -274q-30 -60 -65 -91t-85 -45v-12q105 -15 154 -121
l157 -334h127v-276h-163q-89 0 -146.5 39t-103.5 139l-193 408h-186v-586h-312v586h-186l-192 -408q-46 -100 -103.5 -139t-146.5 -39h-164zM805 1559q-164 0 -164 129v51q0 129 164 129t164 -129v-51q0 -129 -164 -129zM1255 1559q-163 0 -163 129v51q0 129 163 129
q164 0 164 -129v-51q0 -129 -164 -129z" />
    <glyph glyph-name="uni04DD" unicode="&#x4dd;" horiz-adv-x="1773"
d="M82 0v236h111l112 221q41 77 119 92v10q-73 17 -115 96l-92 185h-111v235h125q87 0 142 -35t96 -116l131 -260h135v411h303v-411h136l131 260q41 82 96 116.5t141 34.5h125v-235h-111l-92 -185q-42 -79 -114 -96v-10q77 -15 118 -92l113 -221h111v-236h-138
q-88 0 -142.5 34.5t-96.5 119.5l-141 274h-136v-428h-303v428h-135l-141 -274q-42 -85 -97 -119.5t-143 -34.5h-137zM662 1229q-164 0 -164 129v51q0 129 164 129q163 0 163 -129v-51q0 -129 -163 -129zM1112 1229q-164 0 -164 129v51q0 129 164 129t164 -129v-51
q0 -129 -164 -129z" />
    <glyph glyph-name="uni04DE" unicode="&#x4de;" horiz-adv-x="1245"
d="M584 -25q-323 0 -525 211l205 207q138 -141 320 -141q122 0 186 42.5t64 121.5v16q0 81 -49 117.5t-154 36.5h-248v274h235q191 0 191 158v10q0 150 -215 150q-87 0 -168.5 -34t-136.5 -95l-189 196q92 99 220 154t274 55q250 0 397.5 -107t147.5 -292q0 -95 -41.5 -162
t-106 -100t-149.5 -41v-13q85 -5 155.5 -38.5t118 -105t47.5 -171.5q0 -202 -159 -325.5t-420 -123.5zM371 1559q-164 0 -164 129v51q0 129 164 129t164 -129v-51q0 -129 -164 -129zM821 1559q-164 0 -164 129v51q0 129 164 129t164 -129v-51q0 -129 -164 -129z" />
    <glyph glyph-name="uni04DF" unicode="&#x4df;" horiz-adv-x="1087"
d="M516 -25q-153 0 -263 48t-206 145l178 180q120 -135 293 -135q90 0 136 31t46 88v22q0 92 -120 92h-238v201h211q121 0 121 92v21q0 48 -42 75t-122 27q-84 0 -151 -33t-109 -94l-180 160q166 205 462 205q216 0 331.5 -81t115.5 -214q0 -104 -55 -161.5t-172 -74.5v-10
q118 -12 186 -75t68 -165q0 -162 -129.5 -253t-360.5 -91zM309 1229q-164 0 -164 129v51q0 129 164 129t164 -129v-51q0 -129 -164 -129zM760 1229q-164 0 -164 129v51q0 129 164 129t164 -129v-51q0 -129 -164 -129z" />
    <glyph glyph-name="uni04E2" unicode="&#x4e2;" horiz-adv-x="1482"
d="M158 0v1430h303v-699l-33 -301h6l141 272l472 728h278v-1430h-303v698l33 301h-6l-142 -272l-471 -727h-278zM432 1608v211h627v-211h-627z" />
    <glyph glyph-name="uni04E3" unicode="&#x4e3;" horiz-adv-x="1253"
d="M141 0v1075h297v-432l-26 -250h6l125 230l299 452h270v-1075h-297v432l27 250h-6l-125 -229l-299 -453h-271zM315 1278v211h627v-211h-627z" />
    <glyph glyph-name="uni04E4" unicode="&#x4e4;" horiz-adv-x="1482"
d="M158 0v1430h303v-699l-33 -301h6l141 272l472 728h278v-1430h-303v698l33 301h-6l-142 -272l-471 -727h-278zM520 1559q-164 0 -164 129v51q0 129 164 129t164 -129v-51q0 -129 -164 -129zM971 1559q-164 0 -164 129v51q0 129 164 129t164 -129v-51q0 -129 -164 -129z
" />
    <glyph glyph-name="uni04E5" unicode="&#x4e5;" horiz-adv-x="1253"
d="M141 0v1075h297v-432l-26 -250h6l125 230l299 452h270v-1075h-297v432l27 250h-6l-125 -229l-299 -453h-271zM403 1229q-163 0 -163 129v51q0 129 163 129q164 0 164 -129v-51q0 -129 -164 -129zM854 1229q-164 0 -164 129v51q0 129 164 129t164 -129v-51
q0 -129 -164 -129z" />
    <glyph glyph-name="uni04E6" unicode="&#x4e6;" horiz-adv-x="1462"
d="M731 -25q-291 0 -460 191t-169 549t169 548.5t460 190.5t460 -190.5t169 -548.5t-169 -549t-460 -191zM731 252q142 0 220.5 92.5t78.5 263.5v213q0 171 -78.5 264t-220.5 93t-220.5 -93t-78.5 -264v-213q0 -171 78.5 -263.5t220.5 -92.5zM506 1559q-164 0 -164 129v51
q0 129 164 129t164 -129v-51q0 -129 -164 -129zM956 1559q-163 0 -163 129v51q0 129 163 129q164 0 164 -129v-51q0 -129 -164 -129z" />
    <glyph glyph-name="uni04E7" unicode="&#x4e7;" horiz-adv-x="1155"
d="M578 -25q-235 0 -369.5 149.5t-134.5 414.5q0 261 133.5 411t370.5 150t370 -150t133 -411q0 -265 -134 -414.5t-369 -149.5zM578 215q91 0 139.5 55t48.5 158v219q0 103 -48.5 158t-139.5 55t-140 -55t-49 -158v-219q0 -103 49 -158t140 -55zM352 1229q-164 0 -164 129
v51q0 129 164 129t164 -129v-51q0 -129 -164 -129zM803 1229q-164 0 -164 129v51q0 129 164 129t164 -129v-51q0 -129 -164 -129z" />
    <glyph glyph-name="uni04E8" unicode="&#x4e8;" horiz-adv-x="1462"
d="M731 -25q-291 0 -460 191t-169 549t169 548.5t460 190.5t460 -190.5t169 -548.5t-169 -549t-460 -191zM731 231q145 0 229.5 91t90.5 262h-639q4 -171 89 -262t230 -91zM731 1198q-143 0 -227.5 -88t-91.5 -252h639q-7 164 -92 252t-228 88z" />
    <glyph glyph-name="uni04E9" unicode="&#x4e9;" horiz-adv-x="1155"
d="M578 -25q-235 0 -369.5 149.5t-134.5 414.5q0 261 133.5 411t370.5 150t370 -150t133 -411q0 -265 -134 -414.5t-369 -149.5zM578 195q99 0 153.5 58t54.5 167v20h-417v-20q0 -109 55 -167t154 -58zM369 655v-14h417v14q0 109 -54.5 167.5t-153.5 58.5t-154 -58.5
t-55 -167.5z" />
    <glyph glyph-name="uni04EE" unicode="&#x4ee;" horiz-adv-x="1292"
d="M244 0v276h250l30 78l-499 1076h327l201 -445l119 -285h6l104 287l176 443h306l-504 -1229q-46 -112 -115 -156.5t-196 -44.5h-205zM338 1608v211h627v-211h-627z" />
    <glyph glyph-name="uni04EF" unicode="&#x4ef;" horiz-adv-x="1093"
d="M641 573l158 502h282l-413 -1241q-42 -128 -118 -186t-212 -58h-188v236h202l37 119l-377 1130h301l158 -502l78 -311h12zM244 1278v211h626v-211h-626z" />
    <glyph glyph-name="uni04F0" unicode="&#x4f0;" horiz-adv-x="1292"
d="M244 0v276h250l30 78l-499 1076h327l201 -445l119 -285h6l104 287l176 443h306l-504 -1229q-46 -112 -115 -156.5t-196 -44.5h-205zM426 1559q-164 0 -164 129v51q0 129 164 129t164 -129v-51q0 -129 -164 -129zM877 1559q-164 0 -164 129v51q0 129 164 129
q163 0 163 -129v-51q0 -129 -163 -129z" />
    <glyph glyph-name="uni04F1" unicode="&#x4f1;" horiz-adv-x="1093"
d="M641 573l158 502h282l-413 -1241q-42 -128 -118 -186t-212 -58h-188v236h202l37 119l-377 1130h301l158 -502l78 -311h12zM332 1229q-164 0 -164 129v51q0 129 164 129t164 -129v-51q0 -129 -164 -129zM782 1229q-164 0 -164 129v51q0 129 164 129t164 -129v-51
q0 -129 -164 -129z" />
    <glyph glyph-name="uni04F2" unicode="&#x4f2;" horiz-adv-x="1292"
d="M244 0v276h250l30 78l-499 1076h327l201 -445l119 -285h6l104 287l176 443h306l-504 -1229q-46 -112 -115 -156.5t-196 -44.5h-205zM741 1876l-274 -360l-166 79l203 398zM1161 1876l-274 -360l-166 79l203 398z" />
    <glyph glyph-name="uni04F3" unicode="&#x4f3;" horiz-adv-x="1093"
d="M641 573l158 502h282l-413 -1241q-42 -128 -118 -186t-212 -58h-188v236h202l37 119l-377 1130h301l158 -502l78 -311h12zM647 1546l-274 -360l-166 80l203 397zM1067 1546l-274 -360l-166 80l202 397z" />
    <glyph glyph-name="uni04F4" unicode="&#x4f4;" horiz-adv-x="1388"
d="M920 0v506h-11q-100 -47 -272 -47q-526 0 -526 526v445h311v-457q0 -244 244 -244q167 0 254 37v664h311v-1430h-311zM444 1559q-163 0 -163 129v51q0 129 163 129q164 0 164 -129v-51q0 -129 -164 -129zM895 1559q-164 0 -164 129v51q0 129 164 129t164 -129v-51
q0 -129 -164 -129z" />
    <glyph glyph-name="uni04F5" unicode="&#x4f5;" horiz-adv-x="1183"
d="M739 0v457h-10q-79 -142 -278 -142q-182 0 -265.5 93.5t-83.5 289.5v377h304v-362q0 -80 37.5 -116t123.5 -36q84 0 128 30t44 79v405h303v-1075h-303zM350 1229q-164 0 -164 129v51q0 129 164 129t164 -129v-51q0 -129 -164 -129zM801 1229q-164 0 -164 129v51
q0 129 164 129t164 -129v-51q0 -129 -164 -129z" />
    <glyph glyph-name="uni04F8" unicode="&#x4f8;" horiz-adv-x="1910"
d="M158 0v1430h311v-517h365q198 0 316 -127.5t118 -328.5q0 -204 -117.5 -330.5t-316.5 -126.5h-676zM469 270h328q70 0 109.5 37t39.5 105v90q0 68 -39.5 104.5t-109.5 36.5h-328v-373zM1442 0v1430h311v-1430h-311zM731 1559q-164 0 -164 129v51q0 129 164 129t164 -129
v-51q0 -129 -164 -129zM1182 1559q-164 0 -164 129v51q0 129 164 129t164 -129v-51q0 -129 -164 -129z" />
    <glyph glyph-name="uni04F9" unicode="&#x4f9;" horiz-adv-x="1656"
d="M141 0v1075h303v-319h261q162 0 266 -99.5t104 -277.5q0 -180 -104 -279.5t-266 -99.5h-564zM444 215h195q61 0 96 32t35 91v80q0 59 -35 91t-96 32h-195v-326zM1212 0v1075h304v-1075h-304zM602 1229q-164 0 -164 129v51q0 129 164 129t164 -129v-51q0 -129 -164 -129z
M1053 1229q-164 0 -164 129v51q0 129 164 129t164 -129v-51q0 -129 -164 -129z" />
    <glyph glyph-name="uni0E3F" unicode="&#xe3f;" horiz-adv-x="1361"
d="M799 41v-225h-234v225h-407v1348h407v208h234v-208h75q165 0 260 -94t95 -253q0 -138 -62 -204t-200 -84v-13q141 -8 227 -84.5t86 -230.5q0 -163 -99 -274t-249 -111h-133zM451 836h135v305h-135v-305zM780 1141v-305h21q125 0 125 120v64q0 60 -32.5 90.5t-92.5 30.5
h-21zM451 289h135v309h-135v-309zM780 598v-309h70q60 0 93.5 31.5t33.5 91.5v63q0 60 -33.5 91.5t-93.5 31.5h-70z" />
    <glyph glyph-name="Wgrave" unicode="&#x1e80;" horiz-adv-x="1992"
d="M739 0h-356l-324 1430h308l135 -687l76 -397h6l90 397l157 687h340l160 -687l88 -397h6l76 397l137 687h295l-331 -1430h-355l-180 774l-70 313h-6l-71 -313zM690 1876l252 125l203 -397l-180 -88z" />
    <glyph glyph-name="wgrave" unicode="&#x1e81;" horiz-adv-x="1722"
d="M340 0l-301 1075h293l104 -434l74 -328h8l86 328l123 434h277l124 -434l89 -328h8l73 328l105 434h280l-297 -1075h-317l-131 455l-76 278h-6l-74 -278l-131 -455h-311zM555 1546l252 125l203 -397l-181 -88z" />
    <glyph glyph-name="Wacute" unicode="&#x1e82;" horiz-adv-x="1992"
d="M739 0h-356l-324 1430h308l135 -687l76 -397h6l90 397l157 687h340l160 -687l88 -397h6l76 397l137 687h295l-331 -1430h-355l-180 774l-70 313h-6l-71 -313zM850 1604l203 397l252 -125l-275 -360z" />
    <glyph glyph-name="wacute" unicode="&#x1e83;" horiz-adv-x="1722"
d="M340 0l-301 1075h293l104 -434l74 -328h8l86 328l123 434h277l124 -434l89 -328h8l73 328l105 434h280l-297 -1075h-317l-131 455l-76 278h-6l-74 -278l-131 -455h-311zM715 1274l203 397l251 -125l-274 -360z" />
    <glyph glyph-name="Wdieresis" unicode="&#x1e84;" horiz-adv-x="1992"
d="M739 0h-356l-324 1430h308l135 -687l76 -397h6l90 397l157 687h340l160 -687l88 -397h6l76 397l137 687h295l-331 -1430h-355l-180 774l-70 313h-6l-71 -313zM772 1559q-164 0 -164 129v51q0 129 164 129t164 -129v-51q0 -129 -164 -129zM1223 1559q-164 0 -164 129v51
q0 129 164 129q163 0 163 -129v-51q0 -129 -163 -129z" />
    <glyph glyph-name="wdieresis" unicode="&#x1e85;" horiz-adv-x="1722"
d="M340 0l-301 1075h293l104 -434l74 -328h8l86 328l123 434h277l124 -434l89 -328h8l73 328l105 434h280l-297 -1075h-317l-131 455l-76 278h-6l-74 -278l-131 -455h-311zM637 1229q-164 0 -164 129v51q0 129 164 129t164 -129v-51q0 -129 -164 -129zM1087 1229
q-163 0 -163 129v51q0 129 163 129q164 0 164 -129v-51q0 -129 -164 -129z" />
    <glyph glyph-name="uni1E9E" unicode="&#x1e9e;" horiz-adv-x="1497"
d="M1436 442q0 -203 -128 -335t-341 -132q-260 0 -406 162l195 199q47 -52 95 -77.5t116 -25.5q70 0 112.5 46t42.5 114v74q0 70 -47.5 110.5t-148.5 40.5h-197v240l266 309h-526v-1167h-311v1430h1147v-285l-254 -295v-8q68 -4 133.5 -30t123 -72.5t93 -124t35.5 -173.5z
" />
    <glyph glyph-name="uni1EA0" unicode="&#x1ea0;" horiz-adv-x="1402"
d="M1362 0h-324l-102 340h-477l-103 -340h-315l471 1430h385zM860 604l-160 543h-10l-158 -543h328zM694 -418q-87 0 -126.5 35t-39.5 94v53q0 59 39.5 94.5t126.5 35.5t126.5 -35.5t39.5 -94.5v-53q0 -59 -39.5 -94t-126.5 -35z" />
    <glyph glyph-name="uni1EA1" unicode="&#x1ea1;" horiz-adv-x="1165"
d="M1104 0h-168q-81 0 -136 50.5t-69 137.5h-12q-24 -103 -107.5 -158t-208.5 -55q-158 0 -245.5 85t-87.5 229q0 167 120.5 251.5t339.5 84.5h170v67q0 170 -178 170q-83 0 -136 -34t-95 -93l-180 160q70 103 170.5 154t263.5 51q228 0 343.5 -100t115.5 -293v-471h100
v-236zM516 186q81 0 132.5 35t51.5 105v127h-147q-178 0 -178 -121v-31q0 -115 141 -115zM551 -418q-87 0 -126.5 35t-39.5 94v53q0 59 39.5 94.5t126.5 35.5t126.5 -35.5t39.5 -94.5v-53q0 -59 -39.5 -94t-126.5 -35z" />
    <glyph glyph-name="uni1EA2" unicode="&#x1ea2;" horiz-adv-x="1402"
d="M1362 0h-324l-102 340h-477l-103 -340h-315l471 1430h385zM860 604l-160 543h-10l-158 -543h328zM449 1755v217h292q103 0 152 -40.5t49 -108.5q0 -117 -117 -258l-57 -70l-154 72l84 188h-249z" />
    <glyph glyph-name="uni1EA3" unicode="&#x1ea3;" horiz-adv-x="1165"
d="M1104 0h-168q-81 0 -136 50.5t-69 137.5h-12q-24 -103 -107.5 -158t-208.5 -55q-158 0 -245.5 85t-87.5 229q0 167 120.5 251.5t339.5 84.5h170v67q0 170 -178 170q-83 0 -136 -34t-95 -93l-180 160q70 103 170.5 154t263.5 51q228 0 343.5 -100t115.5 -293v-471h100
v-236zM516 186q81 0 132.5 35t51.5 105v127h-147q-178 0 -178 -121v-31q0 -115 141 -115zM303 1425v217h293q103 0 152 -40.5t49 -108.5q0 -117 -117 -258l-57 -70l-154 72l84 188h-250z" />
    <glyph glyph-name="uni1EA4" unicode="&#x1ea4;" horiz-adv-x="1402"
d="M1362 0h-324l-102 340h-477l-103 -340h-315l471 1430h385zM301 1628l297 301h193l296 -301l-139 -131l-254 213l-254 -213zM532 604h328l-160 543h-10zM887 1911l203 397l233 -117l-274 -360z" />
    <glyph glyph-name="uni1EA5" unicode="&#x1ea5;" horiz-adv-x="1165"
d="M1104 0h-168q-81 0 -136 50.5t-69 137.5h-12q-24 -103 -107.5 -158t-208.5 -55q-158 0 -245.5 85t-87.5 229q0 167 120.5 251.5t339.5 84.5h170v67q0 170 -178 170q-83 0 -136 -34t-95 -93l-180 160q70 103 170.5 154t263.5 51q228 0 343.5 -100t115.5 -293v-471h100
v-236zM516 186q81 0 132.5 35t51.5 105v127h-147q-178 0 -178 -121v-31q0 -115 141 -115zM1178 1862l-275 -361l-162 80l203 397zM453 1599h192l297 -301l-139 -131l-254 213l-254 -213l-139 131z" />
    <glyph glyph-name="uni1EA6" unicode="&#x1ea6;" horiz-adv-x="1402"
d="M1362 0h-324l-102 340h-477l-103 -340h-315l471 1430h385zM66 2191l233 117l203 -397l-162 -80zM301 1628l297 301h193l296 -301l-139 -131l-254 213l-254 -213zM532 604h328l-160 543h-10z" />
    <glyph glyph-name="uni1EA7" unicode="&#x1ea7;" horiz-adv-x="1165"
d="M1104 0h-168q-81 0 -136 50.5t-69 137.5h-12q-24 -103 -107.5 -158t-208.5 -55q-158 0 -245.5 85t-87.5 229q0 167 120.5 251.5t339.5 84.5h170v67q0 170 -178 170q-83 0 -136 -34t-95 -93l-180 160q70 103 170.5 154t263.5 51q228 0 343.5 -100t115.5 -293v-471h100
v-236zM516 186q81 0 132.5 35t51.5 105v127h-147q-178 0 -178 -121v-31q0 -115 141 -115zM195 1501l-275 361l234 116l202 -397zM453 1599h192l297 -301l-139 -131l-254 213l-254 -213l-139 131z" />
    <glyph glyph-name="uni1EA8" unicode="&#x1ea8;" horiz-adv-x="1402"
d="M1362 0h-324l-102 340h-477l-103 -340h-315l471 1430h385zM860 604l-160 543h-10l-158 -543h328zM772 2073v206h275q105 0 152.5 -41.5t47.5 -105.5q0 -104 -129 -260l-55 -68l-135 70l88 199h-244zM598 1929h193l296 -301l-139 -131l-254 213l-254 -213l-139 131z" />
    <glyph glyph-name="uni1EA9" unicode="&#x1ea9;" horiz-adv-x="1165"
d="M1104 0h-168q-81 0 -136 50.5t-69 137.5h-12q-24 -103 -107.5 -158t-208.5 -55q-158 0 -245.5 85t-87.5 229q0 167 120.5 251.5t339.5 84.5h170v67q0 170 -178 170q-83 0 -136 -34t-95 -93l-180 160q70 103 170.5 154t263.5 51q228 0 343.5 -100t115.5 -293v-471h100
v-236zM516 186q81 0 132.5 35t51.5 105v127h-147q-178 0 -178 -121v-31q0 -115 141 -115zM627 1743v207h274q105 0 153 -42t48 -106q0 -104 -129 -260l-55 -67l-136 69l88 199h-243zM453 1599h192l297 -301l-139 -131l-254 213l-254 -213l-139 131z" />
    <glyph glyph-name="uni1EAA" unicode="&#x1eaa;" horiz-adv-x="1402"
d="M1362 0h-324l-102 340h-477l-103 -340h-315l471 1430h385zM860 604l-160 543h-10l-158 -543h328zM541 2259q66 0 157 -41q39 -17 57.5 -24t47.5 -14t55 -7q34 0 60.5 11.5t60.5 39.5l102 -131q-87 -131 -233 -131q-67 0 -158 41q-39 17 -57.5 24t-47.5 14t-55 7
q-34 0 -60 -11.5t-60 -39.5l-103 131q87 131 234 131zM596 1903h197l290 -275l-135 -131l-254 195l-254 -195l-135 131z" />
    <glyph glyph-name="uni1EAB" unicode="&#x1eab;" horiz-adv-x="1165"
d="M1104 0h-168q-81 0 -136 50.5t-69 137.5h-12q-24 -103 -107.5 -158t-208.5 -55q-158 0 -245.5 85t-87.5 229q0 167 120.5 251.5t339.5 84.5h170v67q0 170 -178 170q-83 0 -136 -34t-95 -93l-180 160q70 103 170.5 154t263.5 51q228 0 343.5 -100t115.5 -293v-471h100
v-236zM516 186q81 0 132.5 35t51.5 105v127h-147q-178 0 -178 -121v-31q0 -115 141 -115zM395 1929q67 0 158 -41q39 -17 57.5 -24t47.5 -14t55 -7q34 0 60.5 11.5t60.5 39.5l102 -131q-87 -131 -234 -131q-66 0 -157 41q-39 17 -57.5 24t-47.5 14t-55 7q-34 0 -60.5 -11.5
t-60.5 -39.5l-102 131q87 131 233 131zM451 1573h196l291 -275l-135 -131l-254 195l-254 -195l-135 131z" />
    <glyph glyph-name="uni1EAC" unicode="&#x1eac;" horiz-adv-x="1402"
d="M1362 0h-324l-102 340h-477l-103 -340h-315l471 1430h385zM860 604l-160 543h-10l-158 -543h328zM567 1958h254l271 -326l-150 -119l-248 236l-248 -236l-149 119zM694 -418q-87 0 -126.5 35t-39.5 94v53q0 59 39.5 94.5t126.5 35.5t126.5 -35.5t39.5 -94.5v-53
q0 -59 -39.5 -94t-126.5 -35z" />
    <glyph glyph-name="uni1EAD" unicode="&#x1ead;" horiz-adv-x="1165"
d="M1104 0h-168q-81 0 -136 50.5t-69 137.5h-12q-24 -103 -107.5 -158t-208.5 -55q-158 0 -245.5 85t-87.5 229q0 167 120.5 251.5t339.5 84.5h170v67q0 170 -178 170q-83 0 -136 -34t-95 -93l-180 160q70 103 170.5 154t263.5 51q228 0 343.5 -100t115.5 -293v-471h100
v-236zM516 186q81 0 132.5 35t51.5 105v127h-147q-178 0 -178 -121v-31q0 -115 141 -115zM424 1628h254l270 -325l-149 -119l-248 235l-248 -235l-149 119zM551 -418q-87 0 -126.5 35t-39.5 94v53q0 59 39.5 94.5t126.5 35.5t126.5 -35.5t39.5 -94.5v-53q0 -59 -39.5 -94
t-126.5 -35z" />
    <glyph glyph-name="uni1EAE" unicode="&#x1eae;" horiz-adv-x="1402"
d="M1362 0h-324l-102 340h-477l-103 -340h-315l471 1430h385zM860 604l-160 543h-10l-158 -543h328zM694 1501q-66 0 -124 18.5t-101 47.5t-79 70t-59.5 82t-41.5 87l153 97l41 -62q90 -133 211 -133q58 0 109 29.5t102 103.5l41 62l154 -97q-22 -58 -55.5 -108.5t-82 -96.5
t-118 -73t-150.5 -27zM1001 2191l-266 -360l-162 80l197 397z" />
    <glyph glyph-name="uni1EAF" unicode="&#x1eaf;" horiz-adv-x="1165"
d="M1104 0h-168q-81 0 -136 50.5t-69 137.5h-12q-24 -103 -107.5 -158t-208.5 -55q-158 0 -245.5 85t-87.5 229q0 167 120.5 251.5t339.5 84.5h170v67q0 170 -178 170q-83 0 -136 -34t-95 -93l-180 160q70 103 170.5 154t263.5 51q228 0 343.5 -100t115.5 -293v-471h100
v-236zM516 186q81 0 132.5 35t51.5 105v127h-147q-178 0 -178 -121v-31q0 -115 141 -115zM549 1171q-81 0 -150.5 27t-118 73t-82 97t-55.5 109l154 96l41 -62q90 -133 211 -133q58 0 109 29.5t102 103.5l41 62l153 -96q-22 -58 -55.5 -109t-81.5 -97t-117.5 -73t-150.5 -27
zM856 1862l-266 -361l-162 80l197 397z" />
    <glyph glyph-name="uni1EB0" unicode="&#x1eb0;" horiz-adv-x="1402"
d="M1362 0h-324l-102 340h-477l-103 -340h-315l471 1430h385zM860 604l-160 543h-10l-158 -543h328zM694 1501q-66 0 -124 18.5t-101 47.5t-79 70t-59.5 82t-41.5 87l153 97l41 -62q90 -133 211 -133q58 0 109 29.5t102 103.5l41 62l154 -97q-22 -58 -55.5 -108.5t-82 -96.5
t-118 -73t-150.5 -27zM653 1831l-260 360l228 117l196 -393z" />
    <glyph glyph-name="uni1EB1" unicode="&#x1eb1;" horiz-adv-x="1165"
d="M1104 0h-168q-81 0 -136 50.5t-69 137.5h-12q-24 -103 -107.5 -158t-208.5 -55q-158 0 -245.5 85t-87.5 229q0 167 120.5 251.5t339.5 84.5h170v67q0 170 -178 170q-83 0 -136 -34t-95 -93l-180 160q70 103 170.5 154t263.5 51q228 0 343.5 -100t115.5 -293v-471h100
v-236zM516 186q81 0 132.5 35t51.5 105v127h-147q-178 0 -178 -121v-31q0 -115 141 -115zM549 1171q-81 0 -150.5 27t-118 73t-82 97t-55.5 109l154 96l41 -62q90 -133 211 -133q58 0 109 29.5t102 103.5l41 62l153 -96q-22 -58 -55.5 -109t-81.5 -97t-117.5 -73t-150.5 -27
zM508 1501l-260 361l227 116l197 -393z" />
    <glyph glyph-name="uni1EB2" unicode="&#x1eb2;" horiz-adv-x="1402"
d="M1362 0h-324l-102 340h-477l-103 -340h-315l471 1430h385zM860 604l-160 543h-10l-158 -543h328zM428 2073v206h279q104 0 152 -40.5t48 -106.5q0 -103 -127 -260l-55 -68l-135 66l88 203h-250zM694 1501q-66 0 -124 18.5t-101 47.5t-79 70t-59.5 82t-41.5 87l153 97
l41 -62q90 -133 211 -133q58 0 109 29.5t102 103.5l41 62l154 -97q-22 -58 -55.5 -108.5t-82 -96.5t-118 -73t-150.5 -27z" />
    <glyph glyph-name="uni1EB3" unicode="&#x1eb3;" horiz-adv-x="1165"
d="M1104 0h-168q-81 0 -136 50.5t-69 137.5h-12q-24 -103 -107.5 -158t-208.5 -55q-158 0 -245.5 85t-87.5 229q0 167 120.5 251.5t339.5 84.5h170v67q0 170 -178 170q-83 0 -136 -34t-95 -93l-180 160q70 103 170.5 154t263.5 51q228 0 343.5 -100t115.5 -293v-471h100
v-236zM516 186q81 0 132.5 35t51.5 105v127h-147q-178 0 -178 -121v-31q0 -115 141 -115zM549 1171q-81 0 -150.5 27t-118 73t-82 97t-55.5 109l154 96l41 -62q90 -133 211 -133q58 0 109 29.5t102 103.5l41 62l153 -96q-22 -58 -55.5 -109t-81.5 -97t-117.5 -73t-150.5 -27
zM283 1743v207h278q104 0 152.5 -41t48.5 -107q0 -103 -127 -260l-55 -67l-136 65l88 203h-249z" />
    <glyph glyph-name="uni1EB4" unicode="&#x1eb4;" horiz-adv-x="1402"
d="M1362 0h-324l-102 340h-477l-103 -340h-315l471 1430h385zM860 604l-160 543h-10l-158 -543h328zM840 1942q-73 0 -150 36q-37 16 -55.5 23.5t-46 14.5t-51.5 7q-61 0 -121 -49l-103 131q85 129 234 129q64 0 151 -41q102 -41 152 -41q34 0 60.5 12t60.5 40l102 -131
q-87 -131 -233 -131zM694 1501q-66 0 -124 18.5t-101 47.5t-79 70t-59.5 82t-41.5 87l153 97l41 -62q90 -133 211 -133q58 0 109 29.5t102 103.5l41 62l154 -97q-22 -58 -55.5 -108.5t-82 -96.5t-118 -73t-150.5 -27z" />
    <glyph glyph-name="uni1EB5" unicode="&#x1eb5;" horiz-adv-x="1165"
d="M1104 0h-168q-81 0 -136 50.5t-69 137.5h-12q-24 -103 -107.5 -158t-208.5 -55q-158 0 -245.5 85t-87.5 229q0 167 120.5 251.5t339.5 84.5h170v67q0 170 -178 170q-83 0 -136 -34t-95 -93l-180 160q70 103 170.5 154t263.5 51q228 0 343.5 -100t115.5 -293v-471h100
v-236zM516 186q81 0 132.5 35t51.5 105v127h-147q-178 0 -178 -121v-31q0 -115 141 -115zM549 1171q-81 0 -150.5 27t-118 73t-82 97t-55.5 109l154 96l41 -62q90 -133 211 -133q58 0 109 29.5t102 103.5l41 62l153 -96q-22 -58 -55.5 -109t-81.5 -97t-117.5 -73t-150.5 -27
zM694 1614q-70 0 -149 37q-103 45 -154 45q-61 0 -121 -49l-102 131q85 129 233 129q65 0 152 -41q102 -41 152 -41q34 0 60 11.5t60 39.5l103 -131q-87 -131 -234 -131z" />
    <glyph glyph-name="uni1EB6" unicode="&#x1eb6;" horiz-adv-x="1402"
d="M1362 0h-324l-102 340h-477l-103 -340h-315l471 1430h385zM860 604l-160 543h-10l-158 -543h328zM694 1516q-71 0 -131 23t-99 56.5t-72.5 84t-51 91.5t-35.5 93l166 86l39 -66q48 -82 89 -120t95 -38t96.5 38.5t90.5 119.5l39 66l163 -86q-17 -51 -38 -95.5t-55 -92.5
t-74.5 -82t-98 -56t-123.5 -22zM694 -418q-87 0 -126.5 35t-39.5 94v53q0 59 39.5 94.5t126.5 35.5t126.5 -35.5t39.5 -94.5v-53q0 -59 -39.5 -94t-126.5 -35z" />
    <glyph glyph-name="uni1EB7" unicode="&#x1eb7;" horiz-adv-x="1165"
d="M1104 0h-168q-81 0 -136 50.5t-69 137.5h-12q-24 -103 -107.5 -158t-208.5 -55q-158 0 -245.5 85t-87.5 229q0 167 120.5 251.5t339.5 84.5h170v67q0 170 -178 170q-83 0 -136 -34t-95 -93l-180 160q70 103 170.5 154t263.5 51q228 0 343.5 -100t115.5 -293v-471h100
v-236zM516 186q81 0 132.5 35t51.5 105v127h-147q-178 0 -178 -121v-31q0 -115 141 -115zM551 1186q-274 0 -389 348l166 86l41 -68q48 -79 89.5 -117t92.5 -38t94 38t90 117l41 68l164 -86q-21 -63 -50 -117.5t-75 -110t-114 -88t-150 -32.5zM551 -418q-87 0 -126.5 35
t-39.5 94v53q0 59 39.5 94.5t126.5 35.5t126.5 -35.5t39.5 -94.5v-53q0 -59 -39.5 -94t-126.5 -35z" />
    <glyph glyph-name="uni1EB8" unicode="&#x1eb8;" horiz-adv-x="1243"
d="M1130 0h-972v1430h972v-277h-661v-293h567v-274h-567v-310h661v-276zM645 -418q-87 0 -126.5 35t-39.5 94v53q0 59 39.5 94.5t126.5 35.5t126.5 -35.5t39.5 -94.5v-53q0 -59 -39.5 -94t-126.5 -35z" />
    <glyph glyph-name="uni1EB9" unicode="&#x1eb9;" horiz-adv-x="1150"
d="M590 -25q-242 0 -379 150.5t-137 413.5q0 260 132.5 410.5t371.5 150.5q105 0 190 -29.5t141.5 -80.5t95 -121.5t55.5 -149.5t17 -168v-90h-690v-17q0 -109 59 -170t179 -61q86 0 145 33t119 96l151 -188q-73 -86 -188.5 -132.5t-261.5 -46.5zM584 877q-91 0 -144 -60.5
t-53 -161.5v-16h377v18q0 102 -45.5 161t-134.5 59zM580 -418q-87 0 -126.5 35t-39.5 94v53q0 59 39.5 94.5t126.5 35.5t126 -35.5t39 -94.5v-53q0 -129 -165 -129z" />
    <glyph glyph-name="uni1EBA" unicode="&#x1eba;" horiz-adv-x="1243"
d="M1130 0h-972v1430h972v-277h-661v-293h567v-274h-567v-310h661v-276zM399 1755v217h293q103 0 152 -40.5t49 -108.5q0 -117 -117 -258l-57 -70l-154 72l84 188h-250z" />
    <glyph glyph-name="uni1EBB" unicode="&#x1ebb;" horiz-adv-x="1150"
d="M590 -25q-242 0 -379 150.5t-137 413.5q0 260 132.5 410.5t371.5 150.5q105 0 190 -29.5t141.5 -80.5t95 -121.5t55.5 -149.5t17 -168v-90h-690v-17q0 -109 59 -170t179 -61q86 0 145 33t119 96l151 -188q-73 -86 -188.5 -132.5t-261.5 -46.5zM584 877q-91 0 -144 -60.5
t-53 -161.5v-16h377v18q0 102 -45.5 161t-134.5 59zM342 1425v217h293q103 0 152 -40.5t49 -108.5q0 -117 -117 -258l-57 -70l-154 72l84 188h-250z" />
    <glyph glyph-name="uni1EBC" unicode="&#x1ebc;" horiz-adv-x="1243"
d="M1130 0h-972v1430h972v-277h-661v-293h567v-274h-567v-310h661v-276zM801 1561q-67 0 -158 41q-39 17 -57.5 24t-47.5 14t-55 7q-34 0 -60.5 -12t-60.5 -40l-106 140q87 131 233 131q67 0 158 -41q39 -17 57.5 -24t47.5 -14t55 -7q34 0 60.5 11.5t60.5 39.5l106 -139
q-87 -131 -233 -131z" />
    <glyph glyph-name="uni1EBD" unicode="&#x1ebd;" horiz-adv-x="1150"
d="M590 -25q-242 0 -379 150.5t-137 413.5q0 260 132.5 410.5t371.5 150.5q105 0 190 -29.5t141.5 -80.5t95 -121.5t55.5 -149.5t17 -168v-90h-690v-17q0 -109 59 -170t179 -61q86 0 145 33t119 96l151 -188q-73 -86 -188.5 -132.5t-261.5 -46.5zM584 877q-91 0 -144 -60.5
t-53 -161.5v-16h377v18q0 102 -45.5 161t-134.5 59zM745 1231q-66 0 -157 41q-39 17 -57.5 24t-47.5 14t-55 7q-34 0 -60.5 -11.5t-60.5 -39.5l-106 139q87 131 233 131q67 0 158 -41q39 -17 57.5 -24t47.5 -14t55 -7q34 0 60 11.5t60 39.5l107 -139q-87 -131 -234 -131z
" />
    <glyph glyph-name="uni1EBE" unicode="&#x1ebe;" horiz-adv-x="1243"
d="M1130 0h-972v1430h972v-277h-661v-293h567v-274h-567v-310h661v-276zM252 1628l297 301h192l297 -301l-139 -131l-254 213l-254 -213zM838 1911l202 397l234 -117l-275 -360z" />
    <glyph glyph-name="uni1EBF" unicode="&#x1ebf;" horiz-adv-x="1150"
d="M590 -25q-242 0 -379 150.5t-137 413.5q0 260 132.5 410.5t371.5 150.5q105 0 190 -29.5t141.5 -80.5t95 -121.5t55.5 -149.5t17 -168v-90h-690v-17q0 -109 59 -170t179 -61q86 0 145 33t119 96l151 -188q-73 -86 -188.5 -132.5t-261.5 -46.5zM584 877q-91 0 -144 -60.5
t-53 -161.5v-16h377v18q0 102 -45.5 161t-134.5 59zM1217 1862l-275 -361l-162 80l203 397zM492 1599h192l297 -301l-139 -131l-254 213l-254 -213l-139 131z" />
    <glyph glyph-name="uni1EC0" unicode="&#x1ec0;" horiz-adv-x="1243"
d="M1130 0h-972v1430h972v-277h-661v-293h567v-274h-567v-310h661v-276zM16 2191l234 117l203 -397l-162 -80zM252 1628l297 301h192l297 -301l-139 -131l-254 213l-254 -213z" />
    <glyph glyph-name="uni1EC1" unicode="&#x1ec1;" horiz-adv-x="1150"
d="M590 -25q-242 0 -379 150.5t-137 413.5q0 260 132.5 410.5t371.5 150.5q105 0 190 -29.5t141.5 -80.5t95 -121.5t55.5 -149.5t17 -168v-90h-690v-17q0 -109 59 -170t179 -61q86 0 145 33t119 96l151 -188q-73 -86 -188.5 -132.5t-261.5 -46.5zM584 877q-91 0 -144 -60.5
t-53 -161.5v-16h377v18q0 102 -45.5 161t-134.5 59zM233 1501l-274 361l234 116l202 -397zM492 1599h192l297 -301l-139 -131l-254 213l-254 -213l-139 131z" />
    <glyph glyph-name="uni1EC2" unicode="&#x1ec2;" horiz-adv-x="1243"
d="M1130 0h-972v1430h972v-277h-661v-293h567v-274h-567v-310h661v-276zM723 2073v206h274q105 0 153 -41.5t48 -105.5q0 -104 -129 -260l-55 -68l-135 70l88 199h-244zM549 1929h192l297 -301l-139 -131l-254 213l-254 -213l-139 131z" />
    <glyph glyph-name="uni1EC3" unicode="&#x1ec3;" horiz-adv-x="1150"
d="M590 -25q-242 0 -379 150.5t-137 413.5q0 260 132.5 410.5t371.5 150.5q105 0 190 -29.5t141.5 -80.5t95 -121.5t55.5 -149.5t17 -168v-90h-690v-17q0 -109 59 -170t179 -61q86 0 145 33t119 96l151 -188q-73 -86 -188.5 -132.5t-261.5 -46.5zM584 877q-91 0 -144 -60.5
t-53 -161.5v-16h377v18q0 102 -45.5 161t-134.5 59zM666 1743v207h274q105 0 153 -42t48 -106q0 -104 -129 -260l-56 -67l-135 69l88 199h-243zM492 1599h192l297 -301l-139 -131l-254 213l-254 -213l-139 131z" />
    <glyph glyph-name="uni1EC4" unicode="&#x1ec4;" horiz-adv-x="1243"
d="M1130 0h-972v1430h972v-277h-661v-293h567v-274h-567v-310h661v-276zM492 2259q66 0 157 -41q39 -17 57.5 -24t47.5 -14t55 -7q34 0 60.5 11.5t60.5 39.5l102 -131q-87 -131 -233 -131q-67 0 -158 41q-39 17 -57.5 24t-47.5 14t-55 7q-34 0 -60.5 -11.5t-60.5 -39.5
l-102 131q87 131 234 131zM547 1903h196l291 -275l-135 -131l-254 195l-254 -195l-135 131z" />
    <glyph glyph-name="uni1EC5" unicode="&#x1ec5;" horiz-adv-x="1150"
d="M590 -25q-242 0 -379 150.5t-137 413.5q0 260 132.5 410.5t371.5 150.5q105 0 190 -29.5t141.5 -80.5t95 -121.5t55.5 -149.5t17 -168v-90h-690v-17q0 -109 59 -170t179 -61q86 0 145 33t119 96l151 -188q-73 -86 -188.5 -132.5t-261.5 -46.5zM584 877q-91 0 -144 -60.5
t-53 -161.5v-16h377v18q0 102 -45.5 161t-134.5 59zM434 1929q67 0 158 -41q39 -17 57.5 -24t47.5 -14t55 -7q34 0 60 11.5t60 39.5l103 -131q-87 -131 -234 -131q-66 0 -157 41q-39 17 -57.5 24t-47.5 14t-55 7q-34 0 -60.5 -11.5t-60.5 -39.5l-102 131q87 131 233 131z
M489 1573h197l291 -275l-135 -131l-254 195l-254 -195l-135 131z" />
    </font>
</defs>
</svg>
