<?xml version="1.0" standalone="no"?>
<!DOCTYPE svg PUBLIC "-//W3C//DTD SVG 1.1//EN" "http://www.w3.org/Graphics/SVG/1.1/DTD/svg11.dtd" >
<svg xmlns="http://www.w3.org/2000/svg" xmlns:xlink="http://www.w3.org/1999/xlink" version="1.1">
<metadata>
Created by FontForge 20170731 at Thu Jun 10 16:22:20 2021
 By Aleksey,,,
Copyright 2018 IBM Corp. All rights reserved.
</metadata>
<defs>
<font id="IBMPlexSans-Medium" horiz-adv-x="600" >
  <font-face
    font-family="IBM Plex Sans Medium"
    font-weight="500"
    font-stretch="normal"
    units-per-em="1000"
    panose-1="2 11 6 3 5 2 3 0 2 3"
    ascent="780"
    descent="-220"
    x-height="520"
    cap-height="698"
    bbox="-280 -258 1280 1132"
    underline-thickness="77"
    underline-position="-197"
    unicode-range="U+000D-FB02"
  />
<missing-glyph horiz-adv-x="472"
d="M32 0v780h408v-780h-408zM109 77h254v626h-254v-626z" />
    <glyph glyph-name="fi" unicode="fi" horiz-adv-x="601"
d="M105 431h-79v89h79v86q0 63 33 98.5t99 35.5h86v-89h-109v-131h309v-520h-109v431h-200v-431h-109v431zM469 613q-34 0 -49.5 16t-15.5 41v17q0 25 15.5 41t49.5 16t49 -16t15 -41v-17q0 -25 -15 -41t-49 -16z" />
    <glyph glyph-name=".notdef" horiz-adv-x="472"
d="M32 0v780h408v-780h-408zM109 77h254v626h-254v-626z" />
    <glyph glyph-name=".null" horiz-adv-x="0"
 />
    <glyph glyph-name=".null" horiz-adv-x="0"
 />
    <glyph glyph-name="uni000D" unicode="&#xd;" horiz-adv-x="236"
 />
    <glyph glyph-name="space" unicode=" " horiz-adv-x="236"
 />
    <glyph glyph-name="exclam" unicode="!" horiz-adv-x="298"
d="M124 200l-35 299v199h118v-199l-33 -299h-50zM149 -12q-38 0 -55.5 18.5t-17.5 47.5v17q0 29 17.5 47.5t55.5 18.5t55.5 -18.5t17.5 -47.5v-17q0 -29 -17.5 -47.5t-55.5 -18.5z" />
    <glyph glyph-name="quotedbl" unicode="&#x22;" horiz-adv-x="451"
d="M78 440v300h97v-300h-97zM276 440v300h97v-300h-97z" />
    <glyph glyph-name="numbersign" unicode="#" horiz-adv-x="678"
d="M391 191h-158l-33 -191h-77l33 191h-116v73h129l29 170h-116v73h129l33 191h76l-33 -191h158l33 191h77l-33 -191h116v-73h-129l-29 -170h116v-73h-129l-33 -191h-76zM403 264l30 170h-158l-30 -170h158z" />
    <glyph glyph-name="dollar" unicode="$" horiz-adv-x="599"
d="M261 -82v86q-76 6 -128 37t-90 76l73 66q31 -38 67.5 -61t84.5 -29v224q-108 23 -156 69.5t-48 122.5q0 80 53 127t144 57v87h85v-87q64 -6 111.5 -32t82.5 -71l-74 -61q-22 29 -52.5 48.5t-73.5 26.5v-205q59 -13 98 -31t63.5 -40.5t35.5 -52t11 -68.5q0 -81 -52.5 -135
t-149.5 -66v-88h-85zM443 200q0 38 -22 62.5t-81 39.5v-208q49 8 76 36t27 70zM168 514q0 -42 24.5 -63.5t75.5 -35.5v190q-48 -7 -74 -30t-26 -61z" />
    <glyph glyph-name="percent" unicode="%" horiz-adv-x="947"
d="M181 0l484 698h101l-484 -698h-101zM226 314q-81 0 -124 50.5t-43 147.5t43 147.5t124 50.5t124 -50.5t43 -147.5t-43 -147.5t-124 -50.5zM226 381q71 0 71 103v56q0 103 -71 103t-71 -103v-56q0 -103 71 -103zM721 -12q-81 0 -124 50.5t-43 147.5t43 147.5t124 50.5
t124 -50.5t43 -147.5t-43 -147.5t-124 -50.5zM721 55q71 0 71 103v56q0 103 -71 103t-71 -103v-56q0 -103 71 -103z" />
    <glyph glyph-name="ampersand" unicode="&#x26;" horiz-adv-x="707"
d="M489 71q-13 -13 -31.5 -27.5t-43 -27t-56 -20.5t-71.5 -8q-54 0 -96 15t-70.5 41t-43 61.5t-14.5 76.5q0 37 11.5 66.5t31 53t45 42t54.5 34.5q-33 35 -56 76t-23 88q0 35 13.5 66t38.5 53.5t60.5 35.5t78.5 13q40 0 74 -11t59 -31t38.5 -48.5t13.5 -63.5
q0 -34 -12 -61.5t-33 -50t-48.5 -42t-58.5 -37.5l136 -147q14 36 22 76t10 81h149v-92h-68q-15 -76 -46 -135l137 -148h-136zM317 623q-36 0 -61 -21.5t-25 -56.5v-8q0 -26 16.5 -52t47.5 -60q42 23 72 51.5t30 65.5v8q0 35 -22 54t-58 19zM300 81q42 0 74 14t56 39
l-170 183q-38 -21 -61.5 -47t-23.5 -71v-13q0 -48 33 -76.5t92 -28.5z" />
    <glyph glyph-name="quotesingle" unicode="'" horiz-adv-x="253"
d="M78 440v300h97v-300h-97z" />
    <glyph glyph-name="parenleft" unicode="(" horiz-adv-x="336"
d="M63 311q0 73 13.5 140t37.5 125t56.5 105t70.5 79h103q-41 -38 -74 -85t-56 -100t-35.5 -110t-12.5 -114v-80q0 -57 12.5 -114t35.5 -110t56 -100.5t74 -84.5h-103q-38 32 -70.5 79t-56.5 105t-37.5 125t-13.5 140z" />
    <glyph glyph-name="parenright" unicode=")" horiz-adv-x="336"
d="M273 311q0 -73 -13.5 -140t-37.5 -125t-56.5 -105t-70.5 -79h-103q41 37 74 84.5t56 100.5t35.5 110t12.5 114v80q0 57 -12.5 114t-35.5 110t-56 100t-74 85h103q38 -32 70.5 -79t56.5 -105t37.5 -125t13.5 -140z" />
    <glyph glyph-name="asterisk" unicode="*" horiz-adv-x="514"
d="M163 324l-76 53l106 132l-159 46l29 87l153 -60l-7 165h95l-7 -165l153 60l30 -87l-160 -46l106 -132l-76 -53l-94 140z" />
    <glyph glyph-name="plus" unicode="+"
d="M251 63v198h-184v89h184v198h98v-198h184v-89h-184v-198h-98z" />
    <glyph glyph-name="comma" unicode="," horiz-adv-x="290"
d="M145 139q37 0 55 -19t18 -49v-16q0 -49 -26.5 -102.5t-71.5 -90.5h-81q32 32 53 62t32 67q-26 5 -39 22.5t-13 41.5v16q0 30 18 49t55 19z" />
    <glyph glyph-name="hyphen" unicode="-" horiz-adv-x="401"
d="M62 249v111h277v-111h-277z" />
    <glyph glyph-name="period" unicode="." horiz-adv-x="290"
d="M145 -12q-37 0 -55 19.5t-18 48.5v15q0 29 18 48.5t55 19.5t55 -19.5t18 -48.5v-15q0 -29 -18 -48.5t-55 -19.5z" />
    <glyph glyph-name="slash" unicode="/" horiz-adv-x="417"
d="M7 -151l277 891h94l-277 -891h-94z" />
    <glyph glyph-name="zero" unicode="0"
d="M300 -12q-65 0 -113 24.5t-79 70.5t-46 113t-15 153q0 85 15 152.5t46 113.5t79 70.5t113 24.5q130 0 191.5 -95t61.5 -266t-61.5 -266t-191.5 -95zM300 84q36 0 61.5 14.5t41.5 41.5t23 64.5t7 83.5v122q0 46 -7 83.5t-23 64.5t-41.5 41.5t-61.5 14.5t-61.5 -14.5
t-41.5 -41.5t-23 -64.5t-7 -83.5v-122q0 -46 7 -83.5t23 -64.5t41.5 -41.5t61.5 -14.5z" />
    <glyph glyph-name="one" unicode="1"
d="M88 0v94h196v522h-8l-162 -173l-69 62l178 193h172v-604h170v-94h-477z" />
    <glyph glyph-name="two" unicode="2"
d="M541 0h-474v108l223 199q53 48 81.5 91.5t28.5 91.5v13q0 51 -30.5 80t-82.5 29q-29 0 -50.5 -8.5t-37.5 -23.5t-26.5 -35t-16.5 -43l-99 38q11 33 30 63.5t48 54.5t68.5 38t92.5 14t95 -15.5t70.5 -43t43.5 -65.5t15 -83q0 -42 -13 -78t-36 -68t-53.5 -61t-64.5 -59
l-164 -141h352v-96z" />
    <glyph glyph-name="three" unicode="3"
d="M262 411q65 0 96 27.5t31 70.5v7q0 48 -30 73.5t-81 25.5q-50 0 -85 -22.5t-59 -62.5l-75 65q16 23 36 44t47 36.5t61 25t78 9.5q49 0 91 -12t72 -35.5t47 -57t17 -75.5q0 -33 -10.5 -60t-29 -47.5t-43 -33.5t-51.5 -19v-5q30 -6 56.5 -19.5t46.5 -35t31.5 -51
t11.5 -67.5q0 -46 -18 -83.5t-50.5 -64.5t-78.5 -41.5t-102 -14.5q-49 0 -86 10.5t-65.5 28t-50 40t-37.5 46.5l83 65q13 -21 27.5 -38.5t33 -30t42 -19.5t53.5 -7q64 0 98 30.5t34 84.5v7q0 54 -36 82t-102 28h-74v96h71z" />
    <glyph glyph-name="four" unicode="4"
d="M359 0v136h-324v97l283 465h148v-473h95v-89h-95v-136h-107zM131 225h228v370h-7z" />
    <glyph glyph-name="five" unicode="5"
d="M508 600h-310l-18 -247h7q12 21 25 37.5t30 28.5t39 18.5t52 6.5q45 0 83.5 -15t67 -43t44.5 -68.5t16 -91.5q0 -52 -16.5 -96t-48.5 -75.5t-78.5 -49t-105.5 -17.5q-47 0 -83 10.5t-63.5 28t-48 40t-36.5 46.5l82 65q13 -21 27 -38t32 -30t40.5 -20t51.5 -7
q62 0 95.5 34t33.5 94v12q0 60 -33.5 94t-95.5 34q-45 0 -72 -17t-46 -38l-93 13l26 389h396v-98z" />
    <glyph glyph-name="six" unicode="6"
d="M302 -12q-58 0 -103.5 19t-77 54.5t-48.5 85.5t-17 113q0 76 23 143t59 123t80.5 99.5t87.5 72.5h150q-59 -43 -106 -83t-82 -82t-58.5 -89t-36.5 -103l7 -2q11 21 25.5 39.5t34 32.5t44.5 22t58 8q44 0 81.5 -15t65 -43.5t43 -68.5t15.5 -89q0 -53 -17.5 -96.5
t-49.5 -74.5t-77.5 -48.5t-100.5 -17.5zM302 80q61 0 95 32.5t34 95.5v14q0 63 -34 95.5t-95 32.5t-95 -32.5t-34 -95.5v-14q0 -63 34 -95.5t95 -32.5z" />
    <glyph glyph-name="seven" unicode="7"
d="M171 0l253 605h-264v-129h-97v222h473v-98l-246 -600h-119z" />
    <glyph glyph-name="eight" unicode="8"
d="M300 -12q-61 0 -107.5 15.5t-78 42.5t-48 64t-16.5 80q0 70 38.5 112.5t101.5 59.5v8q-54 19 -86.5 60t-32.5 101q0 40 15.5 73t44.5 56.5t72 36.5t97 13t97 -13t72 -36.5t44.5 -56.5t15.5 -73q0 -60 -32.5 -101t-86.5 -60v-8q63 -17 101.5 -59.5t38.5 -112.5
q0 -43 -16.5 -80t-48 -64t-78 -42.5t-107.5 -15.5zM300 79q63 0 97.5 29t34.5 81v20q0 52 -34.5 81t-97.5 29t-97.5 -29t-34.5 -81v-20q0 -52 34.5 -81t97.5 -29zM300 406q58 0 88.5 25t30.5 73v17q0 48 -30.5 73t-88.5 25t-88.5 -25t-30.5 -73v-17q0 -48 30.5 -73t88.5 -25
z" />
    <glyph glyph-name="nine" unicode="9"
d="M544 438q0 -76 -23 -143t-59 -123t-80.5 -100t-87.5 -72h-150q59 43 106 83t82 82t58.5 89t36.5 103l-7 2q-11 -21 -25.5 -39.5t-34 -32.5t-44.5 -22t-58 -8q-44 0 -81.5 15t-65 43.5t-43 68t-15.5 89.5q0 52 17.5 96t49.5 75t77 48.5t101 17.5q58 0 103.5 -19t77 -54.5
t48.5 -85.5t17 -113zM298 348q61 0 95 32.5t34 95.5v14q0 63 -34 95.5t-95 32.5t-95 -32.5t-34 -95.5v-14q0 -63 34 -95.5t95 -32.5z" />
    <glyph glyph-name="colon" unicode=":" horiz-adv-x="310"
d="M155 -12q-37 0 -55 19.5t-18 48.5v15q0 29 18 48.5t55 19.5t55 -19.5t18 -48.5v-15q0 -29 -18 -48.5t-55 -19.5zM155 381q-37 0 -55 19.5t-18 48.5v15q0 29 18 48.5t55 19.5t55 -19.5t18 -48.5v-15q0 -29 -18 -48.5t-55 -19.5z" />
    <glyph glyph-name="semicolon" unicode=";" horiz-adv-x="310"
d="M155 139q37 0 55 -19t18 -49v-16q0 -49 -26.5 -102.5t-71.5 -90.5h-81q32 32 53 62t32 67q-26 5 -39 22.5t-13 41.5v16q0 30 18 49t55 19zM155 381q-37 0 -55 19.5t-18 48.5v15q0 29 18 48.5t55 19.5t55 -19.5t18 -48.5v-15q0 -29 -18 -48.5t-55 -19.5z" />
    <glyph glyph-name="less" unicode="&#x3c;"
d="M96 246v82l408 254v-112l-299 -179v-7l299 -180v-112z" />
    <glyph glyph-name="equal" unicode="="
d="M67 368v89h466v-89h-466zM67 154v89h466v-89h-466z" />
    <glyph glyph-name="greater" unicode="&#x3e;"
d="M96 104l299 180v7l-299 179v112l408 -254v-82l-408 -254v112z" />
    <glyph glyph-name="question" unicode="?" horiz-adv-x="487"
d="M170 219v159q81 4 124.5 34.5t43.5 90.5v14q0 46 -28 71.5t-75 25.5q-50 0 -80 -29t-41 -74l-95 38q9 31 26.5 60t44.5 51.5t64 36t85 13.5q49 0 89 -14t68 -39.5t43 -62t15 -80.5q0 -45 -15.5 -80.5t-41 -60.5t-57.5 -40.5t-66 -21.5v-92h-104zM223 -12
q-38 0 -55.5 18.5t-17.5 47.5v17q0 29 17.5 47.5t55.5 18.5t55.5 -18.5t17.5 -47.5v-17q0 -29 -17.5 -47.5t-55.5 -18.5z" />
    <glyph glyph-name="at" unicode="@" horiz-adv-x="896"
d="M676 -121h-223q-90 0 -162 29.5t-122.5 83.5t-78 129.5t-27.5 167.5t28 169t79.5 132.5t125 86.5t163.5 31q77 0 145.5 -23.5t119.5 -71t81 -118.5t30 -167q0 -55 -11 -101.5t-33.5 -80.5t-56.5 -53t-79 -19q-51 0 -79 24.5t-32 64.5h-5q-15 -41 -44.5 -65t-75.5 -24
q-34 0 -64 13.5t-52.5 40t-35.5 67t-13 94.5t13 94.5t35.5 67t52.5 40t64 13.5q46 0 72 -22.5t37 -54.5h5v68h87v-290q0 -33 12.5 -46t37.5 -13q42 0 64.5 43.5t22.5 124.5v39q0 65 -22.5 117.5t-62.5 89t-95 56.5t-119 20q-71 0 -129.5 -24.5t-100 -67t-64.5 -101
t-23 -127.5v-50q0 -70 22.5 -127.5t63.5 -99t98.5 -64.5t128.5 -23h222v-73zM445 151q42 0 65 23t23 59v120q0 32 -23 53.5t-65 21.5q-46 0 -70 -27.5t-24 -72.5v-77q0 -45 24 -72.5t70 -27.5z" />
    <glyph glyph-name="A" unicode="A" horiz-adv-x="662"
d="M522 0l-63 189h-261l-61 -189h-115l238 698h142l238 -698h-118zM331 594h-5l-101 -308h206z" />
    <glyph glyph-name="B" unicode="B" horiz-adv-x="659"
d="M86 698h309q87 0 136.5 -49t49.5 -131q0 -39 -11 -66.5t-28 -45t-39 -26t-43 -10.5v-6q21 -1 46.5 -10t47.5 -28.5t37 -50t15 -74.5q0 -42 -13.5 -79t-37.5 -64t-57 -42.5t-72 -15.5h-340v698zM199 97h194q44 0 69 23t25 66v34q0 43 -25 66t-69 23h-194v-212zM199 403
h175q42 0 65 21.5t23 61.5v32q0 40 -23 61.5t-65 21.5h-175v-198z" />
    <glyph glyph-name="C" unicode="C" horiz-adv-x="634"
d="M348 -12q-137 0 -215 92.5t-78 268.5q0 88 20 155t58 113t92.5 69.5t122.5 23.5q91 0 152.5 -40t96.5 -118l-95 -52q-18 50 -55.5 79.5t-98.5 29.5q-81 0 -127 -55t-46 -152v-106q0 -97 46 -152t127 -55q63 0 102.5 32.5t58.5 83.5l91 -55q-35 -76 -98 -119t-154 -43z
" />
    <glyph glyph-name="D" unicode="D" horiz-adv-x="683"
d="M86 698h247q67 0 121.5 -22t93 -65.5t59.5 -109t21 -152.5t-21 -152.5t-59.5 -109t-93 -65.5t-121.5 -22h-247v698zM333 100q78 0 126 49t48 144v112q0 95 -48 144t-126 49h-134v-498h134z" />
    <glyph glyph-name="E" unicode="E" horiz-adv-x="593"
d="M86 0v698h447v-100h-334v-194h303v-100h-303v-204h334v-100h-447z" />
    <glyph glyph-name="F" unicode="F" horiz-adv-x="570"
d="M86 0v698h436v-100h-323v-194h287v-100h-287v-304h-113z" />
    <glyph glyph-name="G" unicode="G" horiz-adv-x="705"
d="M535 106h-4q-11 -51 -59.5 -84.5t-128.5 -33.5q-62 0 -115 23.5t-91.5 69t-60 113t-21.5 155.5q0 87 22 154.5t62 113.5t96 69.5t125 23.5q94 0 159 -41.5t101 -115.5l-92 -54q-20 49 -62 79.5t-106 30.5q-83 0 -133.5 -53t-50.5 -150v-114q0 -97 50.5 -150t133.5 -53
q33 0 63 8.5t52.5 25t36 41t13.5 57.5v54h-144v97h253v-372h-99v106z" />
    <glyph glyph-name="H" unicode="H" horiz-adv-x="714"
d="M515 304h-316v-304h-113v698h113v-294h316v294h113v-698h-113v304z" />
    <glyph glyph-name="I" unicode="I" horiz-adv-x="416"
d="M56 0v92h95v514h-95v92h304v-92h-96v-514h96v-92h-304z" />
    <glyph glyph-name="J" unicode="J" horiz-adv-x="531"
d="M449 698v-508q0 -46 -15 -83t-42.5 -63.5t-67 -41t-87.5 -14.5q-91 0 -143.5 48.5t-66.5 126.5l104 23q9 -45 34.5 -71t71.5 -26q45 0 72 28t27 85v402h-228v94h341z" />
    <glyph glyph-name="K" unicode="K" horiz-adv-x="660"
d="M295 326l-96 -110v-216h-113v698h113v-354h4l100 127l188 227h132l-249 -294l269 -404h-136z" />
    <glyph glyph-name="L" unicode="L" horiz-adv-x="513"
d="M86 0v698h113v-598h284v-100h-397z" />
    <glyph glyph-name="M" unicode="M" horiz-adv-x="814"
d="M620 534h-5l-55 -113l-153 -279l-153 279l-55 113h-5v-534h-108v698h134l187 -355h6l187 355h128v-698h-108v534z" />
    <glyph glyph-name="N" unicode="N" horiz-adv-x="714"
d="M274 386l-77 148h-3v-534h-108v698h126l228 -386l77 -148h3v534h108v-698h-126z" />
    <glyph glyph-name="O" unicode="O" horiz-adv-x="712"
d="M356 -12q-68 0 -123.5 23.5t-95 69t-61 113t-21.5 155.5t21.5 155.5t61 113t95 69t123.5 23.5t123.5 -23.5t95 -69t61 -113t21.5 -155.5t-21.5 -155.5t-61 -113t-95 -69t-123.5 -23.5zM356 89q40 0 73.5 14t57 40.5t36.5 64.5t13 86v110q0 48 -13 86t-36.5 64.5t-57 40.5
t-73.5 14q-41 0 -74 -14t-56.5 -40.5t-36.5 -64.5t-13 -86v-110q0 -48 13 -86t36.5 -64.5t56.5 -40.5t74 -14z" />
    <glyph glyph-name="P" unicode="P" horiz-adv-x="627"
d="M86 0v698h300q97 0 150 -57t53 -153t-53 -153t-150 -57h-187v-278h-113zM199 377h180q43 0 67 22.5t24 64.5v48q0 42 -24 64.5t-67 22.5h-180v-222z" />
    <glyph glyph-name="Q" unicode="Q" horiz-adv-x="712"
d="M523 -173h-99q-59 0 -86.5 30t-27.5 81v53q-59 7 -106 34t-80 72t-51 108.5t-18 143.5q0 88 21.5 155.5t61 113t95 69t123.5 23.5t123.5 -23.5t95 -69t61 -113t21.5 -155.5q0 -156 -65 -246.5t-176 -109.5v-72h107v-94zM356 89q40 0 73.5 14t57 40.5t36.5 64.5t13 86v110
q0 48 -13 86t-36.5 64.5t-57 40.5t-73.5 14q-41 0 -74 -14t-56.5 -40.5t-36.5 -64.5t-13 -86v-110q0 -48 13 -86t36.5 -64.5t56.5 -40.5t74 -14z" />
    <glyph glyph-name="R" unicode="R" horiz-adv-x="655"
d="M199 0h-113v698h301q94 0 148 -56.5t54 -153.5q0 -75 -34.5 -124.5t-101.5 -69.5l151 -294h-126l-140 282h-139v-282zM379 377q43 0 67 22.5t24 64.5v48q0 42 -24 64.5t-67 22.5h-180v-222h180z" />
    <glyph glyph-name="S" unicode="S" horiz-adv-x="598"
d="M295 -12q-88 0 -149.5 32t-105.5 86l78 73q37 -45 81.5 -68t101.5 -23q67 0 101 30t34 81q0 41 -24 65t-85 36l-62 11q-102 19 -153 67t-51 132q0 46 17.5 83.5t49 63t76.5 39.5t101 14q79 0 137 -27.5t99 -79.5l-79 -70q-27 35 -66 56t-97 21q-60 0 -93 -24t-33 -70
q0 -44 27 -65.5t84 -32.5l62 -13q105 -20 153.5 -68t48.5 -132q0 -49 -17 -89t-49.5 -68.5t-79.5 -44t-107 -15.5z" />
    <glyph glyph-name="T" unicode="T" horiz-adv-x="577"
d="M345 598v-598h-113v598h-208v100h529v-100h-208z" />
    <glyph glyph-name="U" unicode="U" horiz-adv-x="686"
d="M193 698v-430q0 -89 34 -134t116 -45t116 45t34 134v430h111v-412q0 -77 -14 -133t-45 -92.5t-80.5 -54.5t-121.5 -18t-121.5 18t-80.5 54.5t-45 92.5t-14 133v412h111z" />
    <glyph glyph-name="V" unicode="V" horiz-adv-x="628"
d="M247 0l-229 698h117l111 -345l67 -243h4l68 243l111 345h114l-232 -698h-131z" />
    <glyph glyph-name="W" unicode="W" horiz-adv-x="926"
d="M189 0l-165 698h115l71 -336l49 -232h3l56 232l83 336h126l82 -336l55 -231h3l51 231l73 336h111l-172 -698h-127l-89 361l-52 212h-2l-53 -212l-91 -361h-127z" />
    <glyph glyph-name="X" unicode="X" horiz-adv-x="639"
d="M618 0h-133l-169 278h-3l-167 -278h-125l226 357l-218 341h133l159 -260h2l161 260h125l-220 -340z" />
    <glyph glyph-name="Y" unicode="Y" horiz-adv-x="617"
d="M251 0v275l-240 423h129l170 -311h3l169 311h124l-242 -421v-277h-113z" />
    <glyph glyph-name="Z" unicode="Z" horiz-adv-x="591"
d="M554 0h-517v101l379 497h-359v100h486v-101l-379 -497h390v-100z" />
    <glyph glyph-name="bracketleft" unicode="[" horiz-adv-x="325"
d="M86 -138v898h183v-81h-85v-736h85v-81h-183z" />
    <glyph glyph-name="backslash" unicode="\" horiz-adv-x="417"
d="M316 -151l-277 891h94l277 -891h-94z" />
    <glyph glyph-name="bracketright" unicode="]" horiz-adv-x="325"
d="M239 760v-898h-183v81h85v736h-85v81h183z" />
    <glyph glyph-name="asciicircum" unicode="^"
d="M467 288l-167 299h-5l-166 -299l-82 43l203 367h100l203 -367z" />
    <glyph glyph-name="underscore" unicode="_" horiz-adv-x="561"
d="M30 -176v94h501v-94h-501z" />
    <glyph glyph-name="grave" unicode="`"
d="M171 749l95 46l91 -180l-68 -33z" />
    <glyph glyph-name="a" unicode="a" horiz-adv-x="549"
d="M459 0q-43 0 -66 24.5t-28 62.5h-5q-15 -49 -55 -74t-97 -25q-81 0 -124.5 42t-43.5 113q0 78 56.5 117t165.5 39h94v44q0 48 -26 74t-81 26q-46 0 -75 -20t-49 -51l-65 59q26 44 73 72.5t123 28.5q101 0 155 -47t54 -135v-261h55v-89h-61zM239 71q51 0 84 22.5t33 60.5
v75h-92q-113 0 -113 -70v-18q0 -35 23.5 -52.5t64.5 -17.5z" />
    <glyph glyph-name="b" unicode="b" horiz-adv-x="592"
d="M78 740h109v-306h5q17 47 55.5 72.5t90.5 25.5q99 0 153 -71.5t54 -200.5t-54 -200.5t-153 -71.5q-52 0 -90.5 26t-55.5 72h-5v-86h-109v740zM305 82q57 0 91 36.5t34 96.5v90q0 60 -34 96.5t-91 36.5q-50 0 -84 -24.5t-34 -64.5v-178q0 -40 34 -64.5t84 -24.5z" />
    <glyph glyph-name="c" unicode="c" horiz-adv-x="510"
d="M279 -12q-56 0 -100 19t-74 54.5t-46 86t-16 112.5t16 112.5t46 86t74 54.5t100 19q78 0 128 -35t73 -93l-90 -42q-11 36 -38.5 57.5t-72.5 21.5q-60 0 -90.5 -37.5t-30.5 -97.5v-93q0 -60 30.5 -97.5t90.5 -37.5q48 0 76.5 23.5t45.5 62.5l83 -44q-26 -64 -78 -98
t-127 -34z" />
    <glyph glyph-name="d" unicode="d" horiz-adv-x="592"
d="M405 86h-5q-17 -46 -55.5 -72t-90.5 -26q-99 0 -153 71.5t-54 200.5t54 200.5t153 71.5q52 0 90.5 -25.5t55.5 -72.5h5v306h109v-740h-109v86zM287 82q50 0 84 24.5t34 64.5v178q0 40 -34 64.5t-84 24.5q-57 0 -91 -36.5t-34 -96.5v-90q0 -60 34 -96.5t91 -36.5z" />
    <glyph glyph-name="e" unicode="e" horiz-adv-x="556"
d="M282 -12q-56 0 -100 19t-75 54.5t-47.5 86t-16.5 112.5t16.5 112.5t47.5 86t75 54.5t100 19q57 0 100.5 -20t72.5 -55.5t43.5 -82.5t14.5 -101v-41h-357v-17q0 -60 35.5 -98.5t101.5 -38.5q48 0 81 21t56 57l64 -63q-29 -48 -84 -76.5t-128 -28.5zM282 447
q-28 0 -51.5 -10t-40 -28t-25.5 -43t-9 -55v-7h242v10q0 60 -31 96.5t-85 36.5z" />
    <glyph glyph-name="f" unicode="f" horiz-adv-x="340"
d="M105 431h-79v89h79v86q0 63 33 98.5t99 35.5h86v-89h-109v-131h109v-89h-109v-431h-109v431z" />
    <glyph glyph-name="g" unicode="g" horiz-adv-x="537"
d="M534 -49q0 -81 -62 -122t-202 -41q-64 0 -108.5 8.5t-73 24.5t-41.5 39t-13 53q0 43 23.5 67t65.5 33v11q-59 19 -59 80q0 40 27 61.5t65 30.5v4q-46 22 -70.5 61.5t-24.5 92.5q0 80 53.5 129t153.5 49q55 0 94 -16v14q0 35 16.5 54.5t51.5 19.5h80v-88h-106v-21
q35 -23 54 -59.5t19 -81.5q0 -79 -54 -127.5t-154 -48.5q-38 0 -68 8q-20 -7 -35 -19.5t-15 -32.5q0 -21 19 -30t54 -9h128q96 0 139 -38.5t43 -105.5zM432 -61q0 27 -20.5 43t-74.5 16h-176q-36 -21 -36 -60q0 -32 25.5 -51.5t86.5 -19.5h68q127 0 127 72zM269 257
q48 0 74.5 21.5t26.5 66.5v20q0 45 -26.5 66.5t-74.5 21.5t-74.5 -21.5t-26.5 -66.5v-20q0 -45 26.5 -66.5t74.5 -21.5z" />
    <glyph glyph-name="h" unicode="h" horiz-adv-x="580"
d="M78 740h109v-306h5q17 42 51.5 70t94.5 28q80 0 124.5 -52.5t44.5 -149.5v-330h-109v317q0 121 -98 121q-21 0 -41.5 -5.5t-36.5 -16.5t-25.5 -28t-9.5 -39v-349h-109v740z" />
    <glyph glyph-name="i" unicode="i" horiz-adv-x="265"
d="M133 613q-34 0 -49.5 16t-15.5 41v17q0 25 15.5 41t49.5 16t49 -16t15 -41v-17q0 -25 -15 -41t-49 -16zM78 520h109v-520h-109v520z" />
    <glyph glyph-name="j" unicode="j" horiz-adv-x="265"
d="M78 520h109v-590q0 -60 -30.5 -95t-96.5 -35h-63v89h81v631zM133 613q-34 0 -49.5 16t-15.5 41v17q0 25 15.5 41t49.5 16t49 -16t15 -41v-17q0 -25 -15 -41t-49 -16z" />
    <glyph glyph-name="k" unicode="k" horiz-adv-x="547"
d="M78 740h109v-454h5l72 93l125 141h127l-182 -201l204 -319h-130l-149 248l-72 -78v-170h-109v740z" />
    <glyph glyph-name="l" unicode="l" horiz-adv-x="285"
d="M189 0q-56 0 -83.5 28.5t-27.5 79.5v632h109v-651h72v-89h-70z" />
    <glyph glyph-name="m" unicode="m" horiz-adv-x="882"
d="M78 0v520h109v-86h5q8 20 19.5 38t28 31.5t39 21t52.5 7.5q53 0 94 -26t60 -80h3q14 44 54 75t103 31q78 0 121 -52.5t43 -149.5v-330h-109v317q0 60 -23 90.5t-73 30.5q-21 0 -40 -5.5t-33.5 -16.5t-23.5 -28t-9 -39v-349h-109v317q0 121 -95 121q-20 0 -39.5 -5.5
t-34.5 -16.5t-24 -28t-9 -39v-349h-109z" />
    <glyph glyph-name="n" unicode="n" horiz-adv-x="580"
d="M78 0v520h109v-86h5q17 42 51.5 70t94.5 28q80 0 124.5 -52.5t44.5 -149.5v-330h-109v316q0 122 -98 122q-21 0 -41.5 -5.5t-36.5 -16.5t-25.5 -28t-9.5 -40v-348h-109z" />
    <glyph glyph-name="o" unicode="o" horiz-adv-x="564"
d="M282 -12q-54 0 -98.5 19t-75.5 54.5t-48 86t-17 112.5t17 112.5t48 86t75.5 54.5t98.5 19t98.5 -19t75.5 -54.5t48 -86t17 -112.5t-17 -112.5t-48 -86t-75.5 -54.5t-98.5 -19zM282 78q56 0 90 34.5t34 103.5v88q0 69 -34 103.5t-90 34.5t-90 -34.5t-34 -103.5v-88
q0 -69 34 -103.5t90 -34.5z" />
    <glyph glyph-name="p" unicode="p" horiz-adv-x="592"
d="M78 520h109v-86h5q17 47 55.5 72.5t90.5 25.5q99 0 153 -71.5t54 -200.5t-54 -200.5t-153 -71.5q-52 0 -90.5 26t-55.5 72h-5v-286h-109v720zM305 82q57 0 91 36.5t34 96.5v90q0 60 -34 96.5t-91 36.5q-50 0 -84 -24.5t-34 -64.5v-178q0 -40 34 -64.5t84 -24.5z" />
    <glyph glyph-name="q" unicode="q" horiz-adv-x="592"
d="M405 86h-5q-17 -46 -55.5 -72t-90.5 -26q-99 0 -153 71.5t-54 200.5t54 200.5t153 71.5q52 0 90.5 -25.5t55.5 -72.5h5v86h109v-720h-109v286zM287 82q50 0 84 24.5t34 64.5v178q0 40 -34 64.5t-84 24.5q-57 0 -91 -36.5t-34 -96.5v-90q0 -60 34 -96.5t91 -36.5z" />
    <glyph glyph-name="r" unicode="r" horiz-adv-x="383"
d="M78 0v520h109v-100h5q11 40 46 70t97 30h29v-105h-43q-65 0 -99.5 -21t-34.5 -62v-332h-109z" />
    <glyph glyph-name="s" unicode="s" horiz-adv-x="494"
d="M243 -12q-74 0 -124 26t-87 72l70 64q29 -35 64.5 -54.5t82.5 -19.5q48 0 71.5 18.5t23.5 51.5q0 25 -16.5 42.5t-57.5 22.5l-48 6q-80 10 -125.5 46.5t-45.5 108.5q0 38 14 67.5t39.5 50t61 31.5t78.5 11q70 0 114.5 -22t79.5 -61l-67 -64q-20 24 -52.5 41.5t-74.5 17.5
q-45 0 -66.5 -18t-21.5 -47q0 -30 19 -45t61 -22l48 -6q86 -13 125.5 -50.5t39.5 -100.5q0 -38 -14.5 -68.5t-41.5 -52.5t-65 -34t-85 -12z" />
    <glyph glyph-name="t" unicode="t" horiz-adv-x="365"
d="M222 0q-57 0 -86 29.5t-29 83.5v318h-81v89h44q27 0 37.5 12t10.5 39v91h98v-142h109v-89h-109v-342h101v-89h-95z" />
    <glyph glyph-name="u" unicode="u" horiz-adv-x="580"
d="M393 86h-4q-7 -19 -18.5 -37t-29 -31.5t-42 -21.5t-56.5 -8q-81 0 -125.5 52t-44.5 149v331h109v-317q0 -121 100 -121q21 0 41 5.5t35.5 16.5t25 28t9.5 40v348h109v-520h-109v86z" />
    <glyph glyph-name="v" unicode="v" horiz-adv-x="512"
d="M191 0l-177 520h108l79 -237l53 -182h6l53 182l81 237h104l-179 -520h-128z" />
    <glyph glyph-name="w" unicode="w" horiz-adv-x="799"
d="M26 520h106l53 -218l47 -197h3l54 197l63 218h98l64 -218l55 -197h3l46 197l54 218h101l-140 -520h-123l-68 237l-42 146h-2l-41 -146l-69 -237h-120z" />
    <glyph glyph-name="x" unicode="x" horiz-adv-x="530"
d="M20 0l183 263l-178 257h126l117 -181h3l120 181h116l-178 -256l181 -264h-126l-120 189h-3l-125 -189h-116z" />
    <glyph glyph-name="y" unicode="y" horiz-adv-x="514"
d="M397 520h105l-219 -623q-9 -26 -20.5 -44.5t-27 -30t-37.5 -17t-52 -5.5h-63v89h88l30 88l-189 543h109l104 -306l30 -113h5l33 113z" />
    <glyph glyph-name="z" unicode="z" horiz-adv-x="487"
d="M36 0v88l279 343h-270v89h399v-84l-283 -347h290v-89h-415z" />
    <glyph glyph-name="braceleft" unicode="{" horiz-adv-x="354"
d="M204 -138q-40 0 -63.5 24.5t-23.5 65.5v224q0 44 -27.5 66.5t-69.5 22.5v93q42 0 69.5 22.5t27.5 65.5v224q0 41 23.5 65.5t63.5 24.5h94v-81h-83v-235q0 -24 -7.5 -45t-21 -38.5t-31.5 -29t-39 -15.5v-10q21 -4 39 -15.5t31.5 -29t21 -38.5t7.5 -45v-235h83v-81h-94z
" />
    <glyph glyph-name="bar" unicode="|" horiz-adv-x="353"
d="M130 -138v898h93v-898h-93z" />
    <glyph glyph-name="braceright" unicode="}" horiz-adv-x="356"
d="M150 760q40 0 64.5 -24.5t24.5 -65.5v-224q0 -43 27.5 -65.5t69.5 -22.5v-93q-42 0 -69.5 -22.5t-27.5 -66.5v-224q0 -41 -24.5 -65.5t-64.5 -24.5h-94v81h85v235q0 24 7.5 45t20.5 38.5t31 29t40 15.5v10q-22 4 -40 15.5t-31 29t-20.5 38.5t-7.5 45v235h-85v81h94z" />
    <glyph glyph-name="asciitilde" unicode="~"
d="M418 226q-37 0 -65.5 9.5t-62.5 26.5q-28 14 -54.5 24t-57.5 10q-23 0 -40.5 -7t-40.5 -23l-39 61q19 26 48 42t76 16q37 0 65.5 -9.5t62.5 -26.5q28 -14 54.5 -24t57.5 -10q23 0 40.5 7t40.5 23l39 -61q-19 -26 -48 -42t-76 -16z" />
    <glyph glyph-name="uni00A0" unicode="&#xa0;" horiz-adv-x="236"
 />
    <glyph glyph-name="exclamdown" unicode="&#xa1;" horiz-adv-x="298"
d="M91 -178v199l33 299h50l35 -299v-199h-118zM149 383q-38 0 -55.5 18.5t-17.5 47.5v17q0 29 17.5 47.5t55.5 18.5t55.5 -18.5t17.5 -47.5v-17q0 -29 -17.5 -47.5t-55.5 -18.5z" />
    <glyph glyph-name="cent" unicode="&#xa2;" horiz-adv-x="529"
d="M235 -114v106q-91 15 -141 85t-50 181q0 112 50 182t141 84v106h87v-104q62 -8 102 -40t61 -80l-82 -45q-12 29 -33.5 49t-52.5 27v-358q33 6 57.5 27t39.5 53l78 -48q-22 -49 -64.5 -81.5t-105.5 -39.5v-104h-87zM153 215q0 -50 21.5 -86t65.5 -48v354
q-43 -12 -65 -47.5t-22 -86.5v-86z" />
    <glyph glyph-name="sterling" unicode="&#xa3;" horiz-adv-x="589"
d="M75 0v115q41 18 59 53.5t18 77.5q0 11 -1 21.5t-3 20.5h-99v91h68q-9 29 -17 58.5t-8 64.5q0 46 16.5 84.5t47.5 66t75 42.5t100 15q78 0 132.5 -30t90.5 -87l-83 -59q-26 38 -59.5 58t-80.5 20q-59 0 -91.5 -31.5t-32.5 -93.5q0 -31 7 -56.5t15 -51.5h208v-91h-178
q3 -17 3 -35q0 -55 -23.5 -93.5t-52.5 -55.5v-6h351v-98h-462z" />
    <glyph glyph-name="currency" unicode="&#xa4;" horiz-adv-x="620"
d="M310 114q-41 0 -75.5 10t-60.5 28l-97 -97l-62 61l99 99q-32 56 -32 134t32 134l-99 99l62 61l97 -97q26 18 60.5 28t75.5 10t75.5 -10t60.5 -28l97 97l62 -61l-99 -99q32 -56 32 -134t-32 -134l99 -99l-62 -61l-97 97q-26 -18 -60.5 -28t-75.5 -10zM310 198
q54 0 85 30.5t31 90.5v60q0 60 -31 90.5t-85 30.5t-85 -30.5t-31 -90.5v-60q0 -60 31 -90.5t85 -30.5z" />
    <glyph glyph-name="yen" unicode="&#xa5;" horiz-adv-x="622"
d="M368 140v-140h-113v140h-172v77h172v84h-172v77h125l-180 320h128l159 -298h4l154 298h122l-179 -320h124v-77h-172v-84h172v-77h-172z" />
    <glyph glyph-name="brokenbar" unicode="&#xa6;" horiz-adv-x="353"
d="M130 404v356h93v-356h-93zM130 -138v356h93v-356h-93z" />
    <glyph glyph-name="section" unicode="&#xa7;" horiz-adv-x="577"
d="M480 8q0 -39 -15 -69.5t-42.5 -52t-65.5 -33t-84 -11.5q-48 0 -95 14.5t-85 48.5l57 70q25 -23 56 -35.5t69 -12.5q49 0 77.5 20.5t28.5 56.5q0 34 -24.5 53t-71.5 33l-69 20q-83 23 -117.5 63.5t-34.5 87.5q0 46 27 82t81 59v11q-34 23 -54.5 56t-20.5 78q0 38 15 68.5
t42 51.5t64.5 32t83.5 11q49 0 96 -14t86 -49l-58 -69q-25 22 -55.5 35t-70.5 13q-48 0 -77 -19.5t-29 -56.5q0 -33 24.5 -52t72.5 -33l69 -19q83 -24 118 -64t35 -88q0 -46 -27.5 -82.5t-81.5 -58.5v-10q35 -23 55.5 -56.5t20.5 -78.5zM415 263q0 35 -23 59.5t-78 39.5
l-68 19q-8 2 -16 4.5t-16 5.5q-25 -20 -39 -44.5t-14 -54.5q0 -35 23 -59t78 -40l68 -18q15 -4 32 -11q25 20 39 44.5t14 54.5z" />
    <glyph glyph-name="dieresis" unicode="&#xa8;"
d="M200 610q-34 0 -48 15t-14 38v18q0 23 14 38t48 15t48 -15t14 -38v-18q0 -23 -14 -38t-48 -15zM400 610q-34 0 -48 15t-14 38v18q0 23 14 38t48 15t48 -15t14 -38v-18q0 -23 -14 -38t-48 -15z" />
    <glyph glyph-name="copyright" unicode="&#xa9;" horiz-adv-x="782"
d="M391 -11q-72 0 -134.5 25t-108 71.5t-71.5 113.5t-26 150t26 150t71.5 113.5t108 71.5t134.5 25t134.5 -25t108 -71.5t71.5 -113.5t26 -150t-26 -150t-71.5 -113.5t-108 -71.5t-134.5 -25zM391 50q59 0 108.5 20.5t85 56t55.5 84.5t20 106v64q0 57 -20 106t-55.5 84.5
t-85 56t-108.5 20.5t-108.5 -20.5t-85 -56t-55.5 -84.5t-20 -106v-64q0 -57 20 -106t55.5 -84.5t85 -56t108.5 -20.5zM399 146q-87 0 -135 55t-48 148t48 148t135 55q60 0 97 -27t56 -71l-75 -39q-11 26 -29 41.5t-49 15.5q-39 0 -60 -24.5t-21 -63.5v-71q0 -39 21 -63.5
t60 -24.5q32 0 52 16.5t34 42.5l74 -39q-19 -42 -57.5 -70.5t-102.5 -28.5z" />
    <glyph glyph-name="ordfeminine" unicode="&#xaa;" horiz-adv-x="420"
d="M379 342h-45q-27 0 -46 13.5t-21 44.5h-4q-11 -28 -38 -46t-71 -18q-52 0 -81.5 27.5t-29.5 75.5q0 55 39 81t114 26h65v23q0 73 -70 73q-33 0 -55 -14t-34 -35l-48 41q16 28 51.5 49t92.5 21q66 0 104.5 -33.5t38.5 -97.5v-166h38v-65zM196 496q-74 0 -74 -45v-12
q0 -23 15 -33.5t42 -10.5q33 0 57.5 15t24.5 44v42h-65z" />
    <glyph glyph-name="guillemotleft" unicode="&#xab;" horiz-adv-x="532"
d="M226 67l-189 163v98l189 163l32 -70l-129 -142l129 -142zM449 67l-189 163v98l189 163l32 -70l-129 -142l129 -142z" />
    <glyph glyph-name="logicalnot" unicode="&#xac;"
d="M442 78v183h-397v89h488v-272h-91z" />
    <glyph glyph-name="uni00AD" unicode="&#xad;" horiz-adv-x="401"
d="M62 249v111h277v-111h-277z" />
    <glyph glyph-name="registered" unicode="&#xae;" horiz-adv-x="472"
d="M236 298q-42 0 -78.5 15.5t-63.5 43.5t-42.5 65.5t-15.5 81.5t15.5 81.5t42.5 65.5t63.5 43.5t78.5 15.5t78.5 -15.5t63.5 -43.5t42.5 -65.5t15.5 -81.5t-15.5 -81.5t-42.5 -65.5t-63.5 -43.5t-78.5 -15.5zM236 341q33 0 61 11.5t48.5 32t32 47.5t11.5 59v26
q0 31 -11.5 58.5t-32 48t-48.5 32t-61 11.5t-61 -11.5t-48.5 -32t-32 -48t-11.5 -58.5v-26q0 -32 11.5 -59t32 -47.5t48.5 -32t61 -11.5zM206 398h-51v209h95q35 0 53 -18.5t18 -47.5q0 -25 -10.5 -40.5t-27.5 -22.5l47 -80h-56l-39 72h-29v-72zM244 508q25 0 25 22v15
q0 22 -25 22h-38v-59h38z" />
    <glyph glyph-name="macron" unicode="&#xaf;"
d="M154 714h292v-83h-292v83z" />
    <glyph glyph-name="degree" unicode="&#xb0;" horiz-adv-x="470"
d="M235 352q-38 0 -70 13.5t-55.5 37.5t-37 57t-13.5 71t13.5 71t37 57t55.5 37.5t70 13.5q37 0 69.5 -13.5t56 -37.5t37 -57t13.5 -71t-13.5 -71t-37 -57t-56 -37.5t-69.5 -13.5zM235 430q43 0 67.5 29t24.5 72t-24.5 72t-67.5 29t-67.5 -29t-24.5 -72t24.5 -72t67.5 -29z
" />
    <glyph glyph-name="plusminus" unicode="&#xb1;"
d="M251 167v184h-184v89h184v185h98v-185h184v-89h-184v-184h-98zM67 0v89h466v-89h-466z" />
    <glyph glyph-name="twosuperior" unicode="&#xb2;" horiz-adv-x="346"
d="M315 329h-279v70l121 96q33 26 48.5 46t15.5 45v4q0 24 -15.5 36t-40.5 12q-30 0 -45 -15t-23 -38l-69 26q14 38 48 65.5t96 27.5q64 0 99 -31t35 -80q0 -23 -8 -43t-22 -37t-33 -32.5t-40 -30.5l-81 -57h193v-64z" />
    <glyph glyph-name="threesuperior" unicode="&#xb3;" horiz-adv-x="345"
d="M153 551q33 0 49 12t16 29v4q0 20 -15.5 33t-41.5 13t-46.5 -12t-35.5 -33l-51 45q21 28 53 45t83 17q63 0 100.5 -26.5t37.5 -71.5q0 -35 -22.5 -56.5t-54.5 -26.5v-3q35 -6 59 -28t24 -60q0 -50 -40.5 -79.5t-108.5 -29.5q-59 0 -92 21t-52 49l59 44q14 -23 33.5 -37.5
t51.5 -14.5t49 14t17 38v5q0 23 -19 34t-52 11h-39v64h38z" />
    <glyph glyph-name="acute" unicode="&#xb4;"
d="M311 582l-68 33l91 180l95 -46z" />
    <glyph glyph-name="mu" unicode="&#xb5;" horiz-adv-x="585"
d="M78 -200v720h109v-317q0 -121 100 -121q21 0 41 5.5t35.5 16.5t25 28t9.5 40v348h109v-520h-109v86h-4q-7 -19 -18 -37t-27 -31.5t-37.5 -21.5t-48.5 -8q-65 0 -88 48h-4l16 -107v-129h-109z" />
    <glyph glyph-name="paragraph" unicode="&#xb6;" horiz-adv-x="663"
d="M244 282q-42 0 -78.5 16.5t-64 45t-43 66t-15.5 80.5t15.5 80.5t43 66t64 45t78.5 16.5h349v-84h-66v-763h-89v763h-105v-763h-89v431z" />
    <glyph glyph-name="periodcentered" unicode="&#xb7;" horiz-adv-x="356"
d="M178 224q-42 0 -61 19.5t-19 48.5v24q0 29 19 48.5t61 19.5t61 -19.5t19 -48.5v-24q0 -29 -19 -48.5t-61 -19.5z" />
    <glyph glyph-name="cedilla" unicode="&#xb8;"
d="M313 -209q-46 0 -72.5 14t-37.5 28l42 48q9 -12 24.5 -20.5t38.5 -8.5q19 0 31.5 7t12.5 22q0 12 -14 23.5t-57 16.5l-25 3l20 100h57l-17 -82l4 -4q11 3 21.5 5t21.5 2q29 0 49.5 -16.5t20.5 -51.5q0 -23 -10 -39t-26.5 -26.5t-38 -15.5t-45.5 -5z" />
    <glyph glyph-name="onesuperior" unicode="&#xb9;" horiz-adv-x="353"
d="M53 329v62h102v244h-6l-77 -87l-50 42l95 108h117v-307h91v-62h-272z" />
    <glyph glyph-name="ordmasculine" unicode="&#xba;" horiz-adv-x="414"
d="M207 336q-78 0 -121.5 49t-43.5 135t43.5 135t121.5 49t121.5 -49t43.5 -135t-43.5 -135t-121.5 -49zM207 399q39 0 60 23t21 66v64q0 43 -21 66t-60 23t-60 -23t-21 -66v-64q0 -43 21 -66t60 -23z" />
    <glyph glyph-name="guillemotright" unicode="&#xbb;" horiz-adv-x="532"
d="M51 137l129 142l-129 142l32 70l189 -163v-98l-189 -163zM274 137l129 142l-129 142l32 70l189 -163v-98l-189 -163z" />
    <glyph glyph-name="onequarter" unicode="&#xbc;" horiz-adv-x="847"
d="M53 329v62h102v244h-6l-77 -87l-50 42l95 108h117v-307h91v-62h-272zM147 0l505 698h88l-504 -698h-89zM699 0v71h-179v66l157 232h98v-238h52v-60h-52v-71h-76zM699 289h-5l-109 -158h114v158z" />
    <glyph glyph-name="onehalf" unicode="&#xbd;" horiz-adv-x="850"
d="M53 329v62h102v244h-6l-77 -87l-50 42l95 108h117v-307h91v-62h-272zM132 0l505 698h88l-504 -698h-89zM819 0h-279v70l121 96q33 26 48.5 46.5t15.5 44.5v4q0 24 -15.5 36t-40.5 12q-30 0 -45 -15t-23 -38l-69 26q14 38 48 65.5t96 27.5q64 0 99 -31t35 -80
q0 -23 -8 -43t-22 -37t-33 -32.5t-40 -30.5l-81 -57h193v-64z" />
    <glyph glyph-name="threequarters" unicode="&#xbe;" horiz-adv-x="829"
d="M153 551q33 0 49 12t16 29v4q0 20 -15.5 33t-41.5 13t-46.5 -12t-35.5 -33l-51 45q21 28 53 45t83 17q63 0 100.5 -26.5t37.5 -71.5q0 -35 -22.5 -56.5t-54.5 -26.5v-3q35 -6 59 -28t24 -60q0 -50 -40.5 -79.5t-108.5 -29.5q-59 0 -92 21t-52 49l59 44q14 -23 33.5 -37.5
t51.5 -14.5t49 14t17 38v5q0 23 -19 34t-52 11h-39v64h38zM129 0l505 698h88l-504 -698h-89zM681 0v71h-179v66l157 232h98v-238h52v-60h-52v-71h-76zM681 289h-5l-109 -158h114v158z" />
    <glyph glyph-name="questiondown" unicode="&#xbf;" horiz-adv-x="479"
d="M248 -190q-49 0 -89 14t-68 39.5t-43 62t-15 80.5q0 45 15.5 80.5t41 60.5t57.5 40.5t66 21.5v92h104v-159q-81 -4 -124.5 -34.5t-43.5 -90.5v-14q0 -46 28 -71.5t75 -25.5q50 0 80 29t41 74l95 -38q-9 -31 -26.5 -60t-44.5 -51.5t-64 -36t-85 -13.5zM264 383
q-38 0 -55.5 18.5t-17.5 47.5v17q0 29 17.5 47.5t55.5 18.5t55.5 -18.5t17.5 -47.5v-17q0 -29 -17.5 -47.5t-55.5 -18.5z" />
    <glyph glyph-name="Agrave" unicode="&#xc0;" horiz-adv-x="662"
d="M522 0l-63 189h-261l-61 -189h-115l238 698h142l238 -698h-118zM331 594h-5l-101 -308h206zM201 915l95 46l91 -180l-68 -32z" />
    <glyph glyph-name="Aacute" unicode="&#xc1;" horiz-adv-x="662"
d="M522 0l-63 189h-261l-61 -189h-115l238 698h142l238 -698h-118zM331 594h-5l-101 -308h206zM341 749l-68 32l91 180l95 -46z" />
    <glyph glyph-name="Acircumflex" unicode="&#xc2;" horiz-adv-x="662"
d="M522 0l-63 189h-261l-61 -189h-115l238 698h142l238 -698h-118zM331 594h-5l-101 -308h206zM385 944l120 -150l-56 -42l-119 116l-119 -116l-56 42l120 150h110z" />
    <glyph glyph-name="Atilde" unicode="&#xc3;" horiz-adv-x="662"
d="M522 0l-63 189h-261l-61 -189h-115l238 698h142l238 -698h-118zM331 594h-5l-101 -308h206zM404 773q-25 0 -43 8t-35 16q-23 11 -40.5 17t-33.5 6q-17 0 -30 -6.5t-28 -19.5l-41 52q15 23 40.5 40.5t62.5 17.5q25 0 43 -8t35 -16q23 -11 40.5 -17t33.5 -6q17 0 30 6.5
t28 19.5l41 -52q-15 -23 -40.5 -40.5t-62.5 -17.5z" />
    <glyph glyph-name="Adieresis" unicode="&#xc4;" horiz-adv-x="662"
d="M522 0l-63 189h-261l-61 -189h-115l238 698h142l238 -698h-118zM331 594h-5l-101 -308h206zM230 776q-34 0 -48.5 15.5t-14.5 38.5v18q0 23 14.5 38.5t48.5 15.5t48.5 -15.5t14.5 -38.5v-18q0 -23 -14.5 -38.5t-48.5 -15.5zM430 776q-34 0 -48.5 15.5t-14.5 38.5v18
q0 23 14.5 38.5t48.5 15.5t48.5 -15.5t14.5 -38.5v-18q0 -23 -14.5 -38.5t-48.5 -15.5z" />
    <glyph glyph-name="Aring" unicode="&#xc5;" horiz-adv-x="662"
d="M522 0l-63 189h-261l-61 -189h-115l238 698h142l238 -698h-118zM331 594h-5l-101 -308h206zM330 734q-27 0 -51 9.5t-41.5 26.5t-27.5 40.5t-10 50.5t10 50.5t27.5 40.5t41.5 26.5t51 9.5t51 -9.5t41.5 -26.5t27.5 -40.5t10 -50.5t-10 -50.5t-27.5 -40.5t-41.5 -26.5
t-51 -9.5zM330 795q26 0 40.5 14t14.5 39v27q0 25 -14.5 39t-40.5 14t-40.5 -14t-14.5 -39v-27q0 -25 14.5 -39t40.5 -14z" />
    <glyph glyph-name="AE" unicode="&#xc6;" horiz-adv-x="933"
d="M426 188h-218l-92 -188h-114l350 698h521v-100h-334v-194h303v-100h-303v-204h334v-100h-447v188zM409 598l-155 -312h172v312h-17z" />
    <glyph glyph-name="Ccedilla" unicode="&#xc7;" horiz-adv-x="634"
d="M348 609q-81 0 -127 -55t-46 -152v-106q0 -97 46 -152t127 -55q63 0 102.5 32.5t58.5 83.5l91 -55q-34 -73 -93 -115.5t-145 -46.5l-9 -46l3 -4q11 3 21.5 5t21.5 2q29 0 49.5 -16.5t20.5 -51.5q0 -23 -10 -39t-26.5 -26.5t-38 -15.5t-45.5 -5q-45 0 -71.5 14t-38.5 28
l42 48q9 -12 24.5 -20.5t38.5 -8.5q19 0 31.5 7t12.5 22q0 12 -13.5 23.5t-57.5 16.5l-25 3l13 67q-118 14 -184 105t-66 253q0 88 20 155t58 113t92.5 69.5t122.5 23.5q91 0 152.5 -40t96.5 -118l-95 -52q-18 50 -55.5 79.5t-98.5 29.5z" />
    <glyph glyph-name="Egrave" unicode="&#xc8;" horiz-adv-x="593"
d="M86 0v698h447v-100h-334v-194h303v-100h-303v-204h334v-100h-447zM180 915l95 46l91 -180l-68 -32z" />
    <glyph glyph-name="Eacute" unicode="&#xc9;" horiz-adv-x="593"
d="M86 0v698h447v-100h-334v-194h303v-100h-303v-204h334v-100h-447zM320 749l-68 32l91 180l95 -46z" />
    <glyph glyph-name="Ecircumflex" unicode="&#xca;" horiz-adv-x="593"
d="M86 0v698h447v-100h-334v-194h303v-100h-303v-204h334v-100h-447zM364 944l120 -150l-56 -42l-119 116l-119 -116l-56 42l120 150h110z" />
    <glyph glyph-name="Edieresis" unicode="&#xcb;" horiz-adv-x="593"
d="M86 0v698h447v-100h-334v-194h303v-100h-303v-204h334v-100h-447zM209 776q-34 0 -48.5 15.5t-14.5 38.5v18q0 23 14.5 38.5t48.5 15.5t48.5 -15.5t14.5 -38.5v-18q0 -23 -14.5 -38.5t-48.5 -15.5zM409 776q-34 0 -48.5 15.5t-14.5 38.5v18q0 23 14.5 38.5t48.5 15.5
t48.5 -15.5t14.5 -38.5v-18q0 -23 -14.5 -38.5t-48.5 -15.5z" />
    <glyph glyph-name="Igrave" unicode="&#xcc;" horiz-adv-x="416"
d="M56 0v92h95v514h-95v92h304v-92h-96v-514h96v-92h-304zM79 915l95 46l91 -180l-68 -32z" />
    <glyph glyph-name="Iacute" unicode="&#xcd;" horiz-adv-x="416"
d="M56 0v92h95v514h-95v92h304v-92h-96v-514h96v-92h-304zM219 749l-68 32l91 180l95 -46z" />
    <glyph glyph-name="Icircumflex" unicode="&#xce;" horiz-adv-x="416"
d="M56 0v92h95v514h-95v92h304v-92h-96v-514h96v-92h-304zM263 944l120 -150l-56 -42l-119 116l-119 -116l-56 42l120 150h110z" />
    <glyph glyph-name="Idieresis" unicode="&#xcf;" horiz-adv-x="416"
d="M56 0v92h95v514h-95v92h304v-92h-96v-514h96v-92h-304zM108 776q-34 0 -48.5 15.5t-14.5 38.5v18q0 23 14.5 38.5t48.5 15.5t48.5 -15.5t14.5 -38.5v-18q0 -23 -14.5 -38.5t-48.5 -15.5zM308 776q-34 0 -48.5 15.5t-14.5 38.5v18q0 23 14.5 38.5t48.5 15.5t48.5 -15.5
t14.5 -38.5v-18q0 -23 -14.5 -38.5t-48.5 -15.5z" />
    <glyph glyph-name="Eth" unicode="&#xd0;" horiz-adv-x="687"
d="M90 320h-77v86h77v292h247q67 0 121.5 -22t93 -65.5t59.5 -109t21 -152.5t-21 -152.5t-59.5 -109t-93 -65.5t-121.5 -22h-247v320zM337 100q78 0 126 49t48 144v112q0 95 -48 144t-126 49h-134v-192h130v-86h-130v-220h134z" />
    <glyph glyph-name="Ntilde" unicode="&#xd1;" horiz-adv-x="714"
d="M274 386l-77 148h-3v-534h-108v698h126l228 -386l77 -148h3v534h108v-698h-126zM431 773q-25 0 -43 8t-35 16q-23 11 -40.5 17t-33.5 6q-17 0 -30 -6.5t-28 -19.5l-41 52q15 23 40.5 40.5t62.5 17.5q25 0 43 -8t35 -16q23 -11 40.5 -17t33.5 -6q17 0 30 6.5t28 19.5
l41 -52q-15 -23 -40.5 -40.5t-62.5 -17.5z" />
    <glyph glyph-name="Ograve" unicode="&#xd2;" horiz-adv-x="712"
d="M356 -12q-68 0 -123.5 23.5t-95 69t-61 113t-21.5 155.5t21.5 155.5t61 113t95 69t123.5 23.5t123.5 -23.5t95 -69t61 -113t21.5 -155.5t-21.5 -155.5t-61 -113t-95 -69t-123.5 -23.5zM356 89q40 0 73.5 14t57 40.5t36.5 64.5t13 86v110q0 48 -13 86t-36.5 64.5t-57 40.5
t-73.5 14q-41 0 -74 -14t-56.5 -40.5t-36.5 -64.5t-13 -86v-110q0 -48 13 -86t36.5 -64.5t56.5 -40.5t74 -14zM227 915l95 46l91 -180l-68 -32z" />
    <glyph glyph-name="Oacute" unicode="&#xd3;" horiz-adv-x="712"
d="M356 -12q-68 0 -123.5 23.5t-95 69t-61 113t-21.5 155.5t21.5 155.5t61 113t95 69t123.5 23.5t123.5 -23.5t95 -69t61 -113t21.5 -155.5t-21.5 -155.5t-61 -113t-95 -69t-123.5 -23.5zM356 89q40 0 73.5 14t57 40.5t36.5 64.5t13 86v110q0 48 -13 86t-36.5 64.5t-57 40.5
t-73.5 14q-41 0 -74 -14t-56.5 -40.5t-36.5 -64.5t-13 -86v-110q0 -48 13 -86t36.5 -64.5t56.5 -40.5t74 -14zM367 749l-68 32l91 180l95 -46z" />
    <glyph glyph-name="Ocircumflex" unicode="&#xd4;" horiz-adv-x="712"
d="M356 -12q-68 0 -123.5 23.5t-95 69t-61 113t-21.5 155.5t21.5 155.5t61 113t95 69t123.5 23.5t123.5 -23.5t95 -69t61 -113t21.5 -155.5t-21.5 -155.5t-61 -113t-95 -69t-123.5 -23.5zM356 89q40 0 73.5 14t57 40.5t36.5 64.5t13 86v110q0 48 -13 86t-36.5 64.5t-57 40.5
t-73.5 14q-41 0 -74 -14t-56.5 -40.5t-36.5 -64.5t-13 -86v-110q0 -48 13 -86t36.5 -64.5t56.5 -40.5t74 -14zM411 944l120 -150l-56 -42l-119 116l-119 -116l-56 42l120 150h110z" />
    <glyph glyph-name="Otilde" unicode="&#xd5;" horiz-adv-x="712"
d="M356 -12q-68 0 -123.5 23.5t-95 69t-61 113t-21.5 155.5t21.5 155.5t61 113t95 69t123.5 23.5t123.5 -23.5t95 -69t61 -113t21.5 -155.5t-21.5 -155.5t-61 -113t-95 -69t-123.5 -23.5zM356 89q40 0 73.5 14t57 40.5t36.5 64.5t13 86v110q0 48 -13 86t-36.5 64.5t-57 40.5
t-73.5 14q-41 0 -74 -14t-56.5 -40.5t-36.5 -64.5t-13 -86v-110q0 -48 13 -86t36.5 -64.5t56.5 -40.5t74 -14zM430 773q-25 0 -43 8t-35 16q-23 11 -40.5 17t-33.5 6q-17 0 -30 -6.5t-28 -19.5l-41 52q15 23 40.5 40.5t62.5 17.5q25 0 43 -8t35 -16q23 -11 40.5 -17t33.5 -6
q17 0 30 6.5t28 19.5l41 -52q-15 -23 -40.5 -40.5t-62.5 -17.5z" />
    <glyph glyph-name="Odieresis" unicode="&#xd6;" horiz-adv-x="712"
d="M356 -12q-68 0 -123.5 23.5t-95 69t-61 113t-21.5 155.5t21.5 155.5t61 113t95 69t123.5 23.5t123.5 -23.5t95 -69t61 -113t21.5 -155.5t-21.5 -155.5t-61 -113t-95 -69t-123.5 -23.5zM356 89q40 0 73.5 14t57 40.5t36.5 64.5t13 86v110q0 48 -13 86t-36.5 64.5t-57 40.5
t-73.5 14q-41 0 -74 -14t-56.5 -40.5t-36.5 -64.5t-13 -86v-110q0 -48 13 -86t36.5 -64.5t56.5 -40.5t74 -14zM256 776q-34 0 -48.5 15.5t-14.5 38.5v18q0 23 14.5 38.5t48.5 15.5t48.5 -15.5t14.5 -38.5v-18q0 -23 -14.5 -38.5t-48.5 -15.5zM456 776q-34 0 -48.5 15.5
t-14.5 38.5v18q0 23 14.5 38.5t48.5 15.5t48.5 -15.5t14.5 -38.5v-18q0 -23 -14.5 -38.5t-48.5 -15.5z" />
    <glyph glyph-name="multiply" unicode="&#xd7;"
d="M300 238l-150 -155l-64 63l151 156l-151 156l64 63l150 -155l150 155l64 -63l-151 -156l151 -156l-64 -63z" />
    <glyph glyph-name="Oslash" unicode="&#xd8;" horiz-adv-x="712"
d="M356 -12q-95 0 -163 44l-57 -82l-72 47l65 94q-35 45 -54.5 109.5t-19.5 148.5q0 88 21.5 155.5t61 113t95 69t123.5 23.5q95 0 163 -44l57 82l72 -47l-65 -94q35 -45 54.5 -109.5t19.5 -148.5q0 -88 -21.5 -155.5t-61 -113t-95 -69t-123.5 -23.5zM173 292q0 -63 23 -111
l268 399q-45 34 -108 34q-41 0 -75 -14.5t-58 -41.5t-37 -65.5t-13 -86.5v-114zM539 406q0 63 -23 111l-268 -399q45 -34 108 -34q41 0 75 14.5t58 41.5t37 65.5t13 86.5v114z" />
    <glyph glyph-name="Ugrave" unicode="&#xd9;" horiz-adv-x="686"
d="M193 698v-430q0 -89 34 -134t116 -45t116 45t34 134v430h111v-412q0 -77 -14 -133t-45 -92.5t-80.5 -54.5t-121.5 -18t-121.5 18t-80.5 54.5t-45 92.5t-14 133v412h111zM214 915l95 46l91 -180l-68 -32z" />
    <glyph glyph-name="Uacute" unicode="&#xda;" horiz-adv-x="686"
d="M193 698v-430q0 -89 34 -134t116 -45t116 45t34 134v430h111v-412q0 -77 -14 -133t-45 -92.5t-80.5 -54.5t-121.5 -18t-121.5 18t-80.5 54.5t-45 92.5t-14 133v412h111zM354 749l-68 32l91 180l95 -46z" />
    <glyph glyph-name="Ucircumflex" unicode="&#xdb;" horiz-adv-x="686"
d="M193 698v-430q0 -89 34 -134t116 -45t116 45t34 134v430h111v-412q0 -77 -14 -133t-45 -92.5t-80.5 -54.5t-121.5 -18t-121.5 18t-80.5 54.5t-45 92.5t-14 133v412h111zM398 944l120 -150l-56 -42l-119 116l-119 -116l-56 42l120 150h110z" />
    <glyph glyph-name="Udieresis" unicode="&#xdc;" horiz-adv-x="686"
d="M193 698v-430q0 -89 34 -134t116 -45t116 45t34 134v430h111v-412q0 -77 -14 -133t-45 -92.5t-80.5 -54.5t-121.5 -18t-121.5 18t-80.5 54.5t-45 92.5t-14 133v412h111zM243 776q-34 0 -48.5 15.5t-14.5 38.5v18q0 23 14.5 38.5t48.5 15.5t48.5 -15.5t14.5 -38.5v-18
q0 -23 -14.5 -38.5t-48.5 -15.5zM443 776q-34 0 -48.5 15.5t-14.5 38.5v18q0 23 14.5 38.5t48.5 15.5t48.5 -15.5t14.5 -38.5v-18q0 -23 -14.5 -38.5t-48.5 -15.5z" />
    <glyph glyph-name="Yacute" unicode="&#xdd;" horiz-adv-x="617"
d="M251 0v275l-240 423h129l170 -311h3l169 311h124l-242 -421v-277h-113zM320 749l-68 32l91 180l95 -46z" />
    <glyph glyph-name="Thorn" unicode="&#xde;" horiz-adv-x="627"
d="M86 0v698h113v-134h187q48 0 85.5 -15t64 -42.5t40 -66.5t13.5 -86t-13.5 -86t-40 -66.5t-64 -42.5t-85.5 -15h-187v-144h-113zM199 243h180q43 0 67 22.5t24 64.5v48q0 42 -24 64.5t-67 22.5h-180v-222z" />
    <glyph glyph-name="germandbls" unicode="&#xdf;" horiz-adv-x="662"
d="M636 159q0 -40 -13.5 -71.5t-37.5 -53.5t-58.5 -34t-76.5 -12q-62 0 -106.5 20.5t-74.5 59.5l66 64q48 -58 117 -58q38 0 60 18.5t22 53.5q0 29 -15 46.5t-53 27.5l-31 8q-29 8 -53 19.5t-41.5 28.5t-27.5 41.5t-10 57.5q0 65 43.5 103.5t118.5 46.5v4q0 137 -126 137
q-125 0 -125 -137v-529h-109v431h-79v89h79v4q0 106 62 167t171 61q53 0 95.5 -16t72.5 -45t46 -71.5t16 -94.5v-76h-51q-56 0 -84 -15t-28 -51q0 -32 18.5 -46t53.5 -24l30 -9q66 -17 97.5 -51t31.5 -94z" />
    <glyph glyph-name="agrave" unicode="&#xe0;" horiz-adv-x="549"
d="M459 0q-43 0 -66 24.5t-28 62.5h-5q-15 -49 -55 -74t-97 -25q-81 0 -124.5 42t-43.5 113q0 78 56.5 117t165.5 39h94v44q0 48 -26 74t-81 26q-46 0 -75 -20t-49 -51l-65 59q26 44 73 72.5t123 28.5q101 0 155 -47t54 -135v-261h55v-89h-61zM239 71q51 0 84 22.5t33 60.5
v75h-92q-113 0 -113 -70v-18q0 -35 23.5 -52.5t64.5 -17.5zM131 749l95 46l91 -180l-68 -33z" />
    <glyph glyph-name="aacute" unicode="&#xe1;" horiz-adv-x="549"
d="M459 0q-43 0 -66 24.5t-28 62.5h-5q-15 -49 -55 -74t-97 -25q-81 0 -124.5 42t-43.5 113q0 78 56.5 117t165.5 39h94v44q0 48 -26 74t-81 26q-46 0 -75 -20t-49 -51l-65 59q26 44 73 72.5t123 28.5q101 0 155 -47t54 -135v-261h55v-89h-61zM239 71q51 0 84 22.5t33 60.5
v75h-92q-113 0 -113 -70v-18q0 -35 23.5 -52.5t64.5 -17.5zM271 582l-68 33l91 180l95 -46z" />
    <glyph glyph-name="acircumflex" unicode="&#xe2;" horiz-adv-x="549"
d="M459 0q-43 0 -66 24.5t-28 62.5h-5q-15 -49 -55 -74t-97 -25q-81 0 -124.5 42t-43.5 113q0 78 56.5 117t165.5 39h94v44q0 48 -26 74t-81 26q-46 0 -75 -20t-49 -51l-65 59q26 44 73 72.5t123 28.5q101 0 155 -47t54 -135v-261h55v-89h-61zM239 71q51 0 84 22.5t33 60.5
v75h-92q-113 0 -113 -70v-18q0 -35 23.5 -52.5t64.5 -17.5zM315 778l120 -150l-56 -43l-119 117l-119 -117l-56 43l120 150h110z" />
    <glyph glyph-name="atilde" unicode="&#xe3;" horiz-adv-x="549"
d="M459 0q-43 0 -66 24.5t-28 62.5h-5q-15 -49 -55 -74t-97 -25q-81 0 -124.5 42t-43.5 113q0 78 56.5 117t165.5 39h94v44q0 48 -26 74t-81 26q-46 0 -75 -20t-49 -51l-65 59q26 44 73 72.5t123 28.5q101 0 155 -47t54 -135v-261h55v-89h-61zM239 71q51 0 84 22.5t33 60.5
v75h-92q-113 0 -113 -70v-18q0 -35 23.5 -52.5t64.5 -17.5zM334 607q-25 0 -43 8t-35 16q-23 11 -40.5 17.5t-33.5 6.5q-17 0 -30 -7t-28 -20l-41 52q15 23 40.5 40.5t62.5 17.5q25 0 43 -8t35 -16q23 -11 40.5 -17.5t33.5 -6.5q17 0 30 7t28 20l41 -52q-15 -23 -40.5 -40.5
t-62.5 -17.5z" />
    <glyph glyph-name="adieresis" unicode="&#xe4;" horiz-adv-x="549"
d="M459 0q-43 0 -66 24.5t-28 62.5h-5q-15 -49 -55 -74t-97 -25q-81 0 -124.5 42t-43.5 113q0 78 56.5 117t165.5 39h94v44q0 48 -26 74t-81 26q-46 0 -75 -20t-49 -51l-65 59q26 44 73 72.5t123 28.5q101 0 155 -47t54 -135v-261h55v-89h-61zM239 71q51 0 84 22.5t33 60.5
v75h-92q-113 0 -113 -70v-18q0 -35 23.5 -52.5t64.5 -17.5zM160 610q-34 0 -48 15t-14 38v18q0 23 14 38t48 15t48 -15t14 -38v-18q0 -23 -14 -38t-48 -15zM360 610q-34 0 -48 15t-14 38v18q0 23 14 38t48 15t48 -15t14 -38v-18q0 -23 -14 -38t-48 -15z" />
    <glyph glyph-name="aring" unicode="&#xe5;" horiz-adv-x="549"
d="M459 0q-43 0 -66 24.5t-28 62.5h-5q-15 -49 -55 -74t-97 -25q-81 0 -124.5 42t-43.5 113q0 78 56.5 117t165.5 39h94v44q0 48 -26 74t-81 26q-46 0 -75 -20t-49 -51l-65 59q26 44 73 72.5t123 28.5q101 0 155 -47t54 -135v-261h55v-89h-61zM239 71q51 0 84 22.5t33 60.5
v75h-92q-113 0 -113 -70v-18q0 -35 23.5 -52.5t64.5 -17.5zM260 568q-27 0 -51 9.5t-41.5 26.5t-27.5 40.5t-10 50.5t10 50.5t27.5 40.5t41.5 26.5t51 9.5t51 -9.5t41.5 -26.5t27.5 -40.5t10 -50.5t-10 -50.5t-27.5 -40.5t-41.5 -26.5t-51 -9.5zM260 628q55 0 55 53v28
q0 53 -55 53t-55 -53v-28q0 -53 55 -53z" />
    <glyph glyph-name="ae" unicode="&#xe6;" horiz-adv-x="865"
d="M264 232q-113 -2 -113 -71v-18q0 -35 23.5 -53.5t66.5 -18.5q48 0 81.5 22.5t33.5 60.5v78h-92zM707 304v10q0 60 -31 96.5t-85 36.5q-28 0 -51.5 -10t-40 -28t-25.5 -43t-9 -55v-7h242zM604 78q48 0 81.5 21t54.5 56l64 -62q-29 -48 -82.5 -76.5t-122.5 -28.5
q-39 0 -72.5 10t-59 26t-42 35.5t-23.5 38.5h-6q-5 -18 -19.5 -37.5t-37.5 -35.5t-56 -26.5t-75 -10.5q-79 0 -123.5 43t-44.5 112q0 79 58 120t164 41h94v39q0 48 -26 74t-80 26q-48 0 -76.5 -19.5t-48.5 -50.5l-65 58q26 44 73 72.5t123 28.5q36 0 62 -9t44.5 -23
t30 -31.5t19.5 -34.5h6q8 18 24 35.5t38.5 31.5t52 22.5t64.5 8.5q56 0 98 -20t70.5 -55.5t42.5 -82.5t14 -101v-41h-357v-17q0 -60 36.5 -98.5t102.5 -38.5z" />
    <glyph glyph-name="ccedilla" unicode="&#xe7;" horiz-adv-x="510"
d="M279 532q78 0 128 -35t73 -93l-90 -42q-11 36 -38.5 57.5t-72.5 21.5q-60 0 -90.5 -37.5t-30.5 -97.5v-93q0 -60 30.5 -97.5t90.5 -37.5q48 0 76.5 23.5t45.5 62.5l83 -44q-24 -60 -71.5 -93.5t-116.5 -38.5l-9 -46l3 -4q11 3 21.5 5t21.5 2q29 0 49.5 -16.5t20.5 -51.5
q0 -23 -10 -39t-26.5 -26.5t-38 -15.5t-45.5 -5q-45 0 -71.5 14t-38.5 28l42 48q9 -12 24.5 -20.5t38.5 -8.5q19 0 31.5 7t12.5 22q0 12 -14 23.5t-57 16.5l-25 3l13 67q-94 13 -145 84t-51 185q0 62 16 112.5t46 86t74 54.5t100 19z" />
    <glyph glyph-name="egrave" unicode="&#xe8;" horiz-adv-x="556"
d="M282 -12q-56 0 -100 19t-75 54.5t-47.5 86t-16.5 112.5t16.5 112.5t47.5 86t75 54.5t100 19q57 0 100.5 -20t72.5 -55.5t43.5 -82.5t14.5 -101v-41h-357v-17q0 -60 35.5 -98.5t101.5 -38.5q48 0 81 21t56 57l64 -63q-29 -48 -84 -76.5t-128 -28.5zM282 447
q-28 0 -51.5 -10t-40 -28t-25.5 -43t-9 -55v-7h242v10q0 60 -31 96.5t-85 36.5zM155 749l95 46l91 -180l-68 -33z" />
    <glyph glyph-name="eacute" unicode="&#xe9;" horiz-adv-x="556"
d="M282 -12q-56 0 -100 19t-75 54.5t-47.5 86t-16.5 112.5t16.5 112.5t47.5 86t75 54.5t100 19q57 0 100.5 -20t72.5 -55.5t43.5 -82.5t14.5 -101v-41h-357v-17q0 -60 35.5 -98.5t101.5 -38.5q48 0 81 21t56 57l64 -63q-29 -48 -84 -76.5t-128 -28.5zM282 447
q-28 0 -51.5 -10t-40 -28t-25.5 -43t-9 -55v-7h242v10q0 60 -31 96.5t-85 36.5zM295 582l-68 33l91 180l95 -46z" />
    <glyph glyph-name="ecircumflex" unicode="&#xea;" horiz-adv-x="556"
d="M282 -12q-56 0 -100 19t-75 54.5t-47.5 86t-16.5 112.5t16.5 112.5t47.5 86t75 54.5t100 19q57 0 100.5 -20t72.5 -55.5t43.5 -82.5t14.5 -101v-41h-357v-17q0 -60 35.5 -98.5t101.5 -38.5q48 0 81 21t56 57l64 -63q-29 -48 -84 -76.5t-128 -28.5zM282 447
q-28 0 -51.5 -10t-40 -28t-25.5 -43t-9 -55v-7h242v10q0 60 -31 96.5t-85 36.5zM339 778l120 -150l-56 -43l-119 117l-119 -117l-56 43l120 150h110z" />
    <glyph glyph-name="edieresis" unicode="&#xeb;" horiz-adv-x="556"
d="M282 -12q-56 0 -100 19t-75 54.5t-47.5 86t-16.5 112.5t16.5 112.5t47.5 86t75 54.5t100 19q57 0 100.5 -20t72.5 -55.5t43.5 -82.5t14.5 -101v-41h-357v-17q0 -60 35.5 -98.5t101.5 -38.5q48 0 81 21t56 57l64 -63q-29 -48 -84 -76.5t-128 -28.5zM282 447
q-28 0 -51.5 -10t-40 -28t-25.5 -43t-9 -55v-7h242v10q0 60 -31 96.5t-85 36.5zM184 610q-34 0 -48 15t-14 38v18q0 23 14 38t48 15t48 -15t14 -38v-18q0 -23 -14 -38t-48 -15zM384 610q-34 0 -48 15t-14 38v18q0 23 14 38t48 15t48 -15t14 -38v-18q0 -23 -14 -38t-48 -15z
" />
    <glyph glyph-name="igrave" unicode="&#xec;" horiz-adv-x="265"
d="M78 0v520h109v-520h-109zM5 749l95 46l91 -180l-68 -33z" />
    <glyph glyph-name="iacute" unicode="&#xed;" horiz-adv-x="265"
d="M78 0v520h109v-520h-109zM145 582l-68 33l91 180l95 -46z" />
    <glyph glyph-name="icircumflex" unicode="&#xee;" horiz-adv-x="265"
d="M78 0v520h109v-520h-109zM189 778l120 -150l-56 -43l-119 117l-119 -117l-56 43l120 150h110z" />
    <glyph glyph-name="idieresis" unicode="&#xef;" horiz-adv-x="265"
d="M78 0v520h109v-520h-109zM34 610q-34 0 -48 15t-14 38v18q0 23 14 38t48 15t48 -15t14 -38v-18q0 -23 -14 -38t-48 -15zM234 610q-34 0 -48 15t-14 38v18q0 23 14 38t48 15t48 -15t14 -38v-18q0 -23 -14 -38t-48 -15z" />
    <glyph glyph-name="eth" unicode="&#xf0;" horiz-adv-x="574"
d="M443 704l-76 -51q33 -34 62 -74.5t50.5 -88t33.5 -101.5t12 -115q0 -73 -17.5 -126.5t-49 -89t-75.5 -53t-97 -17.5q-57 0 -101.5 18.5t-76 53t-48 82.5t-16.5 107q0 57 15 103.5t43 79.5t68 51.5t89 18.5q52 0 87 -26t54 -72l6 3q-12 53 -44 101.5t-77 91.5l-84 -54
l-39 49l74 49q-34 27 -70 51t-73 45h167q14 -9 29 -19.5t30 -23.5l84 56zM285 75q57 0 91.5 36.5t34.5 102.5v62q0 66 -34.5 102.5t-91.5 36.5t-91.5 -36.5t-34.5 -102.5v-62q0 -66 34.5 -102.5t91.5 -36.5z" />
    <glyph glyph-name="ntilde" unicode="&#xf1;" horiz-adv-x="580"
d="M78 0v520h109v-86h5q17 42 51.5 70t94.5 28q80 0 124.5 -52.5t44.5 -149.5v-330h-109v316q0 122 -98 122q-21 0 -41.5 -5.5t-36.5 -16.5t-25.5 -28t-9.5 -40v-348h-109zM368 607q-25 0 -43 8t-35 16q-23 11 -40.5 17.5t-33.5 6.5q-17 0 -30 -7t-28 -20l-41 52
q15 23 40.5 40.5t62.5 17.5q25 0 43 -8t35 -16q23 -11 40.5 -17.5t33.5 -6.5q17 0 30 7t28 20l41 -52q-15 -23 -40.5 -40.5t-62.5 -17.5z" />
    <glyph glyph-name="ograve" unicode="&#xf2;" horiz-adv-x="564"
d="M282 -12q-54 0 -98.5 19t-75.5 54.5t-48 86t-17 112.5t17 112.5t48 86t75.5 54.5t98.5 19t98.5 -19t75.5 -54.5t48 -86t17 -112.5t-17 -112.5t-48 -86t-75.5 -54.5t-98.5 -19zM282 78q56 0 90 34.5t34 103.5v88q0 69 -34 103.5t-90 34.5t-90 -34.5t-34 -103.5v-88
q0 -69 34 -103.5t90 -34.5zM153 749l95 46l91 -180l-68 -33z" />
    <glyph glyph-name="oacute" unicode="&#xf3;" horiz-adv-x="564"
d="M282 -12q-54 0 -98.5 19t-75.5 54.5t-48 86t-17 112.5t17 112.5t48 86t75.5 54.5t98.5 19t98.5 -19t75.5 -54.5t48 -86t17 -112.5t-17 -112.5t-48 -86t-75.5 -54.5t-98.5 -19zM282 78q56 0 90 34.5t34 103.5v88q0 69 -34 103.5t-90 34.5t-90 -34.5t-34 -103.5v-88
q0 -69 34 -103.5t90 -34.5zM293 582l-68 33l91 180l95 -46z" />
    <glyph glyph-name="ocircumflex" unicode="&#xf4;" horiz-adv-x="564"
d="M282 -12q-54 0 -98.5 19t-75.5 54.5t-48 86t-17 112.5t17 112.5t48 86t75.5 54.5t98.5 19t98.5 -19t75.5 -54.5t48 -86t17 -112.5t-17 -112.5t-48 -86t-75.5 -54.5t-98.5 -19zM282 78q56 0 90 34.5t34 103.5v88q0 69 -34 103.5t-90 34.5t-90 -34.5t-34 -103.5v-88
q0 -69 34 -103.5t90 -34.5zM337 778l120 -150l-56 -43l-119 117l-119 -117l-56 43l120 150h110z" />
    <glyph glyph-name="otilde" unicode="&#xf5;" horiz-adv-x="564"
d="M282 -12q-54 0 -98.5 19t-75.5 54.5t-48 86t-17 112.5t17 112.5t48 86t75.5 54.5t98.5 19t98.5 -19t75.5 -54.5t48 -86t17 -112.5t-17 -112.5t-48 -86t-75.5 -54.5t-98.5 -19zM282 78q56 0 90 34.5t34 103.5v88q0 69 -34 103.5t-90 34.5t-90 -34.5t-34 -103.5v-88
q0 -69 34 -103.5t90 -34.5zM356 607q-25 0 -43 8t-35 16q-23 11 -40.5 17.5t-33.5 6.5q-17 0 -30 -7t-28 -20l-41 52q15 23 40.5 40.5t62.5 17.5q25 0 43 -8t35 -16q23 -11 40.5 -17.5t33.5 -6.5q17 0 30 7t28 20l41 -52q-15 -23 -40.5 -40.5t-62.5 -17.5z" />
    <glyph glyph-name="odieresis" unicode="&#xf6;" horiz-adv-x="564"
d="M282 -12q-54 0 -98.5 19t-75.5 54.5t-48 86t-17 112.5t17 112.5t48 86t75.5 54.5t98.5 19t98.5 -19t75.5 -54.5t48 -86t17 -112.5t-17 -112.5t-48 -86t-75.5 -54.5t-98.5 -19zM282 78q56 0 90 34.5t34 103.5v88q0 69 -34 103.5t-90 34.5t-90 -34.5t-34 -103.5v-88
q0 -69 34 -103.5t90 -34.5zM182 610q-34 0 -48 15t-14 38v18q0 23 14 38t48 15t48 -15t14 -38v-18q0 -23 -14 -38t-48 -15zM382 610q-34 0 -48 15t-14 38v18q0 23 14 38t48 15t48 -15t14 -38v-18q0 -23 -14 -38t-48 -15z" />
    <glyph glyph-name="divide" unicode="&#xf7;"
d="M67 261v89h466v-89h-466zM300 42q-40 0 -56.5 17t-16.5 40v23q0 23 16.5 40t56.5 17t56.5 -17t16.5 -40v-23q0 -23 -16.5 -40t-56.5 -17zM300 431q-40 0 -56.5 17t-16.5 40v23q0 23 16.5 40t56.5 17t56.5 -17t16.5 -40v-23q0 -23 -16.5 -40t-56.5 -17z" />
    <glyph glyph-name="oslash" unicode="&#xf8;" horiz-adv-x="570"
d="M26 1l67 83q-23 35 -35 78.5t-12 97.5q0 62 17 112.5t48 86t75.5 54.5t98.5 19q79 0 138 -42l61 74l60 -45l-68 -84q23 -34 35.5 -78t12.5 -97q0 -62 -17 -112.5t-48 -86t-75.5 -54.5t-98.5 -19q-41 0 -75.5 10.5t-62.5 30.5l-61 -73zM285 75q57 0 91.5 36.5t34.5 106.5
v84q0 27 -6 50l-203 -249q31 -28 83 -28zM159 218q0 -28 6 -50l203 248q-34 29 -83 29q-57 0 -91.5 -36.5t-34.5 -106.5v-84z" />
    <glyph glyph-name="ugrave" unicode="&#xf9;" horiz-adv-x="580"
d="M393 86h-4q-7 -19 -18.5 -37t-29 -31.5t-42 -21.5t-56.5 -8q-81 0 -125.5 52t-44.5 149v331h109v-317q0 -121 100 -121q21 0 41 5.5t35.5 16.5t25 28t9.5 40v348h109v-520h-109v86zM160 749l95 46l91 -180l-68 -33z" />
    <glyph glyph-name="uacute" unicode="&#xfa;" horiz-adv-x="580"
d="M393 86h-4q-7 -19 -18.5 -37t-29 -31.5t-42 -21.5t-56.5 -8q-81 0 -125.5 52t-44.5 149v331h109v-317q0 -121 100 -121q21 0 41 5.5t35.5 16.5t25 28t9.5 40v348h109v-520h-109v86zM300 582l-68 33l91 180l95 -46z" />
    <glyph glyph-name="ucircumflex" unicode="&#xfb;" horiz-adv-x="580"
d="M393 86h-4q-7 -19 -18.5 -37t-29 -31.5t-42 -21.5t-56.5 -8q-81 0 -125.5 52t-44.5 149v331h109v-317q0 -121 100 -121q21 0 41 5.5t35.5 16.5t25 28t9.5 40v348h109v-520h-109v86zM344 778l120 -150l-56 -43l-119 117l-119 -117l-56 43l120 150h110z" />
    <glyph glyph-name="udieresis" unicode="&#xfc;" horiz-adv-x="580"
d="M393 86h-4q-7 -19 -18.5 -37t-29 -31.5t-42 -21.5t-56.5 -8q-81 0 -125.5 52t-44.5 149v331h109v-317q0 -121 100 -121q21 0 41 5.5t35.5 16.5t25 28t9.5 40v348h109v-520h-109v86zM189 610q-34 0 -48 15t-14 38v18q0 23 14 38t48 15t48 -15t14 -38v-18q0 -23 -14 -38
t-48 -15zM389 610q-34 0 -48 15t-14 38v18q0 23 14 38t48 15t48 -15t14 -38v-18q0 -23 -14 -38t-48 -15z" />
    <glyph glyph-name="yacute" unicode="&#xfd;" horiz-adv-x="514"
d="M397 520h105l-219 -623q-9 -26 -20.5 -44.5t-27 -30t-37.5 -17t-52 -5.5h-63v89h88l30 88l-189 543h109l104 -306l30 -113h5l33 113zM271 582l-68 33l91 180l95 -46z" />
    <glyph glyph-name="thorn" unicode="&#xfe;" horiz-adv-x="592"
d="M78 740h109v-306h5q17 47 55.5 72.5t90.5 25.5q99 0 153 -71.5t54 -200.5t-54 -200.5t-153 -71.5q-52 0 -90.5 26t-55.5 72h-5v-286h-109v940zM305 82q57 0 91 36.5t34 96.5v90q0 60 -34 96.5t-91 36.5q-50 0 -84 -24.5t-34 -64.5v-178q0 -40 34 -64.5t84 -24.5z" />
    <glyph glyph-name="ydieresis" unicode="&#xff;" horiz-adv-x="514"
d="M397 520h105l-219 -623q-9 -26 -20.5 -44.5t-27 -30t-37.5 -17t-52 -5.5h-63v89h88l30 88l-189 543h109l104 -306l30 -113h5l33 113zM160 610q-34 0 -48 15t-14 38v18q0 23 14 38t48 15t48 -15t14 -38v-18q0 -23 -14 -38t-48 -15zM360 610q-34 0 -48 15t-14 38v18
q0 23 14 38t48 15t48 -15t14 -38v-18q0 -23 -14 -38t-48 -15z" />
    <glyph glyph-name="Amacron" unicode="&#x100;" horiz-adv-x="662"
d="M522 0l-63 189h-261l-61 -189h-115l238 698h142l238 -698h-118zM331 594h-5l-101 -308h206zM184 881h292v-83h-292v83z" />
    <glyph glyph-name="amacron" unicode="&#x101;" horiz-adv-x="549"
d="M459 0q-43 0 -66 24.5t-28 62.5h-5q-15 -49 -55 -74t-97 -25q-81 0 -124.5 42t-43.5 113q0 78 56.5 117t165.5 39h94v44q0 48 -26 74t-81 26q-46 0 -75 -20t-49 -51l-65 59q26 44 73 72.5t123 28.5q101 0 155 -47t54 -135v-261h55v-89h-61zM239 71q51 0 84 22.5t33 60.5
v75h-92q-113 0 -113 -70v-18q0 -35 23.5 -52.5t64.5 -17.5zM114 714h292v-83h-292v83z" />
    <glyph glyph-name="Abreve" unicode="&#x102;" horiz-adv-x="662"
d="M522 0l-63 189h-261l-61 -189h-115l238 698h142l238 -698h-118zM331 594h-5l-101 -308h206zM329 755q-42 0 -70.5 14t-47.5 35t-31 46.5t-19 48.5l60 31l20 -33q17 -29 35.5 -45.5t52.5 -16.5t52.5 16.5t35.5 45.5l20 33l60 -31q-8 -23 -19.5 -48.5t-30.5 -46.5
t-47.5 -35t-70.5 -14z" />
    <glyph glyph-name="abreve" unicode="&#x103;" horiz-adv-x="549"
d="M459 0q-43 0 -66 24.5t-28 62.5h-5q-15 -49 -55 -74t-97 -25q-81 0 -124.5 42t-43.5 113q0 78 56.5 117t165.5 39h94v44q0 48 -26 74t-81 26q-46 0 -75 -20t-49 -51l-65 59q26 44 73 72.5t123 28.5q101 0 155 -47t54 -135v-261h55v-89h-61zM239 71q51 0 84 22.5t33 60.5
v75h-92q-113 0 -113 -70v-18q0 -35 23.5 -52.5t64.5 -17.5zM259 589q-42 0 -70.5 14t-47.5 35t-30.5 46.5t-19.5 48.5l60 30l21 -33q17 -28 35.5 -44.5t51.5 -16.5t51.5 16.5t35.5 44.5l21 33l60 -30q-8 -23 -19.5 -48.5t-30.5 -46.5t-47.5 -35t-70.5 -14z" />
    <glyph glyph-name="Aogonek" unicode="&#x104;" horiz-adv-x="662"
d="M260 698h142l238 -698q-35 -26 -55.5 -44t-32 -31t-15 -22t-3.5 -18q0 -18 10 -25t24 -7q16 0 28.5 7.5t22.5 18.5l45 -44q-11 -20 -36.5 -32t-65.5 -12q-22 0 -41.5 4.5t-34.5 14t-23.5 24.5t-8.5 37q0 40 31 68.5t78 56.5l-1 4h-40l-63 189h-261l-61 -189h-115z
M331 594h-5l-101 -308h206z" />
    <glyph glyph-name="aogonek" unicode="&#x105;" horiz-adv-x="549"
d="M520 0q-34 -26 -54.5 -44t-32 -31t-15 -22t-3.5 -18q0 -18 10 -25t24 -7q16 0 28.5 7.5t22.5 18.5l45 -44q-11 -20 -36.5 -32t-65.5 -12q-22 0 -41.5 4.5t-34.5 14t-23.5 24.5t-8.5 37q0 40 31 69t79 57l-2 4q-35 5 -54 28t-24 58h-5q-15 -49 -55 -74t-97 -25
q-81 0 -124.5 42t-43.5 113q0 78 56.5 117t165.5 39h94v44q0 48 -26 74t-81 26q-46 0 -75 -20t-49 -51l-65 59q26 44 73 72.5t123 28.5q101 0 155 -47t54 -135v-261h55v-89zM264 229q-113 0 -113 -70v-18q0 -35 23.5 -52.5t64.5 -17.5q51 0 84 22.5t33 60.5v75h-92z" />
    <glyph glyph-name="Cacute" unicode="&#x106;" horiz-adv-x="634"
d="M348 -12q-137 0 -215 92.5t-78 268.5q0 88 20 155t58 113t92.5 69.5t122.5 23.5q91 0 152.5 -40t96.5 -118l-95 -52q-18 50 -55.5 79.5t-98.5 29.5q-81 0 -127 -55t-46 -152v-106q0 -97 46 -152t127 -55q63 0 102.5 32.5t58.5 83.5l91 -55q-35 -76 -98 -119t-154 -43z
M356 749l-68 32l91 180l95 -46z" />
    <glyph glyph-name="cacute" unicode="&#x107;" horiz-adv-x="510"
d="M279 -12q-56 0 -100 19t-74 54.5t-46 86t-16 112.5t16 112.5t46 86t74 54.5t100 19q78 0 128 -35t73 -93l-90 -42q-11 36 -38.5 57.5t-72.5 21.5q-60 0 -90.5 -37.5t-30.5 -97.5v-93q0 -60 30.5 -97.5t90.5 -37.5q48 0 76.5 23.5t45.5 62.5l83 -44q-26 -64 -78 -98
t-127 -34zM288 582l-68 33l91 180l95 -46z" />
    <glyph glyph-name="Ccircumflex" unicode="&#x108;" horiz-adv-x="634"
d="M348 -12q-137 0 -215 92.5t-78 268.5q0 88 20 155t58 113t92.5 69.5t122.5 23.5q91 0 152.5 -40t96.5 -118l-95 -52q-18 50 -55.5 79.5t-98.5 29.5q-81 0 -127 -55t-46 -152v-106q0 -97 46 -152t127 -55q63 0 102.5 32.5t58.5 83.5l91 -55q-35 -76 -98 -119t-154 -43z
M400 944l120 -150l-56 -42l-119 116l-119 -116l-56 42l120 150h110z" />
    <glyph glyph-name="ccircumflex" unicode="&#x109;" horiz-adv-x="510"
d="M279 -12q-56 0 -100 19t-74 54.5t-46 86t-16 112.5t16 112.5t46 86t74 54.5t100 19q78 0 128 -35t73 -93l-90 -42q-11 36 -38.5 57.5t-72.5 21.5q-60 0 -90.5 -37.5t-30.5 -97.5v-93q0 -60 30.5 -97.5t90.5 -37.5q48 0 76.5 23.5t45.5 62.5l83 -44q-26 -64 -78 -98
t-127 -34zM332 778l120 -150l-56 -43l-119 117l-119 -117l-56 43l120 150h110z" />
    <glyph glyph-name="Cdotaccent" unicode="&#x10a;" horiz-adv-x="634"
d="M348 -12q-137 0 -215 92.5t-78 268.5q0 88 20 155t58 113t92.5 69.5t122.5 23.5q91 0 152.5 -40t96.5 -118l-95 -52q-18 50 -55.5 79.5t-98.5 29.5q-81 0 -127 -55t-46 -152v-106q0 -97 46 -152t127 -55q63 0 102.5 32.5t58.5 83.5l91 -55q-35 -76 -98 -119t-154 -43z
M345 768q-38 0 -54 17t-16 43v21q0 26 16 43t54 17t54 -17t16 -43v-21q0 -26 -16 -43t-54 -17z" />
    <glyph glyph-name="cdotaccent" unicode="&#x10b;" horiz-adv-x="510"
d="M279 -12q-56 0 -100 19t-74 54.5t-46 86t-16 112.5t16 112.5t46 86t74 54.5t100 19q78 0 128 -35t73 -93l-90 -42q-11 36 -38.5 57.5t-72.5 21.5q-60 0 -90.5 -37.5t-30.5 -97.5v-93q0 -60 30.5 -97.5t90.5 -37.5q48 0 76.5 23.5t45.5 62.5l83 -44q-26 -64 -78 -98
t-127 -34zM277 605q-36 0 -51.5 16t-15.5 41v18q0 25 15.5 41t51.5 16t51.5 -16t15.5 -41v-18q0 -25 -15.5 -41t-51.5 -16z" />
    <glyph glyph-name="Ccaron" unicode="&#x10c;" horiz-adv-x="634"
d="M348 -12q-137 0 -215 92.5t-78 268.5q0 88 20 155t58 113t92.5 69.5t122.5 23.5q91 0 152.5 -40t96.5 -118l-95 -52q-18 50 -55.5 79.5t-98.5 29.5q-81 0 -127 -55t-46 -152v-106q0 -97 46 -152t127 -55q63 0 102.5 32.5t58.5 83.5l91 -55q-35 -76 -98 -119t-154 -43z
M290 760l-120 150l56 42l119 -116l119 116l56 -42l-120 -150h-110z" />
    <glyph glyph-name="ccaron" unicode="&#x10d;" horiz-adv-x="510"
d="M279 -12q-56 0 -100 19t-74 54.5t-46 86t-16 112.5t16 112.5t46 86t74 54.5t100 19q78 0 128 -35t73 -93l-90 -42q-11 36 -38.5 57.5t-72.5 21.5q-60 0 -90.5 -37.5t-30.5 -97.5v-93q0 -60 30.5 -97.5t90.5 -37.5q48 0 76.5 23.5t45.5 62.5l83 -44q-26 -64 -78 -98
t-127 -34zM222 594l-120 150l56 42l119 -116l119 116l56 -42l-120 -150h-110z" />
    <glyph glyph-name="Dcaron" unicode="&#x10e;" horiz-adv-x="683"
d="M86 698h247q67 0 121.5 -22t93 -65.5t59.5 -109t21 -152.5t-21 -152.5t-59.5 -109t-93 -65.5t-121.5 -22h-247v698zM333 100q78 0 126 49t48 144v112q0 95 -48 144t-126 49h-134v-498h134zM259 760l-120 150l56 42l119 -116l119 116l56 -42l-120 -150h-110z" />
    <glyph glyph-name="dcaron" unicode="&#x10f;" horiz-adv-x="636"
d="M642 542h-72l10 198h120zM405 86h-5q-17 -46 -55.5 -72t-90.5 -26q-99 0 -153 71.5t-54 200.5t54 200.5t153 71.5q52 0 90.5 -25.5t55.5 -72.5h5v306h109v-740h-109v86zM287 82q50 0 84 24.5t34 64.5v178q0 40 -34 64.5t-84 24.5q-57 0 -91 -36.5t-34 -96.5v-90
q0 -60 34 -96.5t91 -36.5z" />
    <glyph glyph-name="Dcroat" unicode="&#x110;" horiz-adv-x="687"
d="M90 320h-77v86h77v292h247q67 0 121.5 -22t93 -65.5t59.5 -109t21 -152.5t-21 -152.5t-59.5 -109t-93 -65.5t-121.5 -22h-247v320zM337 100q78 0 126 49t48 144v112q0 95 -48 144t-126 49h-134v-192h130v-86h-130v-220h134z" />
    <glyph glyph-name="dcroat" unicode="&#x111;" horiz-adv-x="595"
d="M405 86h-5q-17 -46 -55.5 -72t-90.5 -26q-99 0 -153 71.5t-54 200.5t54 200.5t153 71.5q52 0 90.5 -25.5t55.5 -72.5h5v166h-146v79h146v61h109v-61h63v-79h-63v-600h-109v86zM287 82q50 0 84 24.5t34 64.5v178q0 40 -34 64.5t-84 24.5q-57 0 -91 -36.5t-34 -96.5v-90
q0 -60 34 -96.5t91 -36.5z" />
    <glyph glyph-name="Emacron" unicode="&#x112;" horiz-adv-x="593"
d="M86 0v698h447v-100h-334v-194h303v-100h-303v-204h334v-100h-447zM163 881h292v-83h-292v83z" />
    <glyph glyph-name="emacron" unicode="&#x113;" horiz-adv-x="556"
d="M282 -12q-56 0 -100 19t-75 54.5t-47.5 86t-16.5 112.5t16.5 112.5t47.5 86t75 54.5t100 19q57 0 100.5 -20t72.5 -55.5t43.5 -82.5t14.5 -101v-41h-357v-17q0 -60 35.5 -98.5t101.5 -38.5q48 0 81 21t56 57l64 -63q-29 -48 -84 -76.5t-128 -28.5zM282 447
q-28 0 -51.5 -10t-40 -28t-25.5 -43t-9 -55v-7h242v10q0 60 -31 96.5t-85 36.5zM138 714h292v-83h-292v83z" />
    <glyph glyph-name="Ebreve" unicode="&#x114;" horiz-adv-x="593"
d="M86 0v698h447v-100h-334v-194h303v-100h-303v-204h334v-100h-447zM308 755q-42 0 -70.5 14t-47.5 35t-31 46.5t-19 48.5l60 31l20 -33q17 -29 35.5 -45.5t52.5 -16.5t52.5 16.5t35.5 45.5l20 33l60 -31q-8 -23 -19.5 -48.5t-30.5 -46.5t-47.5 -35t-70.5 -14z" />
    <glyph glyph-name="ebreve" unicode="&#x115;" horiz-adv-x="556"
d="M282 -12q-56 0 -100 19t-75 54.5t-47.5 86t-16.5 112.5t16.5 112.5t47.5 86t75 54.5t100 19q57 0 100.5 -20t72.5 -55.5t43.5 -82.5t14.5 -101v-41h-357v-17q0 -60 35.5 -98.5t101.5 -38.5q48 0 81 21t56 57l64 -63q-29 -48 -84 -76.5t-128 -28.5zM282 447
q-28 0 -51.5 -10t-40 -28t-25.5 -43t-9 -55v-7h242v10q0 60 -31 96.5t-85 36.5zM283 589q-42 0 -70.5 14t-47.5 35t-30.5 46.5t-19.5 48.5l60 30l21 -33q17 -28 35.5 -44.5t51.5 -16.5t51.5 16.5t35.5 44.5l21 33l60 -30q-8 -23 -19.5 -48.5t-30.5 -46.5t-47.5 -35
t-70.5 -14z" />
    <glyph glyph-name="Edotaccent" unicode="&#x116;" horiz-adv-x="593"
d="M86 0v698h447v-100h-334v-194h303v-100h-303v-204h334v-100h-447zM309 768q-38 0 -54 17t-16 43v21q0 26 16 43t54 17t54 -17t16 -43v-21q0 -26 -16 -43t-54 -17z" />
    <glyph glyph-name="edotaccent" unicode="&#x117;" horiz-adv-x="556"
d="M282 -12q-56 0 -100 19t-75 54.5t-47.5 86t-16.5 112.5t16.5 112.5t47.5 86t75 54.5t100 19q57 0 100.5 -20t72.5 -55.5t43.5 -82.5t14.5 -101v-41h-357v-17q0 -60 35.5 -98.5t101.5 -38.5q48 0 81 21t56 57l64 -63q-29 -48 -84 -76.5t-128 -28.5zM282 447
q-28 0 -51.5 -10t-40 -28t-25.5 -43t-9 -55v-7h242v10q0 60 -31 96.5t-85 36.5zM284 605q-36 0 -51.5 16t-15.5 41v18q0 25 15.5 41t51.5 16t51.5 -16t15.5 -41v-18q0 -25 -15.5 -41t-51.5 -16z" />
    <glyph glyph-name="Eogonek" unicode="&#x118;" horiz-adv-x="593"
d="M86 698h447v-100h-334v-194h303v-100h-303v-204h334v-100q-34 -26 -54.5 -44t-31.5 -31t-14.5 -22t-3.5 -18q0 -18 10 -25t24 -7q16 0 28.5 7.5t22.5 18.5l45 -44q-11 -20 -36.5 -32t-65.5 -12q-22 0 -41.5 4.5t-34.5 14t-23.5 24.5t-8.5 37q0 40 30.5 69t78.5 55l-1 5
h-371v698z" />
    <glyph glyph-name="eogonek" unicode="&#x119;" horiz-adv-x="555"
d="M347 -209q-21 0 -40.5 4.5t-34 14t-23 24.5t-8.5 37t9 39.5t23.5 32.5t34 27.5t40.5 24.5l-2 4q-14 -5 -29.5 -8t-35.5 -3q-56 0 -100 19t-74.5 54.5t-47 86t-16.5 112.5t16 112t47 85.5t74.5 55t99.5 19.5q58 0 101.5 -20t72.5 -55.5t43.5 -82.5t14.5 -101v-41h-356v-17
q0 -60 35 -98.5t103 -38.5q47 0 81 21t55 56l64 -62q-10 -15 -25 -30t-40 -37q-18 -18 -37 -35.5t-35 -35t-26.5 -35t-10.5 -35.5q0 -17 10 -24.5t24 -7.5q15 0 28 7.5t23 18.5l44 -44q-11 -20 -36 -32t-66 -12zM397 304v10q0 60 -30.5 96.5t-85.5 36.5q-57 0 -91 -38
t-34 -98v-7h241z" />
    <glyph glyph-name="Ecaron" unicode="&#x11a;" horiz-adv-x="593"
d="M86 0v698h447v-100h-334v-194h303v-100h-303v-204h334v-100h-447zM254 760l-120 150l56 42l119 -116l119 116l56 -42l-120 -150h-110z" />
    <glyph glyph-name="ecaron" unicode="&#x11b;" horiz-adv-x="556"
d="M282 -12q-56 0 -100 19t-75 54.5t-47.5 86t-16.5 112.5t16.5 112.5t47.5 86t75 54.5t100 19q57 0 100.5 -20t72.5 -55.5t43.5 -82.5t14.5 -101v-41h-357v-17q0 -60 35.5 -98.5t101.5 -38.5q48 0 81 21t56 57l64 -63q-29 -48 -84 -76.5t-128 -28.5zM282 447
q-28 0 -51.5 -10t-40 -28t-25.5 -43t-9 -55v-7h242v10q0 60 -31 96.5t-85 36.5zM229 594l-120 150l56 42l119 -116l119 116l56 -42l-120 -150h-110z" />
    <glyph glyph-name="Gcircumflex" unicode="&#x11c;" horiz-adv-x="705"
d="M535 106h-4q-11 -51 -59.5 -84.5t-128.5 -33.5q-62 0 -115 23.5t-91.5 69t-60 113t-21.5 155.5q0 87 22 154.5t62 113.5t96 69.5t125 23.5q94 0 159 -41.5t101 -115.5l-92 -54q-20 49 -62 79.5t-106 30.5q-83 0 -133.5 -53t-50.5 -150v-114q0 -97 50.5 -150t133.5 -53
q33 0 63 8.5t52.5 25t36 41t13.5 57.5v54h-144v97h253v-372h-99v106zM412 944l120 -150l-56 -42l-119 116l-119 -116l-56 42l120 150h110z" />
    <glyph glyph-name="gcircumflex" unicode="&#x11d;" horiz-adv-x="543"
d="M325 778l120 -150l-56 -43l-119 117l-119 -117l-56 43l120 150h110zM534 -49q0 -81 -62 -122t-202 -41q-64 0 -108.5 8.5t-73 24.5t-41.5 39t-13 53q0 43 23.5 67t65.5 33v11q-59 19 -59 80q0 41 27.5 62t65.5 30v4q-47 22 -71.5 61.5t-24.5 92.5q0 80 54 129t153 49
q48 0 87 -12h167v-79h-73q28 -36 28 -87q0 -79 -54 -127.5t-154 -48.5q-36 0 -68 8q-20 -7 -35 -19.5t-15 -32.5q0 -21 19 -30t54 -9h128q96 0 139 -38.5t43 -105.5zM269 257q48 0 74.5 21.5t26.5 66.5v20q0 45 -26.5 66.5t-74.5 21.5t-74.5 -21.5t-26.5 -66.5v-20
q0 -45 26.5 -66.5t74.5 -21.5zM432 -61q0 27 -20.5 43t-74.5 16h-176q-36 -21 -36 -60q0 -32 25.5 -51.5t86.5 -19.5h68q127 0 127 72z" />
    <glyph glyph-name="Gbreve" unicode="&#x11e;" horiz-adv-x="705"
d="M535 106h-4q-11 -51 -59.5 -84.5t-128.5 -33.5q-62 0 -115 23.5t-91.5 69t-60 113t-21.5 155.5q0 87 22 154.5t62 113.5t96 69.5t125 23.5q94 0 159 -41.5t101 -115.5l-92 -54q-20 49 -62 79.5t-106 30.5q-83 0 -133.5 -53t-50.5 -150v-114q0 -97 50.5 -150t133.5 -53
q33 0 63 8.5t52.5 25t36 41t13.5 57.5v54h-144v97h253v-372h-99v106zM356 755q-42 0 -70.5 14t-47.5 35t-31 46.5t-19 48.5l60 31l20 -33q17 -29 35.5 -45.5t52.5 -16.5t52.5 16.5t35.5 45.5l20 33l60 -31q-8 -23 -19.5 -48.5t-30.5 -46.5t-47.5 -35t-70.5 -14z" />
    <glyph glyph-name="gbreve" unicode="&#x11f;" horiz-adv-x="543"
d="M269 589q-42 0 -70.5 14t-47.5 35t-30.5 46.5t-19.5 48.5l60 30l21 -33q17 -28 35.5 -44.5t51.5 -16.5t51.5 16.5t35.5 44.5l21 33l60 -30q-8 -23 -19.5 -48.5t-30.5 -46.5t-47.5 -35t-70.5 -14zM534 -49q0 -81 -62 -122t-202 -41q-64 0 -108.5 8.5t-73 24.5t-41.5 39
t-13 53q0 43 23.5 67t65.5 33v11q-59 19 -59 80q0 41 27.5 62t65.5 30v4q-47 22 -71.5 61.5t-24.5 92.5q0 80 54 129t153 49q48 0 87 -12h167v-79h-73q28 -36 28 -87q0 -79 -54 -127.5t-154 -48.5q-36 0 -68 8q-20 -7 -35 -19.5t-15 -32.5q0 -21 19 -30t54 -9h128
q96 0 139 -38.5t43 -105.5zM269 257q48 0 74.5 21.5t26.5 66.5v20q0 45 -26.5 66.5t-74.5 21.5t-74.5 -21.5t-26.5 -66.5v-20q0 -45 26.5 -66.5t74.5 -21.5zM432 -61q0 27 -20.5 43t-74.5 16h-176q-36 -21 -36 -60q0 -32 25.5 -51.5t86.5 -19.5h68q127 0 127 72z" />
    <glyph glyph-name="Gdotaccent" unicode="&#x120;" horiz-adv-x="705"
d="M535 106h-4q-11 -51 -59.5 -84.5t-128.5 -33.5q-62 0 -115 23.5t-91.5 69t-60 113t-21.5 155.5q0 87 22 154.5t62 113.5t96 69.5t125 23.5q94 0 159 -41.5t101 -115.5l-92 -54q-20 49 -62 79.5t-106 30.5q-83 0 -133.5 -53t-50.5 -150v-114q0 -97 50.5 -150t133.5 -53
q33 0 63 8.5t52.5 25t36 41t13.5 57.5v54h-144v97h253v-372h-99v106zM357 768q-38 0 -54 17t-16 43v21q0 26 16 43t54 17t54 -17t16 -43v-21q0 -26 -16 -43t-54 -17z" />
    <glyph glyph-name="gdotaccent" unicode="&#x121;" horiz-adv-x="543"
d="M534 -49q0 -81 -62 -122t-202 -41q-64 0 -108.5 8.5t-73 24.5t-41.5 39t-13 53q0 43 23.5 67t65.5 33v11q-59 19 -59 80q0 41 27.5 62t65.5 30v4q-47 22 -71.5 61.5t-24.5 92.5q0 80 54 129t153 49q48 0 87 -12h167v-79h-73q28 -36 28 -87q0 -79 -54 -127.5t-154 -48.5
q-36 0 -68 8q-20 -7 -35 -19.5t-15 -32.5q0 -21 19 -30t54 -9h128q96 0 139 -38.5t43 -105.5zM269 257q48 0 74.5 21.5t26.5 66.5v20q0 45 -26.5 66.5t-74.5 21.5t-74.5 -21.5t-26.5 -66.5v-20q0 -45 26.5 -66.5t74.5 -21.5zM432 -61q0 27 -20.5 43t-74.5 16h-176
q-36 -21 -36 -60q0 -32 25.5 -51.5t86.5 -19.5h68q127 0 127 72zM270 605q-36 0 -51.5 16t-15.5 41v18q0 25 15.5 41t51.5 16t51.5 -16t15.5 -41v-18q0 -25 -15.5 -41t-51.5 -16z" />
    <glyph glyph-name="Gcommaaccent" unicode="&#x122;" horiz-adv-x="705"
d="M535 106h-4q-11 -51 -59.5 -84.5t-128.5 -33.5q-62 0 -115 23.5t-91.5 69t-60 113t-21.5 155.5q0 87 22 154.5t62 113.5t96 69.5t125 23.5q94 0 159 -41.5t101 -115.5l-92 -54q-20 49 -62 79.5t-106 30.5q-83 0 -133.5 -53t-50.5 -150v-114q0 -97 50.5 -150t133.5 -53
q33 0 63 8.5t52.5 25t36 41t13.5 57.5v54h-144v97h253v-372h-99v106zM348 -56q59 0 59 -53v-12q0 -40 -18.5 -77t-44.5 -60h-69q23 22 35.5 41.5t19.5 45.5q-22 3 -31.5 17.5t-9.5 33.5v11q0 53 59 53z" />
    <glyph glyph-name="gcommaaccent" unicode="&#x123;" horiz-adv-x="543"
d="M534 -49q0 -81 -62 -122t-202 -41q-64 0 -108.5 8.5t-73 24.5t-41.5 39t-13 53q0 43 23.5 67t65.5 33v11q-59 19 -59 80q0 41 27.5 62t65.5 30v4q-47 22 -71.5 61.5t-24.5 92.5q0 80 54 129t153 49q48 0 87 -12h167v-79h-73q28 -36 28 -87q0 -79 -54 -127.5t-154 -48.5
q-36 0 -68 8q-20 -7 -35 -19.5t-15 -32.5q0 -21 19 -30t54 -9h128q96 0 139 -38.5t43 -105.5zM269 257q48 0 74.5 21.5t26.5 66.5v20q0 45 -26.5 66.5t-74.5 21.5t-74.5 -21.5t-26.5 -66.5v-20q0 -45 26.5 -66.5t74.5 -21.5zM432 -61q0 27 -20.5 43t-74.5 16h-176
q-36 -21 -36 -60q0 -32 25.5 -51.5t86.5 -19.5h68q127 0 127 72zM270 587q-29 0 -44 14t-15 39v13q0 40 18.5 76.5t44.5 59.5h69q-23 -21 -35.5 -41t-19.5 -46q22 -3 31.5 -17.5t9.5 -33.5v-11q0 -25 -15 -39t-44 -14z" />
    <glyph glyph-name="Hcircumflex" unicode="&#x124;" horiz-adv-x="714"
d="M515 304h-316v-304h-113v698h113v-294h316v294h113v-698h-113v304zM412 944l120 -150l-56 -42l-119 116l-119 -116l-56 42l120 150h110z" />
    <glyph glyph-name="hcircumflex" unicode="&#x125;" horiz-adv-x="580"
d="M78 740h109v-306h5q17 42 51.5 70t94.5 28q80 0 124.5 -52.5t44.5 -149.5v-330h-109v317q0 121 -98 121q-21 0 -41.5 -5.5t-36.5 -16.5t-25.5 -28t-9.5 -39v-349h-109v740zM190 936l120 -150l-56 -43l-119 117l-119 -117l-56 43l120 150h110z" />
    <glyph glyph-name="Hbar" unicode="&#x126;" horiz-adv-x="722"
d="M519 304h-316v-304h-113v513h-71v85h71v100h113v-100h316v100h113v-100h71v-85h-71v-513h-113v304zM519 404v109h-316v-109h316z" />
    <glyph glyph-name="hbar" unicode="&#x127;" horiz-adv-x="580"
d="M78 0v600h-63v79h63v61h109v-61h146v-79h-146v-166h5q17 42 51.5 70t94.5 28q81 0 125 -52.5t44 -149.5v-330h-109v317q0 121 -98 121q-21 0 -41.5 -5.5t-36.5 -16.5t-25.5 -28t-9.5 -39v-349h-109z" />
    <glyph glyph-name="Itilde" unicode="&#x128;" horiz-adv-x="416"
d="M56 0v92h95v514h-95v92h304v-92h-96v-514h96v-92h-304zM282 773q-25 0 -43 8t-35 16q-23 11 -40.5 17t-33.5 6q-17 0 -30 -6.5t-28 -19.5l-41 52q15 23 40.5 40.5t62.5 17.5q25 0 43 -8t35 -16q23 -11 40.5 -17t33.5 -6q17 0 30 6.5t28 19.5l41 -52q-15 -23 -40.5 -40.5
t-62.5 -17.5z" />
    <glyph glyph-name="itilde" unicode="&#x129;" horiz-adv-x="265"
d="M78 0v520h109v-520h-109zM208 607q-25 0 -43 8t-35 16q-23 11 -40.5 17.5t-33.5 6.5q-17 0 -30 -7t-28 -20l-41 52q15 23 40.5 40.5t62.5 17.5q25 0 43 -8t35 -16q23 -11 40.5 -17.5t33.5 -6.5q17 0 30 7t28 20l41 -52q-15 -23 -40.5 -40.5t-62.5 -17.5z" />
    <glyph glyph-name="Imacron" unicode="&#x12a;" horiz-adv-x="416"
d="M56 0v92h95v514h-95v92h304v-92h-96v-514h96v-92h-304zM62 881h292v-83h-292v83z" />
    <glyph glyph-name="imacron" unicode="&#x12b;" horiz-adv-x="265"
d="M78 0v520h109v-520h-109zM-12 714h292v-83h-292v83z" />
    <glyph glyph-name="Ibreve" unicode="&#x12c;" horiz-adv-x="416"
d="M56 0v92h95v514h-95v92h304v-92h-96v-514h96v-92h-304zM207 755q-42 0 -70.5 14t-47.5 35t-31 46.5t-19 48.5l60 31l20 -33q17 -29 35.5 -45.5t52.5 -16.5t52.5 16.5t35.5 45.5l20 33l60 -31q-8 -23 -19.5 -48.5t-30.5 -46.5t-47.5 -35t-70.5 -14z" />
    <glyph glyph-name="ibreve" unicode="&#x12d;" horiz-adv-x="265"
d="M78 0v520h109v-520h-109zM133 589q-42 0 -70.5 14t-47.5 35t-30.5 46.5t-19.5 48.5l60 30l21 -33q17 -28 35.5 -44.5t51.5 -16.5t51.5 16.5t35.5 44.5l21 33l60 -30q-8 -23 -19.5 -48.5t-30.5 -46.5t-47.5 -35t-70.5 -14z" />
    <glyph glyph-name="Iogonek" unicode="&#x12e;" horiz-adv-x="416"
d="M56 92h95v514h-95v92h304v-92h-96v-514h96v-92q-34 -26 -54.5 -44t-32 -31t-15 -22t-3.5 -18q0 -18 10 -25t24 -7q16 0 28.5 7.5t22.5 18.5l46 -44q-11 -20 -37 -32t-66 -12q-22 0 -41.5 4.5t-34 14t-23 24.5t-8.5 37q0 39 28.5 67t79.5 57l-1 5h-227v92z" />
    <glyph glyph-name="iogonek" unicode="&#x12f;" horiz-adv-x="265"
d="M78 520h109v-520q-34 -26 -54.5 -44t-32 -31t-15 -22t-3.5 -18q0 -18 10 -25t24 -7q16 0 28.5 7.5t22.5 18.5l46 -44q-11 -20 -36.5 -32t-66.5 -12q-22 0 -41.5 4.5t-34 14t-23 24.5t-8.5 37q0 40 31 68.5t78 56.5l-1 4h-33v520zM133 613q-34 0 -49.5 16t-15.5 41v17
q0 25 15.5 41t49.5 16t49 -16t15 -41v-17q0 -25 -15 -41t-49 -16z" />
    <glyph glyph-name="Idotaccent" unicode="&#x130;" horiz-adv-x="416"
d="M56 0v92h95v514h-95v92h304v-92h-96v-514h96v-92h-304zM208 768q-38 0 -54 17t-16 43v21q0 26 16 43t54 17t54 -17t16 -43v-21q0 -26 -16 -43t-54 -17z" />
    <glyph glyph-name="dotlessi" unicode="&#x131;" horiz-adv-x="265"
d="M78 0v520h109v-520h-109z" />
    <glyph glyph-name="IJ" unicode="&#x132;" horiz-adv-x="650"
d="M568 698v-479q0 -54 -17 -96.5t-48.5 -72.5t-76.5 -46t-101 -16q-53 0 -93.5 13.5t-70 37t-48 56.5t-25.5 72l104 23q10 -45 42.5 -73t91.5 -28q57 0 93 29.5t36 94.5v390h-124v95h237zM82 698h113v-400h-113v400z" />
    <glyph glyph-name="ij" unicode="&#x133;" horiz-adv-x="526"
d="M133 613q-34 0 -49.5 16t-15.5 41v17q0 25 15.5 41t49.5 16t49 -16t15 -41v-17q0 -25 -15 -41t-49 -16zM78 520h109v-520h-109v520zM339 520h109v-590q0 -60 -30.5 -95t-96.5 -35h-63v89h81v631zM394 613q-34 0 -49.5 16t-15.5 41v17q0 25 15.5 41t49.5 16t49 -16t15 -41
v-17q0 -25 -15 -41t-49 -16z" />
    <glyph glyph-name="Jcircumflex" unicode="&#x134;" horiz-adv-x="531"
d="M449 698v-508q0 -46 -15 -83t-42.5 -63.5t-67 -41t-87.5 -14.5q-91 0 -143.5 48.5t-66.5 126.5l104 23q9 -45 34.5 -71t71.5 -26q45 0 72 28t27 85v402h-228v94h341zM336 944l120 -150l-56 -42l-119 116l-119 -116l-56 42l120 150h110z" />
    <glyph glyph-name="jcircumflex" unicode="&#x135;" horiz-adv-x="265"
d="M-3 -111h81v631h109v-590q0 -60 -30.5 -95t-96.5 -35h-63v89zM189 778l120 -150l-56 -43l-119 117l-119 -117l-56 43l120 150h110z" />
    <glyph glyph-name="Kcommaaccent" unicode="&#x136;" horiz-adv-x="660"
d="M295 326l-96 -110v-216h-113v698h113v-354h4l100 127l188 227h132l-249 -294l269 -404h-136zM347 -56q59 0 59 -53v-12q0 -40 -18.5 -77t-44.5 -60h-69q23 22 35.5 41.5t19.5 45.5q-22 3 -31.5 17.5t-9.5 33.5v11q0 53 59 53z" />
    <glyph glyph-name="kcommaaccent" unicode="&#x137;" horiz-adv-x="547"
d="M78 740h109v-454h5l72 93l125 141h127l-182 -201l204 -319h-130l-149 248l-72 -78v-170h-109v740zM305 -56q59 0 59 -53v-12q0 -40 -18.5 -77t-44.5 -60h-69q23 22 35.5 41.5t19.5 45.5q-22 3 -31.5 17.5t-9.5 33.5v11q0 53 59 53z" />
    <glyph glyph-name="kgreenlandic" unicode="&#x138;" horiz-adv-x="547"
d="M259 245l-72 -75v-170h-109v520h109v-234h5l75 90l133 144h127l-191 -203l202 -317h-129z" />
    <glyph glyph-name="Lacute" unicode="&#x139;" horiz-adv-x="513"
d="M86 0v698h113v-598h284v-100h-397zM155 749l-68 32l91 180l95 -46z" />
    <glyph glyph-name="lacute" unicode="&#x13a;" horiz-adv-x="285"
d="M189 0q-56 0 -83.5 28.5t-27.5 79.5v632h109v-651h72v-89h-70zM145 782l-68 33l91 180l95 -46z" />
    <glyph glyph-name="Lcommaaccent" unicode="&#x13b;" horiz-adv-x="513"
d="M86 0v698h113v-598h284v-100h-397zM292 -56q59 0 59 -53v-12q0 -40 -18.5 -77t-44.5 -60h-69q23 22 35.5 41.5t19.5 45.5q-22 3 -31.5 17.5t-9.5 33.5v11q0 53 59 53z" />
    <glyph glyph-name="lcommaaccent" unicode="&#x13c;" horiz-adv-x="285"
d="M189 0q-56 0 -83.5 28.5t-27.5 79.5v632h109v-651h72v-89h-70zM168 -56q59 0 59 -53v-12q0 -40 -18.5 -77t-44.5 -60h-69q23 22 35.5 41.5t19.5 45.5q-22 3 -31.5 17.5t-9.5 33.5v11q0 53 59 53z" />
    <glyph glyph-name="Lcaron" unicode="&#x13d;" horiz-adv-x="513"
d="M86 0v698h113v-598h284v-100h-397zM347 542h-72l10 198h120z" />
    <glyph glyph-name="lcaron" unicode="&#x13e;" horiz-adv-x="310"
d="M315 542h-72l10 198h120zM189 0q-56 0 -83.5 28.5t-27.5 79.5v632h109v-651h72v-89h-70z" />
    <glyph glyph-name="Ldot" unicode="&#x13f;" horiz-adv-x="513"
d="M86 0v698h113v-598h284v-100h-397zM398 306q-36 0 -51.5 16t-15.5 41v18q0 25 15.5 41t51.5 16t51.5 -16t15.5 -41v-18q0 -25 -15.5 -41t-51.5 -16z" />
    <glyph glyph-name="ldot" unicode="&#x140;" horiz-adv-x="396"
d="M189 0q-56 0 -83.5 28.5t-27.5 79.5v632h109v-651h72v-89h-70zM330 263q-36 0 -51.5 16t-15.5 41v18q0 25 15.5 41t51.5 16t51.5 -16t15.5 -41v-18q0 -25 -15.5 -41t-51.5 -16z" />
    <glyph glyph-name="Lslash" unicode="&#x141;" horiz-adv-x="522"
d="M487 0h-397v259l-97 -32v87l97 32v352h113v-315l171 57v-89l-171 -56v-195h284v-100z" />
    <glyph glyph-name="lslash" unicode="&#x142;" horiz-adv-x="292"
d="M263 0h-70q-56 0 -83.5 28.5t-27.5 79.5v204l-73 -24v86l73 24v342h109v-306l103 34v-86l-103 -34v-259h72v-89z" />
    <glyph glyph-name="Nacute" unicode="&#x143;" horiz-adv-x="714"
d="M274 386l-77 148h-3v-534h-108v698h126l228 -386l77 -148h3v534h108v-698h-126zM368 749l-68 32l91 180l95 -46z" />
    <glyph glyph-name="nacute" unicode="&#x144;" horiz-adv-x="580"
d="M78 0v520h109v-86h5q17 42 51.5 70t94.5 28q80 0 124.5 -52.5t44.5 -149.5v-330h-109v316q0 122 -98 122q-21 0 -41.5 -5.5t-36.5 -16.5t-25.5 -28t-9.5 -40v-348h-109zM305 582l-68 33l91 180l95 -46z" />
    <glyph glyph-name="Ncommaaccent" unicode="&#x145;" horiz-adv-x="714"
d="M274 386l-77 148h-3v-534h-108v698h126l228 -386l77 -148h3v534h108v-698h-126zM356 -56q59 0 59 -53v-12q0 -40 -18.5 -77t-44.5 -60h-69q23 22 35.5 41.5t19.5 45.5q-22 3 -31.5 17.5t-9.5 33.5v11q0 53 59 53z" />
    <glyph glyph-name="ncommaaccent" unicode="&#x146;" horiz-adv-x="580"
d="M78 0v520h109v-86h5q17 42 51.5 70t94.5 28q80 0 124.5 -52.5t44.5 -149.5v-330h-109v316q0 122 -98 122q-21 0 -41.5 -5.5t-36.5 -16.5t-25.5 -28t-9.5 -40v-348h-109zM292 -56q59 0 59 -53v-12q0 -40 -18.5 -77t-44.5 -60h-69q23 22 35.5 41.5t19.5 45.5
q-22 3 -31.5 17.5t-9.5 33.5v11q0 53 59 53z" />
    <glyph glyph-name="Ncaron" unicode="&#x147;" horiz-adv-x="714"
d="M274 386l-77 148h-3v-534h-108v698h126l228 -386l77 -148h3v534h108v-698h-126zM302 760l-120 150l56 42l119 -116l119 116l56 -42l-120 -150h-110z" />
    <glyph glyph-name="ncaron" unicode="&#x148;" horiz-adv-x="580"
d="M78 0v520h109v-86h5q17 42 51.5 70t94.5 28q80 0 124.5 -52.5t44.5 -149.5v-330h-109v316q0 122 -98 122q-21 0 -41.5 -5.5t-36.5 -16.5t-25.5 -28t-9.5 -40v-348h-109zM239 594l-120 150l56 42l119 -116l119 116l56 -42l-120 -150h-110z" />
    <glyph glyph-name="napostrophe" unicode="&#x149;" horiz-adv-x="844"
d="M145 750q38 0 55 -18t17 -47v-17q0 -24 -7 -49.5t-20 -50.5t-31 -48t-40 -41h-78q32 31 52 61t31 65q-26 5 -38.5 22t-12.5 40v18q0 29 17 47t55 18zM342 0v520h109v-86h5q17 42 51.5 70t94.5 28q80 0 124.5 -52.5t44.5 -149.5v-330h-109v316q0 122 -98 122
q-21 0 -41.5 -5.5t-36.5 -16.5t-25.5 -28t-9.5 -40v-348h-109z" />
    <glyph glyph-name="Eng" unicode="&#x14a;" horiz-adv-x="714"
d="M86 0v698h126l228 -386l77 -148h3v534h108v-765q0 -62 -31 -97.5t-97 -35.5h-65v92h85v108h-18l-228 386l-77 148h-3v-534h-108z" />
    <glyph glyph-name="eng" unicode="&#x14b;" horiz-adv-x="580"
d="M317 -111h81v428q0 121 -98 121q-21 0 -41.5 -5.5t-36.5 -16.5t-25.5 -27.5t-9.5 -39.5v-349h-109v520h109v-86h5q17 42 51.5 70t94.5 28q80 0 124.5 -52.5t44.5 -149.5v-401q0 -60 -30 -94.5t-96 -34.5h-64v89z" />
    <glyph glyph-name="Omacron" unicode="&#x14c;" horiz-adv-x="712"
d="M356 -12q-68 0 -123.5 23.5t-95 69t-61 113t-21.5 155.5t21.5 155.5t61 113t95 69t123.5 23.5t123.5 -23.5t95 -69t61 -113t21.5 -155.5t-21.5 -155.5t-61 -113t-95 -69t-123.5 -23.5zM356 89q40 0 73.5 14t57 40.5t36.5 64.5t13 86v110q0 48 -13 86t-36.5 64.5t-57 40.5
t-73.5 14q-41 0 -74 -14t-56.5 -40.5t-36.5 -64.5t-13 -86v-110q0 -48 13 -86t36.5 -64.5t56.5 -40.5t74 -14zM210 881h292v-83h-292v83z" />
    <glyph glyph-name="omacron" unicode="&#x14d;" horiz-adv-x="564"
d="M282 -12q-54 0 -98.5 19t-75.5 54.5t-48 86t-17 112.5t17 112.5t48 86t75.5 54.5t98.5 19t98.5 -19t75.5 -54.5t48 -86t17 -112.5t-17 -112.5t-48 -86t-75.5 -54.5t-98.5 -19zM282 78q56 0 90 34.5t34 103.5v88q0 69 -34 103.5t-90 34.5t-90 -34.5t-34 -103.5v-88
q0 -69 34 -103.5t90 -34.5zM136 714h292v-83h-292v83z" />
    <glyph glyph-name="Obreve" unicode="&#x14e;" horiz-adv-x="712"
d="M356 -12q-68 0 -123.5 23.5t-95 69t-61 113t-21.5 155.5t21.5 155.5t61 113t95 69t123.5 23.5t123.5 -23.5t95 -69t61 -113t21.5 -155.5t-21.5 -155.5t-61 -113t-95 -69t-123.5 -23.5zM356 89q40 0 73.5 14t57 40.5t36.5 64.5t13 86v110q0 48 -13 86t-36.5 64.5t-57 40.5
t-73.5 14q-41 0 -74 -14t-56.5 -40.5t-36.5 -64.5t-13 -86v-110q0 -48 13 -86t36.5 -64.5t56.5 -40.5t74 -14zM355 755q-42 0 -70.5 14t-47.5 35t-31 46.5t-19 48.5l60 31l20 -33q17 -29 35.5 -45.5t52.5 -16.5t52.5 16.5t35.5 45.5l20 33l60 -31q-8 -23 -19.5 -48.5
t-30.5 -46.5t-47.5 -35t-70.5 -14z" />
    <glyph glyph-name="obreve" unicode="&#x14f;" horiz-adv-x="564"
d="M282 -12q-54 0 -98.5 19t-75.5 54.5t-48 86t-17 112.5t17 112.5t48 86t75.5 54.5t98.5 19t98.5 -19t75.5 -54.5t48 -86t17 -112.5t-17 -112.5t-48 -86t-75.5 -54.5t-98.5 -19zM282 78q56 0 90 34.5t34 103.5v88q0 69 -34 103.5t-90 34.5t-90 -34.5t-34 -103.5v-88
q0 -69 34 -103.5t90 -34.5zM281 589q-42 0 -70.5 14t-47.5 35t-30.5 46.5t-19.5 48.5l60 30l21 -33q17 -28 35.5 -44.5t51.5 -16.5t51.5 16.5t35.5 44.5l21 33l60 -30q-8 -23 -19.5 -48.5t-30.5 -46.5t-47.5 -35t-70.5 -14z" />
    <glyph glyph-name="Ohungarumlaut" unicode="&#x150;" horiz-adv-x="712"
d="M356 -12q-68 0 -123.5 23.5t-95 69t-61 113t-21.5 155.5t21.5 155.5t61 113t95 69t123.5 23.5t123.5 -23.5t95 -69t61 -113t21.5 -155.5t-21.5 -155.5t-61 -113t-95 -69t-123.5 -23.5zM356 89q40 0 73.5 14t57 40.5t36.5 64.5t13 86v110q0 48 -13 86t-36.5 64.5t-57 40.5
t-73.5 14q-41 0 -74 -14t-56.5 -40.5t-36.5 -64.5t-13 -86v-110q0 -48 13 -86t36.5 -64.5t56.5 -40.5t74 -14zM276 749l-62 29l91 181l89 -44zM455 749l-62 29l91 181l89 -44z" />
    <glyph glyph-name="ohungarumlaut" unicode="&#x151;" horiz-adv-x="564"
d="M282 -12q-54 0 -98.5 19t-75.5 54.5t-48 86t-17 112.5t17 112.5t48 86t75.5 54.5t98.5 19t98.5 -19t75.5 -54.5t48 -86t17 -112.5t-17 -112.5t-48 -86t-75.5 -54.5t-98.5 -19zM282 78q56 0 90 34.5t34 103.5v88q0 69 -34 103.5t-90 34.5t-90 -34.5t-34 -103.5v-88
q0 -69 34 -103.5t90 -34.5zM202 583l-62 29l91 181l89 -44zM381 583l-62 29l91 181l89 -44z" />
    <glyph glyph-name="OE" unicode="&#x152;" horiz-adv-x="990"
d="M486 0q-26 -5 -58.5 -8.5t-64.5 -3.5q-71 0 -128 23t-97 69t-61.5 113t-21.5 156q0 88 21.5 155.5t61.5 113.5t97 69t128 23q32 0 65 -3.5t61 -8.5h441v-100h-334v-194h303v-100h-303v-204h334v-100h-444zM369 89q29 0 58.5 3t55.5 11v492q-26 7 -55.5 10.5t-58.5 3.5
q-97 0 -145 -54.5t-48 -150.5v-110q0 -96 48 -150.5t145 -54.5z" />
    <glyph glyph-name="oe" unicode="&#x153;" horiz-adv-x="921"
d="M282 78q56 0 90 34.5t34 103.5v88q0 69 -34 103.5t-90 34.5t-90 -34.5t-34 -103.5v-88q0 -69 34 -103.5t90 -34.5zM763 304v10q0 60 -31 96.5t-85 36.5q-28 0 -51.5 -10t-40 -28t-25.5 -43t-9 -55v-7h242zM653 -12q-72 0 -119.5 28t-67.5 69h-6q-21 -43 -67.5 -70
t-110.5 -27q-54 0 -98.5 19t-75.5 54.5t-48 86t-17 112.5t17 112.5t48 86t75.5 54.5t98.5 19q62 0 108 -24.5t70 -73.5h6q22 45 69 71.5t113 26.5q54 0 96.5 -19t72.5 -53t45.5 -81.5t15.5 -105.5v-41h-357v-17q0 -60 35.5 -98.5t103.5 -38.5q48 0 81 21t56 57l64 -63
q-29 -48 -82.5 -76.5t-125.5 -28.5z" />
    <glyph glyph-name="Racute" unicode="&#x154;" horiz-adv-x="655"
d="M199 0h-113v698h301q94 0 148 -56.5t54 -153.5q0 -75 -34.5 -124.5t-101.5 -69.5l151 -294h-126l-140 282h-139v-282zM379 377q43 0 67 22.5t24 64.5v48q0 42 -24 64.5t-67 22.5h-180v-222h180zM325 749l-68 32l91 180l95 -46z" />
    <glyph glyph-name="racute" unicode="&#x155;" horiz-adv-x="383"
d="M78 0v520h109v-100h5q11 40 46 70t97 30h29v-105h-43q-65 0 -99.5 -21t-34.5 -62v-332h-109zM233 582l-68 33l91 180l95 -46z" />
    <glyph glyph-name="Rcommaaccent" unicode="&#x156;" horiz-adv-x="655"
d="M199 0h-113v698h301q94 0 148 -56.5t54 -153.5q0 -75 -34.5 -124.5t-101.5 -69.5l151 -294h-126l-140 282h-139v-282zM379 377q43 0 67 22.5t24 64.5v48q0 42 -24 64.5t-67 22.5h-180v-222h180zM336 -56q59 0 59 -53v-12q0 -40 -18.5 -77t-44.5 -60h-69q23 22 35.5 41.5
t19.5 45.5q-22 3 -31.5 17.5t-9.5 33.5v11q0 53 59 53z" />
    <glyph glyph-name="rcommaaccent" unicode="&#x157;" horiz-adv-x="383"
d="M78 0v520h109v-100h5q11 40 46 70t97 30h29v-105h-43q-65 0 -99.5 -21t-34.5 -62v-332h-109zM133 -56q59 0 59 -53v-12q0 -40 -18.5 -77t-44.5 -60h-69q23 22 35.5 41.5t19.5 45.5q-22 3 -31.5 17.5t-9.5 33.5v11q0 53 59 53z" />
    <glyph glyph-name="Rcaron" unicode="&#x158;" horiz-adv-x="655"
d="M199 0h-113v698h301q94 0 148 -56.5t54 -153.5q0 -75 -34.5 -124.5t-101.5 -69.5l151 -294h-126l-140 282h-139v-282zM379 377q43 0 67 22.5t24 64.5v48q0 42 -24 64.5t-67 22.5h-180v-222h180zM259 760l-120 150l56 42l119 -116l119 116l56 -42l-120 -150h-110z" />
    <glyph glyph-name="rcaron" unicode="&#x159;" horiz-adv-x="383"
d="M78 0v520h109v-100h5q11 40 46 70t97 30h29v-105h-43q-65 0 -99.5 -21t-34.5 -62v-332h-109zM167 594l-120 150l56 42l119 -116l119 116l56 -42l-120 -150h-110z" />
    <glyph glyph-name="Sacute" unicode="&#x15a;" horiz-adv-x="598"
d="M295 -12q-88 0 -149.5 32t-105.5 86l78 73q37 -45 81.5 -68t101.5 -23q67 0 101 30t34 81q0 41 -24 65t-85 36l-62 11q-102 19 -153 67t-51 132q0 46 17.5 83.5t49 63t76.5 39.5t101 14q79 0 137 -27.5t99 -79.5l-79 -70q-27 35 -66 56t-97 21q-60 0 -93 -24t-33 -70
q0 -44 27 -65.5t84 -32.5l62 -13q105 -20 153.5 -68t48.5 -132q0 -49 -17 -89t-49.5 -68.5t-79.5 -44t-107 -15.5zM307 749l-68 32l91 180l95 -46z" />
    <glyph glyph-name="sacute" unicode="&#x15b;" horiz-adv-x="494"
d="M243 -12q-74 0 -124 26t-87 72l70 64q29 -35 64.5 -54.5t82.5 -19.5q48 0 71.5 18.5t23.5 51.5q0 25 -16.5 42.5t-57.5 22.5l-48 6q-80 10 -125.5 46.5t-45.5 108.5q0 38 14 67.5t39.5 50t61 31.5t78.5 11q70 0 114.5 -22t79.5 -61l-67 -64q-20 24 -52.5 41.5t-74.5 17.5
q-45 0 -66.5 -18t-21.5 -47q0 -30 19 -45t61 -22l48 -6q86 -13 125.5 -50.5t39.5 -100.5q0 -38 -14.5 -68.5t-41.5 -52.5t-65 -34t-85 -12zM255 582l-68 33l91 180l95 -46z" />
    <glyph glyph-name="Scircumflex" unicode="&#x15c;" horiz-adv-x="598"
d="M295 -12q-88 0 -149.5 32t-105.5 86l78 73q37 -45 81.5 -68t101.5 -23q67 0 101 30t34 81q0 41 -24 65t-85 36l-62 11q-102 19 -153 67t-51 132q0 46 17.5 83.5t49 63t76.5 39.5t101 14q79 0 137 -27.5t99 -79.5l-79 -70q-27 35 -66 56t-97 21q-60 0 -93 -24t-33 -70
q0 -44 27 -65.5t84 -32.5l62 -13q105 -20 153.5 -68t48.5 -132q0 -49 -17 -89t-49.5 -68.5t-79.5 -44t-107 -15.5zM351 944l120 -150l-56 -42l-119 116l-119 -116l-56 42l120 150h110z" />
    <glyph glyph-name="scircumflex" unicode="&#x15d;" horiz-adv-x="494"
d="M243 -12q-74 0 -124 26t-87 72l70 64q29 -35 64.5 -54.5t82.5 -19.5q48 0 71.5 18.5t23.5 51.5q0 25 -16.5 42.5t-57.5 22.5l-48 6q-80 10 -125.5 46.5t-45.5 108.5q0 38 14 67.5t39.5 50t61 31.5t78.5 11q70 0 114.5 -22t79.5 -61l-67 -64q-20 24 -52.5 41.5t-74.5 17.5
q-45 0 -66.5 -18t-21.5 -47q0 -30 19 -45t61 -22l48 -6q86 -13 125.5 -50.5t39.5 -100.5q0 -38 -14.5 -68.5t-41.5 -52.5t-65 -34t-85 -12zM299 778l120 -150l-56 -43l-119 117l-119 -117l-56 43l120 150h110z" />
    <glyph glyph-name="Scedilla" unicode="&#x15e;" horiz-adv-x="598"
d="M299 610q-60 0 -93 -24t-33 -70q0 -44 27 -65.5t84 -32.5l62 -13q105 -20 153.5 -68t48.5 -132q0 -93 -59.5 -151t-168.5 -65l-9 -47l3 -4q11 3 21.5 5t21.5 2q30 0 50 -16.5t20 -51.5q0 -23 -10 -39t-26.5 -26.5t-38 -15.5t-45.5 -5q-45 0 -71.5 14t-37.5 28l41 48
q9 -12 24.5 -20.5t38.5 -8.5q19 0 31.5 7t12.5 22q0 12 -13.5 23.5t-57.5 16.5l-25 3l13 65q-75 5 -129.5 36.5t-93.5 80.5l78 73q36 -45 81 -68t102 -23q67 0 101 30t34 81q0 41 -24 65t-85 36l-62 11q-102 19 -153 67t-51 132q0 46 17.5 83.5t49 63t76.5 39.5t101 14
q79 0 137 -27.5t99 -79.5l-79 -70q-27 35 -66 56t-97 21z" />
    <glyph glyph-name="scedilla" unicode="&#x15f;" horiz-adv-x="494"
d="M256 -209q-45 0 -71.5 14t-37.5 28l41 48q9 -12 24.5 -20.5t38.5 -8.5q19 0 31.5 7t12.5 22q0 12 -13.5 23.5t-57.5 16.5l-25 3l13 65q-60 5 -104 30.5t-76 66.5l70 64q29 -35 64.5 -54.5t82.5 -19.5q48 0 71.5 18.5t23.5 51.5q0 26 -16.5 42.5t-57.5 22.5l-48 6
q-80 11 -125.5 47t-45.5 108q0 38 14 67.5t39.5 50t61 31.5t78.5 11q70 0 114.5 -22t79.5 -61l-67 -64q-20 24 -52.5 41.5t-74.5 17.5q-45 0 -66.5 -18t-21.5 -47q0 -30 19 -45t61 -22l48 -6q86 -13 125.5 -50.5t39.5 -100.5q0 -70 -48.5 -114.5t-131.5 -51.5l-9 -47l3 -4
q11 3 21.5 5t21.5 2q30 0 50 -16.5t20 -51.5q0 -23 -10 -39t-26.5 -26.5t-38 -15.5t-45.5 -5z" />
    <glyph glyph-name="Scaron" unicode="&#x160;" horiz-adv-x="598"
d="M295 -12q-88 0 -149.5 32t-105.5 86l78 73q37 -45 81.5 -68t101.5 -23q67 0 101 30t34 81q0 41 -24 65t-85 36l-62 11q-102 19 -153 67t-51 132q0 46 17.5 83.5t49 63t76.5 39.5t101 14q79 0 137 -27.5t99 -79.5l-79 -70q-27 35 -66 56t-97 21q-60 0 -93 -24t-33 -70
q0 -44 27 -65.5t84 -32.5l62 -13q105 -20 153.5 -68t48.5 -132q0 -49 -17 -89t-49.5 -68.5t-79.5 -44t-107 -15.5zM241 760l-120 150l56 42l119 -116l119 116l56 -42l-120 -150h-110z" />
    <glyph glyph-name="scaron" unicode="&#x161;" horiz-adv-x="494"
d="M243 -12q-74 0 -124 26t-87 72l70 64q29 -35 64.5 -54.5t82.5 -19.5q48 0 71.5 18.5t23.5 51.5q0 25 -16.5 42.5t-57.5 22.5l-48 6q-80 10 -125.5 46.5t-45.5 108.5q0 38 14 67.5t39.5 50t61 31.5t78.5 11q70 0 114.5 -22t79.5 -61l-67 -64q-20 24 -52.5 41.5t-74.5 17.5
q-45 0 -66.5 -18t-21.5 -47q0 -30 19 -45t61 -22l48 -6q86 -13 125.5 -50.5t39.5 -100.5q0 -38 -14.5 -68.5t-41.5 -52.5t-65 -34t-85 -12zM189 594l-120 150l56 42l119 -116l119 116l56 -42l-120 -150h-110z" />
    <glyph glyph-name="uni0162" unicode="&#x162;" horiz-adv-x="577"
d="M232 598h-208v100h529v-100h-208v-598h-28l-12 -58l4 -4q11 3 21.5 5t21.5 2q29 0 49.5 -16.5t20.5 -51.5q0 -23 -10 -39t-26.5 -26.5t-38 -15.5t-45.5 -5q-46 0 -72.5 14t-37.5 28l42 48q9 -12 24.5 -20.5t38.5 -8.5q19 0 31.5 7t12.5 22q0 12 -14 23.5t-57 16.5l-25 3
l15 76h-28v598z" />
    <glyph glyph-name="uni0163" unicode="&#x163;" horiz-adv-x="365"
d="M233 -209q-46 0 -72.5 14t-37.5 28l42 48q9 -12 24.5 -20.5t38.5 -8.5q19 0 31.5 7t12.5 22q0 12 -14 23.5t-57 16.5l-25 3l15 78q-42 8 -63 36.5t-21 74.5v318h-81v89h44q27 0 37.5 12t10.5 39v91h98v-142h109v-89h-109v-342h101v-89h-69l-12 -58l4 -4q11 3 21.5 5
t21.5 2q29 0 49.5 -16.5t20.5 -51.5q0 -23 -10 -39t-26.5 -26.5t-38 -15.5t-45.5 -5z" />
    <glyph glyph-name="Tcaron" unicode="&#x164;" horiz-adv-x="577"
d="M345 598v-598h-113v598h-208v100h529v-100h-208zM234 760l-120 150l56 42l119 -116l119 116l56 -42l-120 -150h-110z" />
    <glyph glyph-name="tcaron" unicode="&#x165;" horiz-adv-x="367"
d="M222 0q-57 0 -86 29.5t-29 83.5v318h-81v89h44q27 0 37.5 12t10.5 39v91h98v-142h109v-89h-109v-342h101v-89h-95zM354 570h-72l10 198h120z" />
    <glyph glyph-name="Tbar" unicode="&#x166;" horiz-adv-x="589"
d="M351 311v-311h-113v311h-153v85h153v202h-208v100h529v-100h-208v-202h153v-85h-153z" />
    <glyph glyph-name="tbar" unicode="&#x167;" horiz-adv-x="372"
d="M320 0h-95q-57 0 -86 29.5t-29 83.5v123h-64v79h64v116h-80v89h43q28 0 38 12t10 39v91h98v-142h109v-89h-109v-116h89v-79h-89v-147h101v-89z" />
    <glyph glyph-name="Utilde" unicode="&#x168;" horiz-adv-x="686"
d="M193 698v-430q0 -89 34 -134t116 -45t116 45t34 134v430h111v-412q0 -77 -14 -133t-45 -92.5t-80.5 -54.5t-121.5 -18t-121.5 18t-80.5 54.5t-45 92.5t-14 133v412h111zM417 773q-25 0 -43 8t-35 16q-23 11 -40.5 17t-33.5 6q-17 0 -30 -6.5t-28 -19.5l-41 52
q15 23 40.5 40.5t62.5 17.5q25 0 43 -8t35 -16q23 -11 40.5 -17t33.5 -6q17 0 30 6.5t28 19.5l41 -52q-15 -23 -40.5 -40.5t-62.5 -17.5z" />
    <glyph glyph-name="utilde" unicode="&#x169;" horiz-adv-x="580"
d="M393 86h-4q-7 -19 -18.5 -37t-29 -31.5t-42 -21.5t-56.5 -8q-81 0 -125.5 52t-44.5 149v331h109v-317q0 -121 100 -121q21 0 41 5.5t35.5 16.5t25 28t9.5 40v348h109v-520h-109v86zM363 607q-25 0 -43 8t-35 16q-23 11 -40.5 17.5t-33.5 6.5q-17 0 -30 -7t-28 -20l-41 52
q15 23 40.5 40.5t62.5 17.5q25 0 43 -8t35 -16q23 -11 40.5 -17.5t33.5 -6.5q17 0 30 7t28 20l41 -52q-15 -23 -40.5 -40.5t-62.5 -17.5z" />
    <glyph glyph-name="Umacron" unicode="&#x16a;" horiz-adv-x="686"
d="M193 698v-430q0 -89 34 -134t116 -45t116 45t34 134v430h111v-412q0 -77 -14 -133t-45 -92.5t-80.5 -54.5t-121.5 -18t-121.5 18t-80.5 54.5t-45 92.5t-14 133v412h111zM197 881h292v-83h-292v83z" />
    <glyph glyph-name="umacron" unicode="&#x16b;" horiz-adv-x="580"
d="M393 86h-4q-7 -19 -18.5 -37t-29 -31.5t-42 -21.5t-56.5 -8q-81 0 -125.5 52t-44.5 149v331h109v-317q0 -121 100 -121q21 0 41 5.5t35.5 16.5t25 28t9.5 40v348h109v-520h-109v86zM143 714h292v-83h-292v83z" />
    <glyph glyph-name="Ubreve" unicode="&#x16c;" horiz-adv-x="686"
d="M193 698v-430q0 -89 34 -134t116 -45t116 45t34 134v430h111v-412q0 -77 -14 -133t-45 -92.5t-80.5 -54.5t-121.5 -18t-121.5 18t-80.5 54.5t-45 92.5t-14 133v412h111zM342 755q-42 0 -70.5 14t-47.5 35t-31 46.5t-19 48.5l60 31l20 -33q17 -29 35.5 -45.5t52.5 -16.5
t52.5 16.5t35.5 45.5l20 33l60 -31q-8 -23 -19.5 -48.5t-30.5 -46.5t-47.5 -35t-70.5 -14z" />
    <glyph glyph-name="ubreve" unicode="&#x16d;" horiz-adv-x="580"
d="M393 86h-4q-7 -19 -18.5 -37t-29 -31.5t-42 -21.5t-56.5 -8q-81 0 -125.5 52t-44.5 149v331h109v-317q0 -121 100 -121q21 0 41 5.5t35.5 16.5t25 28t9.5 40v348h109v-520h-109v86zM288 589q-42 0 -70.5 14t-47.5 35t-30.5 46.5t-19.5 48.5l60 30l21 -33
q17 -28 35.5 -44.5t51.5 -16.5t51.5 16.5t35.5 44.5l21 33l60 -30q-8 -23 -19.5 -48.5t-30.5 -46.5t-47.5 -35t-70.5 -14z" />
    <glyph glyph-name="Uring" unicode="&#x16e;" horiz-adv-x="686"
d="M193 698v-430q0 -89 34 -134t116 -45t116 45t34 134v430h111v-412q0 -77 -14 -133t-45 -92.5t-80.5 -54.5t-121.5 -18t-121.5 18t-80.5 54.5t-45 92.5t-14 133v412h111zM343 734q-27 0 -51 9.5t-41.5 26.5t-27.5 40.5t-10 50.5t10 50.5t27.5 40.5t41.5 26.5t51 9.5
t51 -9.5t41.5 -26.5t27.5 -40.5t10 -50.5t-10 -50.5t-27.5 -40.5t-41.5 -26.5t-51 -9.5zM343 795q26 0 40.5 14t14.5 39v27q0 25 -14.5 39t-40.5 14t-40.5 -14t-14.5 -39v-27q0 -25 14.5 -39t40.5 -14z" />
    <glyph glyph-name="uring" unicode="&#x16f;" horiz-adv-x="580"
d="M393 86h-4q-7 -19 -18.5 -37t-29 -31.5t-42 -21.5t-56.5 -8q-81 0 -125.5 52t-44.5 149v331h109v-317q0 -121 100 -121q21 0 41 5.5t35.5 16.5t25 28t9.5 40v348h109v-520h-109v86zM289 568q-27 0 -51 9.5t-41.5 26.5t-27.5 40.5t-10 50.5t10 50.5t27.5 40.5t41.5 26.5
t51 9.5t51 -9.5t41.5 -26.5t27.5 -40.5t10 -50.5t-10 -50.5t-27.5 -40.5t-41.5 -26.5t-51 -9.5zM289 628q55 0 55 53v28q0 53 -55 53t-55 -53v-28q0 -53 55 -53z" />
    <glyph glyph-name="Uhungarumlaut" unicode="&#x170;" horiz-adv-x="686"
d="M193 698v-430q0 -89 34 -134t116 -45t116 45t34 134v430h111v-412q0 -77 -14 -133t-45 -92.5t-80.5 -54.5t-121.5 -18t-121.5 18t-80.5 54.5t-45 92.5t-14 133v412h111zM263 749l-62 29l91 181l89 -44zM442 749l-62 29l91 181l89 -44z" />
    <glyph glyph-name="uhungarumlaut" unicode="&#x171;" horiz-adv-x="580"
d="M393 86h-4q-7 -19 -18.5 -37t-29 -31.5t-42 -21.5t-56.5 -8q-81 0 -125.5 52t-44.5 149v331h109v-317q0 -121 100 -121q21 0 41 5.5t35.5 16.5t25 28t9.5 40v348h109v-520h-109v86zM209 583l-62 29l91 181l89 -44zM388 583l-62 29l91 181l89 -44z" />
    <glyph glyph-name="Uogonek" unicode="&#x172;" horiz-adv-x="686"
d="M193 698v-430q0 -89 34 -134t116 -45t116 45t34 134v430h111v-412q0 -51 -5.5 -92t-19 -76t-36 -66t-57.5 -61q-43 -38 -68 -60.5t-25 -46.5q0 -17 10 -24t24 -7q16 0 28.5 7.5t22.5 18.5l45 -44q-11 -20 -36.5 -32t-65.5 -12q-43 0 -75 18.5t-32 59.5q0 21 8.5 38
t24.5 31.5t37 28t47 27.5l-3 5q-20 -6 -41.5 -8.5t-45.5 -2.5q-72 0 -121.5 18t-80 54.5t-44 92.5t-13.5 133v412h111z" />
    <glyph glyph-name="uogonek" unicode="&#x173;" horiz-adv-x="581"
d="M502 0q-34 -26 -54.5 -44t-32 -31t-15 -22t-3.5 -18q0 -18 10 -25t24 -7q17 0 29.5 7.5t21.5 18.5l46 -44q-11 -20 -36.5 -32t-66.5 -12q-22 0 -41.5 4.5t-34 14t-23 24.5t-8.5 37q0 40 30.5 69t78.5 57l-1 3h-33v86h-4q-7 -19 -18.5 -37t-29 -31.5t-42 -21.5t-56.5 -8
q-81 0 -125.5 52t-44.5 149v331h109v-317q0 -121 100 -121q21 0 41 5.5t35.5 16.5t25 28t9.5 40v348h109v-520z" />
    <glyph glyph-name="Wcircumflex" unicode="&#x174;" horiz-adv-x="926"
d="M189 0l-165 698h115l71 -336l49 -232h3l56 232l83 336h126l82 -336l55 -231h3l51 231l73 336h111l-172 -698h-127l-89 361l-52 212h-2l-53 -212l-91 -361h-127zM519 944l120 -150l-56 -42l-119 116l-119 -116l-56 42l120 150h110z" />
    <glyph glyph-name="wcircumflex" unicode="&#x175;" horiz-adv-x="799"
d="M26 520h106l53 -218l47 -197h3l54 197l63 218h98l64 -218l55 -197h3l46 197l54 218h101l-140 -520h-123l-68 237l-42 146h-2l-41 -146l-69 -237h-120zM455 778l120 -150l-56 -43l-119 117l-119 -117l-56 43l120 150h110z" />
    <glyph glyph-name="Ycircumflex" unicode="&#x176;" horiz-adv-x="617"
d="M251 0v275l-240 423h129l170 -311h3l169 311h124l-242 -421v-277h-113zM364 944l120 -150l-56 -42l-119 116l-119 -116l-56 42l120 150h110z" />
    <glyph glyph-name="ycircumflex" unicode="&#x177;" horiz-adv-x="514"
d="M397 520h105l-219 -623q-9 -26 -20.5 -44.5t-27 -30t-37.5 -17t-52 -5.5h-63v89h88l30 88l-189 543h109l104 -306l30 -113h5l33 113zM315 778l120 -150l-56 -43l-119 117l-119 -117l-56 43l120 150h110z" />
    <glyph glyph-name="Ydieresis" unicode="&#x178;" horiz-adv-x="617"
d="M251 0v275l-240 423h129l170 -311h3l169 311h124l-242 -421v-277h-113zM209 776q-34 0 -48.5 15.5t-14.5 38.5v18q0 23 14.5 38.5t48.5 15.5t48.5 -15.5t14.5 -38.5v-18q0 -23 -14.5 -38.5t-48.5 -15.5zM409 776q-34 0 -48.5 15.5t-14.5 38.5v18q0 23 14.5 38.5
t48.5 15.5t48.5 -15.5t14.5 -38.5v-18q0 -23 -14.5 -38.5t-48.5 -15.5z" />
    <glyph glyph-name="Zacute" unicode="&#x179;" horiz-adv-x="591"
d="M554 0h-517v101l379 497h-359v100h486v-101l-379 -497h390v-100zM311 749l-68 32l91 180l95 -46z" />
    <glyph glyph-name="zacute" unicode="&#x17a;" horiz-adv-x="487"
d="M36 0v88l279 343h-270v89h399v-84l-283 -347h290v-89h-415zM256 582l-68 33l91 180l95 -46z" />
    <glyph glyph-name="Zdotaccent" unicode="&#x17b;" horiz-adv-x="591"
d="M554 0h-517v101l379 497h-359v100h486v-101l-379 -497h390v-100zM300 768q-38 0 -54 17t-16 43v21q0 26 16 43t54 17t54 -17t16 -43v-21q0 -26 -16 -43t-54 -17z" />
    <glyph glyph-name="zdotaccent" unicode="&#x17c;" horiz-adv-x="487"
d="M36 0v88l279 343h-270v89h399v-84l-283 -347h290v-89h-415zM245 605q-36 0 -51.5 16t-15.5 41v18q0 25 15.5 41t51.5 16t51.5 -16t15.5 -41v-18q0 -25 -15.5 -41t-51.5 -16z" />
    <glyph glyph-name="Zcaron" unicode="&#x17d;" horiz-adv-x="591"
d="M554 0h-517v101l379 497h-359v100h486v-101l-379 -497h390v-100zM245 760l-120 150l56 42l119 -116l119 116l56 -42l-120 -150h-110z" />
    <glyph glyph-name="zcaron" unicode="&#x17e;" horiz-adv-x="487"
d="M36 0v88l279 343h-270v89h399v-84l-283 -347h290v-89h-415zM190 594l-120 150l56 42l119 -116l119 116l56 -42l-120 -150h-110z" />
    <glyph glyph-name="uni017F" unicode="&#x17f;" horiz-adv-x="292"
d="M105 431h-79v89h79v86q0 63 33 98.5t99 35.5h86v-89h-109v-651h-109v431z" />
    <glyph glyph-name="uni018F" unicode="&#x18f;" horiz-adv-x="712"
d="M537 401q0 48 -13.5 86.5t-38 65.5t-58 41.5t-72.5 14.5q-68 0 -110 -33.5t-63 -92.5l-99 41q15 39 39 73t58 59t78 39.5t97 14.5q69 0 125 -24t95.5 -70t60.5 -113.5t21 -153.5t-21 -153.5t-60.5 -113.5t-95.5 -70t-125 -24t-124.5 23t-94.5 68.5t-60 113t-21 156.5v34
h482v18zM174 290q1 -44 14 -81t37.5 -64t57.5 -41.5t72 -14.5t72.5 14.5t58 41.5t37.5 64t14 81h-363z" />
    <glyph glyph-name="florin" unicode="&#x192;" horiz-adv-x="484"
d="M9 -45h132l33 325h-127l10 93h126l20 192q6 59 42 96t104 37h116l-10 -89h-138l-25 -236h151l-9 -93h-151l-28 -282q-6 -58 -42 -95t-104 -37h-109z" />
    <glyph glyph-name="Ohorn" unicode="&#x1a0;" horiz-adv-x="712"
d="M668 807v-97q0 -37 -15.5 -58t-63.5 -21h-27q49 -50 72 -120.5t23 -161.5q0 -88 -21.5 -155.5t-61 -113t-95 -69t-123.5 -23.5t-123.5 23.5t-95 69t-61 113t-21.5 155.5t21.5 155.5t61 113t95 69t123.5 23.5q49 0 91 -12h128v109h93zM356 89q40 0 73.5 14t57 40.5
t36.5 64.5t13 86v110q0 48 -13 86t-36.5 64.5t-57 40.5t-73.5 14q-41 0 -74 -14t-56.5 -40.5t-36.5 -64.5t-13 -86v-110q0 -48 13 -86t36.5 -64.5t56.5 -40.5t74 -14z" />
    <glyph glyph-name="ohorn" unicode="&#x1a1;" horiz-adv-x="563"
d="M534 629v-96q0 -38 -16 -58.5t-59 -20.5q35 -42 48 -89t13 -104q0 -62 -17 -112.5t-48 -86t-75 -55t-98 -19.5t-98.5 19.5t-75.5 55t-48 86t-17 112.5q0 63 17 113t48 85t75.5 54t98.5 19q42 0 80 -12h78v109h94zM282 78q56 0 89.5 35t33.5 104v87q0 69 -33.5 103.5
t-89.5 34.5t-90 -34.5t-34 -103.5v-87q0 -69 34 -104t90 -35z" />
    <glyph glyph-name="Uhorn" unicode="&#x1af;" horiz-adv-x="686"
d="M193 698v-430q0 -89 34 -134t116 -45t116 45t34 134v430h86v109h93v-98q0 -35 -14 -56t-54 -23v-344q0 -77 -14 -133t-45 -92.5t-80.5 -54.5t-121.5 -18t-121.5 18t-80.5 54.5t-45 92.5t-14 133v412h111z" />
    <glyph glyph-name="uhorn" unicode="&#x1b0;" horiz-adv-x="581"
d="M577 531q0 -37 -15 -58t-60 -21v-452h-109v86h-4q-7 -19 -18.5 -37t-29 -31.5t-42 -21.5t-56.5 -8q-81 0 -125.5 52t-44.5 149v331h109v-317q0 -121 100 -121q21 0 41 5.5t35.5 16.5t25 28t9.5 40v348h90v109h94v-98z" />
    <glyph glyph-name="uni01CD" unicode="&#x1cd;" horiz-adv-x="662"
d="M522 0l-63 189h-261l-61 -189h-115l238 698h142l238 -698h-118zM331 594h-5l-101 -308h206zM274 760l-120 150l56 42l119 -116l119 116l56 -42l-120 -150h-110z" />
    <glyph glyph-name="uni01CE" unicode="&#x1ce;" horiz-adv-x="549"
d="M459 0q-43 0 -66 24.5t-28 62.5h-5q-15 -49 -55 -74t-97 -25q-81 0 -124.5 42t-43.5 113q0 78 56.5 117t165.5 39h94v44q0 48 -26 74t-81 26q-46 0 -75 -20t-49 -51l-65 59q26 44 73 72.5t123 28.5q101 0 155 -47t54 -135v-261h55v-89h-61zM239 71q51 0 84 22.5t33 60.5
v75h-92q-113 0 -113 -70v-18q0 -35 23.5 -52.5t64.5 -17.5zM205 594l-120 150l56 42l119 -116l119 116l56 -42l-120 -150h-110z" />
    <glyph glyph-name="uni01CF" unicode="&#x1cf;" horiz-adv-x="416"
d="M56 0v92h95v514h-95v92h304v-92h-96v-514h96v-92h-304zM153 760l-120 150l56 42l119 -116l119 116l56 -42l-120 -150h-110z" />
    <glyph glyph-name="uni01D0" unicode="&#x1d0;" horiz-adv-x="265"
d="M78 0v520h109v-520h-109zM79 594l-120 150l56 42l119 -116l119 116l56 -42l-120 -150h-110z" />
    <glyph glyph-name="uni01D1" unicode="&#x1d1;" horiz-adv-x="712"
d="M356 -12q-68 0 -123.5 23.5t-95 69t-61 113t-21.5 155.5t21.5 155.5t61 113t95 69t123.5 23.5t123.5 -23.5t95 -69t61 -113t21.5 -155.5t-21.5 -155.5t-61 -113t-95 -69t-123.5 -23.5zM356 89q40 0 73.5 14t57 40.5t36.5 64.5t13 86v110q0 48 -13 86t-36.5 64.5t-57 40.5
t-73.5 14q-41 0 -74 -14t-56.5 -40.5t-36.5 -64.5t-13 -86v-110q0 -48 13 -86t36.5 -64.5t56.5 -40.5t74 -14zM300 760l-120 150l56 42l119 -116l119 116l56 -42l-120 -150h-110z" />
    <glyph glyph-name="uni01D2" unicode="&#x1d2;" horiz-adv-x="564"
d="M282 -12q-54 0 -98.5 19t-75.5 54.5t-48 86t-17 112.5t17 112.5t48 86t75.5 54.5t98.5 19t98.5 -19t75.5 -54.5t48 -86t17 -112.5t-17 -112.5t-48 -86t-75.5 -54.5t-98.5 -19zM282 78q56 0 90 34.5t34 103.5v88q0 69 -34 103.5t-90 34.5t-90 -34.5t-34 -103.5v-88
q0 -69 34 -103.5t90 -34.5zM226 594l-120 150l56 42l119 -116l119 116l56 -42l-120 -150h-110z" />
    <glyph glyph-name="uni01D3" unicode="&#x1d3;" horiz-adv-x="686"
d="M193 698v-430q0 -89 34 -134t116 -45t116 45t34 134v430h111v-412q0 -77 -14 -133t-45 -92.5t-80.5 -54.5t-121.5 -18t-121.5 18t-80.5 54.5t-45 92.5t-14 133v412h111zM286 760l-120 150l56 42l119 -116l119 116l56 -42l-120 -150h-110z" />
    <glyph glyph-name="uni01D4" unicode="&#x1d4;" horiz-adv-x="580"
d="M393 86h-4q-7 -19 -18.5 -37t-29 -31.5t-42 -21.5t-56.5 -8q-81 0 -125.5 52t-44.5 149v331h109v-317q0 -121 100 -121q21 0 41 5.5t35.5 16.5t25 28t9.5 40v348h109v-520h-109v86zM234 594l-120 150l56 42l119 -116l119 116l56 -42l-120 -150h-110z" />
    <glyph glyph-name="uni01D5" unicode="&#x1d5;" horiz-adv-x="686"
d="M193 698v-430q0 -89 34 -134t116 -45t116 45t34 134v430h111v-412q0 -77 -14 -133t-45 -92.5t-80.5 -54.5t-121.5 -18t-121.5 18t-80.5 54.5t-45 92.5t-14 133v412h111zM195 1014h292v-83h-292v83zM237 759q-34 0 -48.5 15.5t-14.5 38.5v17q0 23 14.5 38.5t48.5 15.5
t48.5 -15.5t14.5 -38.5v-17q0 -23 -14.5 -38.5t-48.5 -15.5zM445 759q-34 0 -48.5 15.5t-14.5 38.5v17q0 23 14.5 38.5t48.5 15.5t48.5 -15.5t14.5 -38.5v-17q0 -23 -14.5 -38.5t-48.5 -15.5z" />
    <glyph glyph-name="uni01D6" unicode="&#x1d6;" horiz-adv-x="580"
d="M393 86h-4q-7 -19 -18.5 -37t-29 -31.5t-42 -21.5t-56.5 -8q-81 0 -125.5 52t-44.5 149v331h109v-317q0 -121 100 -121q21 0 41 5.5t35.5 16.5t25 28t9.5 40v348h109v-520h-109v86zM142 848h292v-83h-292v83zM184 593q-34 0 -48 15t-14 38v17q0 23 14 38t48 15t48 -15
t14 -38v-17q0 -23 -14 -38t-48 -15zM392 593q-34 0 -48 15t-14 38v17q0 23 14 38t48 15t48 -15t14 -38v-17q0 -23 -14 -38t-48 -15z" />
    <glyph glyph-name="uni01D7" unicode="&#x1d7;" horiz-adv-x="686"
d="M193 698v-430q0 -89 34 -134t116 -45t116 45t34 134v430h111v-412q0 -77 -14 -133t-45 -92.5t-80.5 -54.5t-121.5 -18t-121.5 18t-80.5 54.5t-45 92.5t-14 133v412h111zM352 879l-62 30l91 180l89 -44zM237 759q-34 0 -48.5 15.5t-14.5 38.5v17q0 23 14.5 38.5t48.5 15.5
t48.5 -15.5t14.5 -38.5v-17q0 -23 -14.5 -38.5t-48.5 -15.5zM445 759q-34 0 -48.5 15.5t-14.5 38.5v17q0 23 14.5 38.5t48.5 15.5t48.5 -15.5t14.5 -38.5v-17q0 -23 -14.5 -38.5t-48.5 -15.5z" />
    <glyph glyph-name="uni01D8" unicode="&#x1d8;" horiz-adv-x="580"
d="M393 86h-4q-7 -19 -18.5 -37t-29 -31.5t-42 -21.5t-56.5 -8q-81 0 -125.5 52t-44.5 149v331h109v-317q0 -121 100 -121q21 0 41 5.5t35.5 16.5t25 28t9.5 40v348h109v-520h-109v86zM299 713l-62 30l91 180l89 -44zM184 593q-34 0 -48 15t-14 38v17q0 23 14 38t48 15
t48 -15t14 -38v-17q0 -23 -14 -38t-48 -15zM392 593q-34 0 -48 15t-14 38v17q0 23 14 38t48 15t48 -15t14 -38v-17q0 -23 -14 -38t-48 -15z" />
    <glyph glyph-name="uni01D9" unicode="&#x1d9;" horiz-adv-x="686"
d="M193 698v-430q0 -89 34 -134t116 -45t116 45t34 134v430h111v-412q0 -77 -14 -133t-45 -92.5t-80.5 -54.5t-121.5 -18t-121.5 18t-80.5 54.5t-45 92.5t-14 133v412h111zM292 905l-125 139l53 45l121 -109l121 109l53 -45l-125 -139h-98zM237 759q-34 0 -48.5 15.5
t-14.5 38.5v17q0 23 14.5 38.5t48.5 15.5t48.5 -15.5t14.5 -38.5v-17q0 -23 -14.5 -38.5t-48.5 -15.5zM445 759q-34 0 -48.5 15.5t-14.5 38.5v17q0 23 14.5 38.5t48.5 15.5t48.5 -15.5t14.5 -38.5v-17q0 -23 -14.5 -38.5t-48.5 -15.5z" />
    <glyph glyph-name="uni01DA" unicode="&#x1da;" horiz-adv-x="580"
d="M393 86h-4q-7 -19 -18.5 -37t-29 -31.5t-42 -21.5t-56.5 -8q-81 0 -125.5 52t-44.5 149v331h109v-317q0 -121 100 -121q21 0 41 5.5t35.5 16.5t25 28t9.5 40v348h109v-520h-109v86zM239 739l-125 139l53 45l121 -109l121 109l53 -45l-125 -139h-98zM184 593q-34 0 -48 15
t-14 38v17q0 23 14 38t48 15t48 -15t14 -38v-17q0 -23 -14 -38t-48 -15zM392 593q-34 0 -48 15t-14 38v17q0 23 14 38t48 15t48 -15t14 -38v-17q0 -23 -14 -38t-48 -15z" />
    <glyph glyph-name="uni01DB" unicode="&#x1db;" horiz-adv-x="686"
d="M193 698v-430q0 -89 34 -134t116 -45t116 45t34 134v430h111v-412q0 -77 -14 -133t-45 -92.5t-80.5 -54.5t-121.5 -18t-121.5 18t-80.5 54.5t-45 92.5t-14 133v412h111zM212 1045l89 44l91 -180l-62 -30zM237 759q-34 0 -48.5 15.5t-14.5 38.5v17q0 23 14.5 38.5
t48.5 15.5t48.5 -15.5t14.5 -38.5v-17q0 -23 -14.5 -38.5t-48.5 -15.5zM445 759q-34 0 -48.5 15.5t-14.5 38.5v17q0 23 14.5 38.5t48.5 15.5t48.5 -15.5t14.5 -38.5v-17q0 -23 -14.5 -38.5t-48.5 -15.5z" />
    <glyph glyph-name="uni01DC" unicode="&#x1dc;" horiz-adv-x="580"
d="M393 86h-4q-7 -19 -18.5 -37t-29 -31.5t-42 -21.5t-56.5 -8q-81 0 -125.5 52t-44.5 149v331h109v-317q0 -121 100 -121q21 0 41 5.5t35.5 16.5t25 28t9.5 40v348h109v-520h-109v86zM159 879l89 44l91 -180l-62 -30zM184 593q-34 0 -48 15t-14 38v17q0 23 14 38t48 15
t48 -15t14 -38v-17q0 -23 -14 -38t-48 -15zM392 593q-34 0 -48 15t-14 38v17q0 23 14 38t48 15t48 -15t14 -38v-17q0 -23 -14 -38t-48 -15z" />
    <glyph glyph-name="Aringacute" unicode="&#x1fa;" horiz-adv-x="662"
d="M522 0l-63 189h-261l-61 -189h-115l238 698h142l238 -698h-118zM331 594h-5l-101 -308h206zM335 982l-50 36l97 114l72 -49zM330 731q-56 0 -93.5 31.5t-37.5 85.5t37.5 85.5t93.5 31.5t93.5 -31.5t37.5 -85.5t-37.5 -85.5t-93.5 -31.5zM330 789q27 0 42 12.5t15 37.5v18
q0 25 -15 37.5t-42 12.5t-42 -12.5t-15 -37.5v-18q0 -25 15 -37.5t42 -12.5z" />
    <glyph glyph-name="aringacute" unicode="&#x1fb;" horiz-adv-x="549"
d="M459 0q-43 0 -66 24.5t-28 62.5h-5q-15 -49 -55 -74t-97 -25q-81 0 -124.5 42t-43.5 113q0 78 56.5 117t165.5 39h94v44q0 48 -26 74t-81 26q-46 0 -75 -20t-49 -51l-65 59q26 44 73 72.5t123 28.5q101 0 155 -47t54 -135v-261h55v-89h-61zM239 71q51 0 84 22.5t33 60.5
v75h-92q-113 0 -113 -70v-18q0 -35 23.5 -52.5t64.5 -17.5zM263 814l-46 40l98 116l66 -56zM260 565q-56 0 -93.5 31.5t-37.5 85.5t37.5 85.5t93.5 31.5t93.5 -31.5t37.5 -85.5t-37.5 -85.5t-93.5 -31.5zM260 623q27 0 42 12.5t15 37.5v18q0 25 -15 37.5t-42 12.5t-42 -12.5
t-15 -37.5v-18q0 -25 15 -37.5t42 -12.5z" />
    <glyph glyph-name="AEacute" unicode="&#x1fc;" horiz-adv-x="933"
d="M426 188h-218l-92 -188h-114l350 698h521v-100h-334v-194h303v-100h-303v-204h334v-100h-447v188zM409 598l-155 -312h172v312h-17zM616 749l-68 32l91 180l95 -46z" />
    <glyph glyph-name="aeacute" unicode="&#x1fd;" horiz-adv-x="865"
d="M264 232q-113 -2 -113 -71v-18q0 -35 23.5 -53.5t66.5 -18.5q48 0 81.5 22.5t33.5 60.5v78h-92zM707 304v10q0 60 -31 96.5t-85 36.5q-28 0 -51.5 -10t-40 -28t-25.5 -43t-9 -55v-7h242zM604 78q48 0 81.5 21t54.5 56l64 -62q-29 -48 -82.5 -76.5t-122.5 -28.5
q-39 0 -72.5 10t-59 26t-42 35.5t-23.5 38.5h-6q-5 -18 -19.5 -37.5t-37.5 -35.5t-56 -26.5t-75 -10.5q-79 0 -123.5 43t-44.5 112q0 79 58 120t164 41h94v39q0 48 -26 74t-80 26q-48 0 -76.5 -19.5t-48.5 -50.5l-65 58q26 44 73 72.5t123 28.5q36 0 62 -9t44.5 -23
t30 -31.5t19.5 -34.5h6q8 18 24 35.5t38.5 31.5t52 22.5t64.5 8.5q56 0 98 -20t70.5 -55.5t42.5 -82.5t14 -101v-41h-357v-17q0 -60 36.5 -98.5t102.5 -38.5zM433 582l-68 33l91 180l95 -46z" />
    <glyph glyph-name="Oslashacute" unicode="&#x1fe;" horiz-adv-x="712"
d="M356 -12q-95 0 -163 44l-57 -82l-72 47l65 94q-35 45 -54.5 109.5t-19.5 148.5q0 88 21.5 155.5t61 113t95 69t123.5 23.5q95 0 163 -44l57 82l72 -47l-65 -94q35 -45 54.5 -109.5t19.5 -148.5q0 -88 -21.5 -155.5t-61 -113t-95 -69t-123.5 -23.5zM173 292q0 -63 23 -111
l268 399q-45 34 -108 34q-41 0 -75 -14.5t-58 -41.5t-37 -65.5t-13 -86.5v-114zM539 406q0 63 -23 111l-268 -399q45 -34 108 -34q41 0 75 14.5t58 41.5t37 65.5t13 86.5v114zM367 749l-68 32l91 180l95 -46z" />
    <glyph glyph-name="oslashacute" unicode="&#x1ff;" horiz-adv-x="570"
d="M26 1l67 83q-23 35 -35 78.5t-12 97.5q0 62 17 112.5t48 86t75.5 54.5t98.5 19q79 0 138 -42l61 74l60 -45l-68 -84q23 -34 35.5 -78t12.5 -97q0 -62 -17 -112.5t-48 -86t-75.5 -54.5t-98.5 -19q-41 0 -75.5 10.5t-62.5 30.5l-61 -73zM285 75q57 0 91.5 36.5t34.5 106.5
v84q0 27 -6 50l-203 -249q31 -28 83 -28zM159 218q0 -28 6 -50l203 248q-34 29 -83 29q-57 0 -91.5 -36.5t-34.5 -106.5v-84zM293 582l-68 33l91 180l95 -46z" />
    <glyph glyph-name="Scommaaccent" unicode="&#x218;" horiz-adv-x="598"
d="M295 -12q-88 0 -149.5 32t-105.5 86l78 73q37 -45 81.5 -68t101.5 -23q67 0 101 30t34 81q0 41 -24 65t-85 36l-62 11q-102 19 -153 67t-51 132q0 46 17.5 83.5t49 63t76.5 39.5t101 14q79 0 137 -27.5t99 -79.5l-79 -70q-27 35 -66 56t-97 21q-60 0 -93 -24t-33 -70
q0 -44 27 -65.5t84 -32.5l62 -13q105 -20 153.5 -68t48.5 -132q0 -49 -17 -89t-49.5 -68.5t-79.5 -44t-107 -15.5zM294 -56q59 0 59 -53v-12q0 -40 -18.5 -77t-44.5 -60h-69q23 22 35.5 41.5t19.5 45.5q-22 3 -31.5 17.5t-9.5 33.5v11q0 53 59 53z" />
    <glyph glyph-name="scommaaccent" unicode="&#x219;" horiz-adv-x="494"
d="M243 -12q-74 0 -124 26t-87 72l70 64q29 -35 64.5 -54.5t82.5 -19.5q48 0 71.5 18.5t23.5 51.5q0 25 -16.5 42.5t-57.5 22.5l-48 6q-80 10 -125.5 46.5t-45.5 108.5q0 38 14 67.5t39.5 50t61 31.5t78.5 11q70 0 114.5 -22t79.5 -61l-67 -64q-20 24 -52.5 41.5t-74.5 17.5
q-45 0 -66.5 -18t-21.5 -47q0 -30 19 -45t61 -22l48 -6q86 -13 125.5 -50.5t39.5 -100.5q0 -38 -14.5 -68.5t-41.5 -52.5t-65 -34t-85 -12zM243 -56q59 0 59 -53v-12q0 -40 -18.5 -77t-44.5 -60h-69q23 22 35.5 41.5t19.5 45.5q-22 3 -31.5 17.5t-9.5 33.5v11q0 53 59 53z
" />
    <glyph glyph-name="uni021A" unicode="&#x21a;" horiz-adv-x="577"
d="M345 598v-598h-113v598h-208v100h529v-100h-208zM287 -56q59 0 59 -53v-12q0 -40 -18.5 -77t-44.5 -60h-69q23 22 35.5 41.5t19.5 45.5q-22 3 -31.5 17.5t-9.5 33.5v11q0 53 59 53z" />
    <glyph glyph-name="uni021B" unicode="&#x21b;" horiz-adv-x="365"
d="M222 0q-57 0 -86 29.5t-29 83.5v318h-81v89h44q27 0 37.5 12t10.5 39v91h98v-142h109v-89h-109v-342h101v-89h-95zM219 -56q59 0 59 -53v-12q0 -40 -18.5 -77t-44.5 -60h-69q23 22 35.5 41.5t19.5 45.5q-22 3 -31.5 17.5t-9.5 33.5v11q0 53 59 53z" />
    <glyph glyph-name="uni0237" unicode="&#x237;" horiz-adv-x="265"
d="M-3 -111h81v631h109v-590q0 -60 -30.5 -95t-96.5 -35h-63v89z" />
    <glyph glyph-name="uni0259" unicode="&#x259;" horiz-adv-x="556"
d="M400 288v17q0 60 -34.5 98.5t-100.5 38.5q-50 0 -82.5 -22t-52.5 -56l-65 63q29 48 83.5 76.5t126.5 28.5q55 0 99.5 -19t75 -54.5t47 -86t16.5 -112.5t-16.5 -112.5t-47 -86t-75 -54.5t-99.5 -19q-57 0 -100.5 20t-73 55.5t-44 82.5t-14.5 101v41h357zM157 206
q0 -60 31 -96.5t86 -36.5q28 0 51.5 10t40 28t25.5 43t9 55v7h-243v-10z" />
    <glyph glyph-name="uni02BB" unicode="&#x2bb;"
d="M301 587q-29 0 -44 14t-15 39v13q0 40 18.5 76.5t44.5 59.5h69q-23 -21 -35.5 -41t-19.5 -46q22 -3 31.5 -17.5t9.5 -33.5v-11q0 -25 -15 -39t-44 -14z" />
    <glyph glyph-name="uni02BC" unicode="&#x2bc;"
d="M302 542h-72l10 198h120z" />
    <glyph glyph-name="circumflex" unicode="&#x2c6;"
d="M355 778l120 -150l-56 -43l-119 117l-119 -117l-56 43l120 150h110z" />
    <glyph glyph-name="caron" unicode="&#x2c7;"
d="M245 594l-120 150l56 42l119 -116l119 116l56 -42l-120 -150h-110z" />
    <glyph glyph-name="breve" unicode="&#x2d8;"
d="M300 589q-42 0 -70.5 14t-47.5 35t-30.5 46.5t-19.5 48.5l60 30l21 -33q17 -28 35.5 -44.5t51.5 -16.5t51.5 16.5t35.5 44.5l21 33l60 -30q-8 -23 -19.5 -48.5t-30.5 -46.5t-47.5 -35t-70.5 -14z" />
    <glyph glyph-name="dotaccent" unicode="&#x2d9;"
d="M300 605q-36 0 -51.5 16t-15.5 41v18q0 25 15.5 41t51.5 16t51.5 -16t15.5 -41v-18q0 -25 -15.5 -41t-51.5 -16z" />
    <glyph glyph-name="ring" unicode="&#x2da;"
d="M300 568q-27 0 -51 9.5t-41.5 26.5t-27.5 40.5t-10 50.5t10 50.5t27.5 40.5t41.5 26.5t51 9.5t51 -9.5t41.5 -26.5t27.5 -40.5t10 -50.5t-10 -50.5t-27.5 -40.5t-41.5 -26.5t-51 -9.5zM300 628q55 0 55 53v28q0 53 -55 53t-55 -53v-28q0 -53 55 -53z" />
    <glyph glyph-name="ogonek" unicode="&#x2db;"
d="M239 -209q-22 0 -41.5 4.5t-34 14t-23 24.5t-8.5 37q0 41 30 70t81 60l-6 21h70l9 -22q-34 -26 -54.5 -44t-32 -31t-15 -22t-3.5 -18q0 -18 10 -25t24 -7q16 0 28.5 7.5t22.5 18.5l46 -44q-11 -20 -37 -32t-66 -12z" />
    <glyph glyph-name="tilde" unicode="&#x2dc;"
d="M374 607q-25 0 -43 8t-35 16q-23 11 -40.5 17.5t-33.5 6.5q-17 0 -30 -7t-28 -20l-41 52q15 23 40.5 40.5t62.5 17.5q25 0 43 -8t35 -16q23 -11 40.5 -17.5t33.5 -6.5q17 0 30 7t28 20l41 -52q-15 -23 -40.5 -40.5t-62.5 -17.5z" />
    <glyph glyph-name="hungarumlaut" unicode="&#x2dd;"
d="M220 583l-62 29l91 181l89 -44zM399 583l-62 29l91 181l89 -44z" />
    <glyph glyph-name="uni0300" unicode="&#x300;" horiz-adv-x="0"
d="M-128 749l95 46l91 -180l-68 -33z" />
    <glyph glyph-name="uni0301" unicode="&#x301;" horiz-adv-x="0"
d="M12 582l-68 33l91 180l95 -46z" />
    <glyph glyph-name="uni0302" unicode="&#x302;" horiz-adv-x="0"
d="M56 778l120 -150l-56 -43l-119 117l-119 -117l-56 43l120 150h110z" />
    <glyph glyph-name="uni0303" unicode="&#x303;" horiz-adv-x="0"
d="M75 607q-25 0 -43 8t-35 16q-23 11 -40.5 17.5t-33.5 6.5q-17 0 -30 -7t-28 -20l-41 52q15 23 40.5 40.5t62.5 17.5q25 0 43 -8t35 -16q23 -11 40.5 -17.5t33.5 -6.5q17 0 30 7t28 20l41 -52q-15 -23 -40.5 -40.5t-62.5 -17.5z" />
    <glyph glyph-name="uni0304" unicode="&#x304;" horiz-adv-x="0"
d="M-145 714h292v-83h-292v83z" />
    <glyph glyph-name="uni0306" unicode="&#x306;" horiz-adv-x="0"
d="M0 589q-42 0 -70.5 14t-47.5 35t-30.5 46.5t-19.5 48.5l60 30l21 -33q17 -28 35.5 -44.5t51.5 -16.5t51.5 16.5t35.5 44.5l21 33l60 -30q-8 -23 -19.5 -48.5t-30.5 -46.5t-47.5 -35t-70.5 -14z" />
    <glyph glyph-name="uni0307" unicode="&#x307;" horiz-adv-x="0"
d="M1 605q-36 0 -51.5 16t-15.5 41v18q0 25 15.5 41t51.5 16t51.5 -16t15.5 -41v-18q0 -25 -15.5 -41t-51.5 -16z" />
    <glyph glyph-name="uni0308" unicode="&#x308;" horiz-adv-x="0"
d="M-99 610q-34 0 -48 15t-14 38v18q0 23 14 38t48 15t48 -15t14 -38v-18q0 -23 -14 -38t-48 -15zM101 610q-34 0 -48 15t-14 38v18q0 23 14 38t48 15t48 -15t14 -38v-18q0 -23 -14 -38t-48 -15z" />
    <glyph glyph-name="uni0309" unicode="&#x309;" horiz-adv-x="0"
d="M-99 781h123q46 0 64 -18.5t18 -44.5q0 -25 -14 -54t-38 -59l-26 -31l-58 28l50 99h-119v80z" />
    <glyph glyph-name="uni030A" unicode="&#x30a;" horiz-adv-x="0"
d="M1 568q-27 0 -51 9.5t-41.5 26.5t-27.5 40.5t-10 50.5t10 50.5t27.5 40.5t41.5 26.5t51 9.5t51 -9.5t41.5 -26.5t27.5 -40.5t10 -50.5t-10 -50.5t-27.5 -40.5t-41.5 -26.5t-51 -9.5zM1 628q55 0 55 53v28q0 53 -55 53t-55 -53v-28q0 -53 55 -53z" />
    <glyph glyph-name="uni030B" unicode="&#x30b;" horiz-adv-x="0"
d="M-79 583l-62 29l91 181l89 -44zM100 583l-62 29l91 181l89 -44z" />
    <glyph glyph-name="uni030C" unicode="&#x30c;" horiz-adv-x="0"
d="M-54 594l-120 150l56 42l119 -116l119 116l56 -42l-120 -150h-110z" />
    <glyph glyph-name="uni0312" unicode="&#x312;" horiz-adv-x="0"
d="M1 587q-29 0 -44 14t-15 39v13q0 40 18.5 76.5t44.5 59.5h69q-23 -21 -35.5 -41t-19.5 -46q22 -3 31.5 -17.5t9.5 -33.5v-11q0 -25 -15 -39t-44 -14z" />
    <glyph glyph-name="uni0315" unicode="&#x315;" horiz-adv-x="0"
d="M73 542h-72l10 198h120z" />
    <glyph glyph-name="uni031B" unicode="&#x31b;" horiz-adv-x="0"
d="M97 531q0 -37 -15.5 -58t-62.5 -21h-116v68h101v109h93v-98z" />
    <glyph glyph-name="uni0323" unicode="&#x323;" horiz-adv-x="0"
d="M0 -184q-34 0 -49 15t-15 38v18q0 23 15 38t49 15t49 -15t15 -38v-18q0 -23 -15 -38t-49 -15z" />
    <glyph glyph-name="uni0326" unicode="&#x326;" horiz-adv-x="0"
d="M-1 -56q59 0 59 -53v-12q0 -40 -18.5 -77t-44.5 -60h-69q23 22 35.5 41.5t19.5 45.5q-22 3 -31.5 17.5t-9.5 33.5v11q0 53 59 53z" />
    <glyph glyph-name="uni0327" unicode="&#x327;" horiz-adv-x="0"
d="M14 -209q-46 0 -72.5 14t-37.5 28l42 48q9 -12 24.5 -20.5t38.5 -8.5q19 0 31.5 7t12.5 22q0 12 -14 23.5t-57 16.5l-25 3l20 100h57l-17 -82l4 -4q11 3 21.5 5t21.5 2q29 0 49.5 -16.5t20.5 -51.5q0 -23 -10 -39t-26.5 -26.5t-38 -15.5t-45.5 -5z" />
    <glyph glyph-name="uni0328" unicode="&#x328;" horiz-adv-x="0"
d="M-76 -209q-22 0 -41.5 4.5t-34 14t-23 24.5t-8.5 37q0 41 30 70t81 60l-6 21h70l9 -22q-34 -26 -54.5 -44t-32 -31t-15 -22t-3.5 -18q0 -18 10 -25t24 -7q16 0 28.5 7.5t22.5 18.5l46 -44q-11 -20 -37 -32t-66 -12z" />
    <glyph glyph-name="uni037E" unicode="&#x37e;" horiz-adv-x="310"
d="M155 139q37 0 55 -19t18 -49v-16q0 -49 -26.5 -102.5t-71.5 -90.5h-81q32 32 53 62t32 67q-26 5 -39 22.5t-13 41.5v16q0 30 18 49t55 19zM155 381q-37 0 -55 19.5t-18 48.5v15q0 29 18 48.5t55 19.5t55 -19.5t18 -48.5v-15q0 -29 -18 -48.5t-55 -19.5z" />
    <glyph glyph-name="tonos" unicode="&#x384;"
d="M343 582l-73 10l31 203l103 -14z" />
    <glyph glyph-name="dieresistonos" unicode="&#x385;"
d="M183 612q-26 0 -39.5 14t-13.5 38v16q0 24 13.5 38t39.5 14t39.5 -14t13.5 -37v-17q0 -24 -13.5 -38t-39.5 -14zM319 582l-55 9l32 204l84 -13zM443 612q-27 0 -40 14t-13 38v16q0 24 13 38t40 14q26 0 39.5 -14t13.5 -37v-17q0 -24 -13.5 -38t-39.5 -14z" />
    <glyph glyph-name="Alphatonos" unicode="&#x386;" horiz-adv-x="662"
d="M522 0l-63 189h-261l-61 -189h-115l238 698h142l238 -698h-118zM331 594h-5l-101 -308h206zM111 582l-73 10l31 203l103 -14z" />
    <glyph glyph-name="anoteleia" unicode="&#x387;" horiz-adv-x="310"
d="M155 381q-37 0 -55 19.5t-18 48.5v15q0 29 18 48.5t55 19.5t55 -19.5t18 -48.5v-15q0 -29 -18 -48.5t-55 -19.5z" />
    <glyph glyph-name="Epsilontonos" unicode="&#x388;" horiz-adv-x="648"
d="M141 0v698h447v-100h-334v-194h303v-100h-303v-204h334v-100h-447zM54 582l-73 10l31 203l103 -14z" />
    <glyph glyph-name="Etatonos" unicode="&#x389;" horiz-adv-x="769"
d="M570 304h-316v-304h-113v698h113v-294h316v294h113v-698h-113v304zM54 582l-73 10l31 203l103 -14z" />
    <glyph glyph-name="Iotatonos" unicode="&#x38a;" horiz-adv-x="502"
d="M142 0v92h95v514h-95v92h304v-92h-96v-514h96v-92h-304zM54 582l-73 10l31 203l103 -14z" />
    <glyph glyph-name="Omicrontonos" unicode="&#x38c;" horiz-adv-x="732"
d="M376 -12q-68 0 -123.5 23.5t-95 69t-61 113t-21.5 155.5t21.5 155.5t61 113t95 69t123.5 23.5t123.5 -23.5t95 -69t61 -113t21.5 -155.5t-21.5 -155.5t-61 -113t-95 -69t-123.5 -23.5zM376 89q40 0 73.5 14t57 40.5t36.5 64.5t13 86v110q0 48 -13 86t-36.5 64.5t-57 40.5
t-73.5 14q-41 0 -74 -14t-56.5 -40.5t-36.5 -64.5t-13 -86v-110q0 -48 13 -86t36.5 -64.5t56.5 -40.5t74 -14zM54 582l-73 10l31 203l103 -14z" />
    <glyph glyph-name="Upsilontonos" unicode="&#x38e;" horiz-adv-x="726"
d="M360 0v275l-240 423h129l170 -311h3l169 311h124l-242 -421v-277h-113zM54 582l-73 10l31 203l103 -14z" />
    <glyph glyph-name="Omegatonos" unicode="&#x38f;" horiz-adv-x="738"
d="M73 100h159v10q-68 34 -111.5 103.5t-43.5 173.5q0 63 18.5 121.5t56 103t94 71.5t132.5 27t132.5 -27t94 -71.5t56 -103t18.5 -121.5q0 -52 -11.5 -95.5t-32 -78t-49 -60.5t-62.5 -43v-10h159v-100h-246v151q24 8 46 27t39 45t27 57.5t10 64.5v86q0 33 -12.5 65
t-35.5 57t-56.5 40.5t-76.5 15.5t-76.5 -15.5t-57 -40.5t-35.5 -57t-12 -65v-86q0 -33 10 -64.5t27 -57.5t39 -45t46 -27v-151h-246v100zM54 582l-73 10l31 203l103 -14z" />
    <glyph glyph-name="iotadieresistonos" unicode="&#x390;" horiz-adv-x="310"
d="M288 0h-95q-57 0 -86 29.5t-29 83.5v407h109v-431h101v-89zM16 612q-26 0 -39.5 14t-13.5 38v16q0 24 13.5 38t39.5 14t39.5 -14t13.5 -37v-17q0 -24 -13.5 -38t-39.5 -14zM152 582l-55 9l32 204l84 -13zM276 612q-27 0 -40 14t-13 38v16q0 24 13 38t40 14q26 0 39.5 -14
t13.5 -37v-17q0 -24 -13.5 -38t-39.5 -14z" />
    <glyph glyph-name="Alpha" unicode="&#x391;" horiz-adv-x="662"
d="M522 0l-63 189h-261l-61 -189h-115l238 698h142l238 -698h-118zM331 594h-5l-101 -308h206z" />
    <glyph glyph-name="Beta" unicode="&#x392;" horiz-adv-x="659"
d="M86 698h309q87 0 136.5 -49t49.5 -131q0 -39 -11 -66.5t-28 -45t-39 -26t-43 -10.5v-6q21 -1 46.5 -10t47.5 -28.5t37 -50t15 -74.5q0 -42 -13.5 -79t-37.5 -64t-57 -42.5t-72 -15.5h-340v698zM199 97h194q44 0 69 23t25 66v34q0 43 -25 66t-69 23h-194v-212zM199 403
h175q42 0 65 21.5t23 61.5v32q0 40 -23 61.5t-65 21.5h-175v-198z" />
    <glyph glyph-name="Gamma" unicode="&#x393;" horiz-adv-x="505"
d="M86 698h393v-100h-280v-598h-113v698z" />
    <glyph glyph-name="uni0394" unicode="&#x394;" horiz-adv-x="660"
d="M46 95l213 603h142l213 -603v-95h-568v95zM331 594h-5l-165 -494h334z" />
    <glyph glyph-name="Epsilon" unicode="&#x395;" horiz-adv-x="593"
d="M86 0v698h447v-100h-334v-194h303v-100h-303v-204h334v-100h-447z" />
    <glyph glyph-name="Zeta" unicode="&#x396;" horiz-adv-x="591"
d="M554 0h-517v101l379 497h-359v100h486v-101l-379 -497h390v-100z" />
    <glyph glyph-name="Eta" unicode="&#x397;" horiz-adv-x="714"
d="M515 304h-316v-304h-113v698h113v-294h316v294h113v-698h-113v304z" />
    <glyph glyph-name="Theta" unicode="&#x398;" horiz-adv-x="715"
d="M357 -12q-69 0 -125 23.5t-95 69t-60.5 113t-21.5 155.5t21.5 155.5t60.5 113t95 69t125 23.5t125 -23.5t95.5 -69t61 -113t21.5 -155.5t-21.5 -155.5t-61 -113t-95.5 -69t-125 -23.5zM357 89q84 0 133 54.5t49 150.5v110q0 96 -49 150.5t-133 54.5q-83 0 -132 -54.5
t-49 -150.5v-110q0 -96 49 -150.5t132 -54.5zM230 303v100h255v-100h-255z" />
    <glyph glyph-name="Iota" unicode="&#x399;" horiz-adv-x="416"
d="M56 0v92h95v514h-95v92h304v-92h-96v-514h96v-92h-304z" />
    <glyph glyph-name="Kappa" unicode="&#x39a;" horiz-adv-x="660"
d="M295 326l-96 -110v-216h-113v698h113v-354h4l100 127l188 227h132l-249 -294l269 -404h-136z" />
    <glyph glyph-name="Lambda" unicode="&#x39b;" horiz-adv-x="647"
d="M393 698l232 -698h-118l-110 345l-74 247h-4l-73 -247l-110 -345h-114l233 698h138z" />
    <glyph glyph-name="Mu" unicode="&#x39c;" horiz-adv-x="814"
d="M620 534h-5l-55 -113l-153 -279l-153 279l-55 113h-5v-534h-108v698h134l187 -355h6l187 355h128v-698h-108v534z" />
    <glyph glyph-name="Nu" unicode="&#x39d;" horiz-adv-x="714"
d="M274 386l-77 148h-3v-534h-108v698h126l228 -386l77 -148h3v534h108v-698h-126z" />
    <glyph glyph-name="Xi" unicode="&#x39e;" horiz-adv-x="593"
d="M60 698h473v-100h-473v100zM109 404h375v-100h-375v100zM60 100h473v-100h-473v100z" />
    <glyph glyph-name="Omicron" unicode="&#x39f;" horiz-adv-x="712"
d="M356 -12q-68 0 -123.5 23.5t-95 69t-61 113t-21.5 155.5t21.5 155.5t61 113t95 69t123.5 23.5t123.5 -23.5t95 -69t61 -113t21.5 -155.5t-21.5 -155.5t-61 -113t-95 -69t-123.5 -23.5zM356 89q40 0 73.5 14t57 40.5t36.5 64.5t13 86v110q0 48 -13 86t-36.5 64.5t-57 40.5
t-73.5 14q-41 0 -74 -14t-56.5 -40.5t-36.5 -64.5t-13 -86v-110q0 -48 13 -86t36.5 -64.5t56.5 -40.5t74 -14z" />
    <glyph glyph-name="Pi" unicode="&#x3a0;" horiz-adv-x="699"
d="M86 698h527v-698h-113v598h-301v-598h-113v698z" />
    <glyph glyph-name="Rho" unicode="&#x3a1;" horiz-adv-x="627"
d="M86 0v698h300q97 0 150 -57t53 -153t-53 -153t-150 -57h-187v-278h-113zM199 377h180q43 0 67 22.5t24 64.5v48q0 42 -24 64.5t-67 22.5h-180v-222z" />
    <glyph glyph-name="Sigma" unicode="&#x3a3;" horiz-adv-x="587"
d="M42 0v101l237 250l-228 246v101h479v-100h-342l226 -244l-241 -254h357v-100h-488z" />
    <glyph glyph-name="Tau" unicode="&#x3a4;" horiz-adv-x="577"
d="M345 598v-598h-113v598h-208v100h529v-100h-208z" />
    <glyph glyph-name="Upsilon" unicode="&#x3a5;" horiz-adv-x="617"
d="M251 0v275l-240 423h129l170 -311h3l169 311h124l-242 -421v-277h-113z" />
    <glyph glyph-name="Phi" unicode="&#x3a6;" horiz-adv-x="851"
d="M369 31h-15q-72 0 -129 23.5t-96.5 66.5t-60 102.5t-20.5 130.5t20.5 130.5t60 102t96.5 66.5t129 24h15v54h113v-54h16q72 0 129 -24t96 -66.5t59.5 -102t20.5 -130.5t-20.5 -130.5t-59.5 -102.5t-96 -66.5t-129 -23.5h-16v-66h-113v66zM371 583h-16q-41 0 -76 -14.5
t-60 -40.5t-39 -62.5t-14 -80.5v-62q0 -44 14 -80.5t39 -62.5t60 -40.5t76 -14.5h16v458zM496 125q41 0 76 14.5t60 40.5t39 62.5t14 80.5v62q0 44 -14 80.5t-39 62.5t-60 40.5t-76 14.5h-16v-458h16z" />
    <glyph glyph-name="Chi" unicode="&#x3a7;" horiz-adv-x="639"
d="M618 0h-133l-169 278h-3l-167 -278h-125l226 357l-218 341h133l159 -260h2l161 260h125l-220 -340z" />
    <glyph glyph-name="Psi" unicode="&#x3a8;" horiz-adv-x="811"
d="M349 191q-134 0 -208 70t-74 207v230h113v-230q0 -51 12.5 -86t35 -56.5t53.5 -31t68 -9.5v413h113v-413q37 0 68 9.5t53.5 31t35 56.5t12.5 86v230h113v-230q0 -137 -74 -207t-208 -70v-191h-113v191z" />
    <glyph glyph-name="uni03A9" unicode="&#x3a9;" horiz-adv-x="720"
d="M55 100h159v10q-68 34 -111.5 103.5t-43.5 173.5q0 63 18.5 121.5t56 103t94 71.5t132.5 27t132.5 -27t94 -71.5t56 -103t18.5 -121.5q0 -52 -11.5 -95.5t-32 -78t-49 -60.5t-62.5 -43v-10h159v-100h-246v151q24 8 46 27t39 45t27 57.5t10 64.5v86q0 33 -12.5 65
t-35.5 57t-56.5 40.5t-76.5 15.5t-76.5 -15.5t-57 -40.5t-35.5 -57t-12 -65v-86q0 -33 10 -64.5t27 -57.5t39 -45t46 -27v-151h-246v100z" />
    <glyph glyph-name="Iotadieresis" unicode="&#x3aa;" horiz-adv-x="416"
d="M56 0v92h95v514h-95v92h304v-92h-96v-514h96v-92h-304zM108 776q-34 0 -48.5 15.5t-14.5 38.5v18q0 23 14.5 38.5t48.5 15.5t48.5 -15.5t14.5 -38.5v-18q0 -23 -14.5 -38.5t-48.5 -15.5zM308 776q-34 0 -48.5 15.5t-14.5 38.5v18q0 23 14.5 38.5t48.5 15.5t48.5 -15.5
t14.5 -38.5v-18q0 -23 -14.5 -38.5t-48.5 -15.5z" />
    <glyph glyph-name="Upsilondieresis" unicode="&#x3ab;" horiz-adv-x="617"
d="M251 0v275l-240 423h129l170 -311h3l169 311h124l-242 -421v-277h-113zM208 776q-34 0 -48.5 15.5t-14.5 38.5v18q0 23 14.5 38.5t48.5 15.5t48.5 -15.5t14.5 -38.5v-18q0 -23 -14.5 -38.5t-48.5 -15.5zM408 776q-34 0 -48.5 15.5t-14.5 38.5v18q0 23 14.5 38.5
t48.5 15.5t48.5 -15.5t14.5 -38.5v-18q0 -23 -14.5 -38.5t-48.5 -15.5z" />
    <glyph glyph-name="alphatonos" unicode="&#x3ac;" horiz-adv-x="654"
d="M619 0h-51q-49 0 -73.5 20.5t-34.5 71.5l-13 77h-4q-22 -91 -66.5 -136t-122.5 -45q-47 0 -85 18.5t-65 53.5t-42 85.5t-15 114.5q0 63 15 113.5t42 86t65 54t85 18.5q78 0 124 -44t69 -137h4l24 94l25 75h114l-112 -257l62 -174h55v-89zM260 80q36 0 61 22.5t47 81.5
l27 76l-27 76q-22 59 -47 81.5t-61 22.5q-42 0 -70 -35.5t-28 -107.5v-75q0 -72 28 -107t70 -35zM311 582l-73 10l31 203l103 -14z" />
    <glyph glyph-name="epsilontonos" unicode="&#x3ad;" horiz-adv-x="522"
d="M496 89q-69 -101 -228 -101q-106 0 -161.5 42t-55.5 112q0 55 33 86t93 40v5q-56 7 -85 34.5t-29 75.5q0 32 14 59t41 47t66 31.5t89 11.5q76 0 129.5 -24t87.5 -69l-70 -64q-22 32 -58 49.5t-85 17.5q-53 0 -77 -18.5t-24 -43.5v-12q0 -28 21.5 -44.5t60.5 -16.5h113
v-80h-119q-88 0 -88 -65v-12q0 -35 27.5 -53.5t86.5 -18.5q54 0 91.5 19t62.5 55zM308 582l-73 10l31 203l103 -14z" />
    <glyph glyph-name="etatonos" unicode="&#x3ae;" horiz-adv-x="589"
d="M87 0v431h-55v89h66q45 0 70 -23t27 -65h5q17 44 52 72t95 28q80 0 124.5 -52.5t44.5 -149.5v-530h-109v516q0 122 -98 122q-21 0 -41.5 -5.5t-36.5 -16.5t-25.5 -28t-9.5 -40v-348h-109zM337 582l-73 10l31 203l103 -14z" />
    <glyph glyph-name="iotatonos" unicode="&#x3af;" horiz-adv-x="310"
d="M288 0h-95q-57 0 -86 29.5t-29 83.5v407h109v-431h101v-89zM173 582l-73 10l31 203l103 -14z" />
    <glyph glyph-name="upsilondieresistonos" unicode="&#x3b0;" horiz-adv-x="574"
d="M180 224q0 -75 25 -110t82 -35t82 35t25 110v296h109v-277q0 -131 -54 -193t-162 -62t-162 62t-54 193v277h109v-296zM167 612q-26 0 -39.5 14t-13.5 38v16q0 24 13.5 38t39.5 14t39.5 -14t13.5 -37v-17q0 -24 -13.5 -38t-39.5 -14zM303 582l-55 9l32 204l84 -13z
M427 612q-27 0 -40 14t-13 38v16q0 24 13 38t40 14q26 0 39.5 -14t13.5 -37v-17q0 -24 -13.5 -38t-39.5 -14z" />
    <glyph glyph-name="alpha" unicode="&#x3b1;" horiz-adv-x="654"
d="M619 0h-51q-49 0 -73.5 20.5t-34.5 71.5l-13 77h-4q-22 -91 -66.5 -136t-122.5 -45q-47 0 -85 18.5t-65 53.5t-42 85.5t-15 114.5q0 63 15 113.5t42 86t65 54t85 18.5q78 0 124 -44t69 -137h4l24 94l25 75h114l-112 -257l62 -174h55v-89zM260 80q36 0 61 22.5t47 81.5
l27 76l-27 76q-22 59 -47 81.5t-61 22.5q-42 0 -70 -35.5t-28 -107.5v-75q0 -72 28 -107t70 -35z" />
    <glyph glyph-name="beta" unicode="&#x3b2;" horiz-adv-x="595"
d="M78 503q0 118 55.5 183.5t164.5 65.5q52 0 91.5 -13.5t66.5 -38t41 -58.5t14 -74q0 -36 -10 -65t-27.5 -50t-40.5 -34.5t-49 -19.5v-4q32 -4 61.5 -16.5t51.5 -34.5t35 -54t13 -76q0 -49 -14 -90.5t-40.5 -71.5t-65.5 -47t-88 -17q-52 0 -90 22.5t-55 61.5h-5v-272h-109
v703zM259 437h41q48 0 73 26.5t25 71.5v27q0 45 -24.5 72t-78.5 27q-53 0 -80.5 -32.5t-27.5 -99.5v-372q0 -37 34 -57.5t84 -20.5q60 0 93.5 31.5t33.5 90.5v28q0 57 -33.5 88t-92.5 31h-47v89z" />
    <glyph glyph-name="gamma" unicode="&#x3b3;" horiz-adv-x="518"
d="M206 0l-145 431h-52v89h48q45 0 69.5 -17t38.5 -63l53 -166l41 -158h6l48 158l87 246h104l-189 -520v-200h-109v200z" />
    <glyph glyph-name="delta" unicode="&#x3b4;" horiz-adv-x="562"
d="M287 651l-79 7v-4l126 -92q52 -37 88 -73t58 -72.5t31.5 -75t9.5 -80.5q0 -63 -17 -114t-48 -86t-75.5 -54t-98.5 -19t-98.5 19.5t-75.5 54t-48 82.5t-17 106q0 62 16.5 110t44.5 80.5t64.5 49t76.5 16.5v6l-139 115v113h363v-89h-182zM406 245q0 35 -4.5 63t-16.5 53.5
t-33 51t-54 54.5q-63 -8 -101.5 -54t-38.5 -125v-72q0 -69 34 -103.5t90 -34.5t90 34.5t34 103.5v29z" />
    <glyph glyph-name="epsilon" unicode="&#x3b5;" horiz-adv-x="522"
d="M496 89q-69 -101 -228 -101q-106 0 -161.5 42t-55.5 112q0 55 33 86t93 40v5q-56 7 -85 34.5t-29 75.5q0 32 14 59t41 47t66 31.5t89 11.5q76 0 129.5 -24t87.5 -69l-70 -64q-22 32 -58 49.5t-85 17.5q-53 0 -77 -18.5t-24 -43.5v-12q0 -28 21.5 -44.5t60.5 -16.5h113
v-80h-119q-88 0 -88 -65v-12q0 -35 27.5 -53.5t86.5 -18.5q54 0 91.5 19t62.5 55z" />
    <glyph glyph-name="zeta" unicode="&#x3b6;" horiz-adv-x="432"
d="M61 740h362v-84l-174 -223q-53 -69 -72.5 -115.5t-19.5 -85.5v-14q0 -45 24.5 -73t81.5 -43l73 -19q38 -11 56 -33.5t18 -52.5q0 -17 -8 -43l-40 -120l-95 31l40 122l-73 19q-53 14 -90 32.5t-59.5 44t-32.5 58t-10 73.5q0 29 5 56.5t18.5 58t38 67.5t63.5 85l140 172v5
l-71 -7h-175v89z" />
    <glyph glyph-name="eta" unicode="&#x3b7;" horiz-adv-x="589"
d="M87 0v431h-55v89h66q45 0 70 -23t27 -65h5q17 44 52 72t95 28q80 0 124.5 -52.5t44.5 -149.5v-530h-109v516q0 122 -98 122q-21 0 -41.5 -5.5t-36.5 -16.5t-25.5 -28t-9.5 -40v-348h-109z" />
    <glyph glyph-name="theta" unicode="&#x3b8;" horiz-adv-x="568"
d="M284 752q55 0 98.5 -19t73.5 -64t46 -118t16 -181t-16 -181t-46 -118t-73.5 -64t-98.5 -19t-98.5 19t-73.5 64t-46 118t-16 181t16 181t46 118t73.5 64t98.5 19zM284 77q28 0 50.5 9.5t37.5 32t23 58.5t8 90v59h-238v-59q0 -54 8 -90t23 -58.5t37 -32t51 -9.5zM165 415
h238v58q0 54 -8 90t-23 58.5t-37.5 32t-50.5 9.5q-29 0 -51 -9.5t-37 -32t-23 -58.5t-8 -90v-58z" />
    <glyph glyph-name="iota" unicode="&#x3b9;" horiz-adv-x="310"
d="M288 0h-95q-57 0 -86 29.5t-29 83.5v407h109v-431h101v-89z" />
    <glyph glyph-name="kappa" unicode="&#x3ba;" horiz-adv-x="550"
d="M254 234l-67 -69v-165h-109v520h109v-241h5l57 71l122 133q20 22 39 29.5t48 7.5h50v-89h-60l-120 -126l206 -305h-130z" />
    <glyph glyph-name="lambda" unicode="&#x3bb;" horiz-adv-x="521"
d="M161 651h-97v89h93q46 0 69 -17.5t36 -57.5l188 -576h63v-89h-59q-46 0 -69.5 17.5t-36.5 57.5l-55 170l-39 155h-7l-46 -155l-91 -245h-105l198 520z" />
    <glyph glyph-name="uni03BC" unicode="&#x3bc;" horiz-adv-x="594"
d="M78 -200v720h109v-317q0 -121 100 -121q21 0 41 5.5t35.5 16.5t25 28t9.5 40v348h109v-431h55v-89h-52q-51 0 -78 24t-32 65h-4q-31 -101 -118 -101q-80 0 -113 79h-4l26 -145v-122h-109z" />
    <glyph glyph-name="nu" unicode="&#x3bd;" horiz-adv-x="523"
d="M198 0l-137 431h-52v89h48q45 0 70 -17.5t38 -63.5l53 -174l43 -164h7l50 164l87 255h104l-183 -520h-128z" />
    <glyph glyph-name="xi" unicode="&#x3be;" horiz-adv-x="450"
d="M301 651q-51 0 -80 -28.5t-29 -83.5v-14q0 -47 27.5 -73t78.5 -26h71v-89h-91q-59 0 -87 -28t-28 -77v-20q0 -43 24.5 -69t81.5 -41l73 -19q38 -11 56 -33.5t18 -52.5q0 -10 -1.5 -20.5t-6.5 -22.5l-40 -120l-95 31l40 122l-73 19q-53 14 -89.5 32.5t-59 43.5t-32 58
t-9.5 75q0 65 39.5 112t111.5 57v4q-120 25 -120 136q0 42 22.5 73.5t63.5 45.5v8h-127v89h393v-89h-132z" />
    <glyph glyph-name="omicron" unicode="&#x3bf;" horiz-adv-x="564"
d="M282 -12q-54 0 -98.5 19t-75.5 54.5t-48 86t-17 112.5t17 112.5t48 86t75.5 54.5t98.5 19t98.5 -19t75.5 -54.5t48 -86t17 -112.5t-17 -112.5t-48 -86t-75.5 -54.5t-98.5 -19zM282 78q56 0 90 34.5t34 103.5v88q0 69 -34 103.5t-90 34.5t-90 -34.5t-34 -103.5v-88
q0 -69 34 -103.5t90 -34.5z" />
    <glyph glyph-name="pi" unicode="&#x3c0;" horiz-adv-x="636"
d="M504 89h65v-89h-59q-57 0 -86 30t-29 82v319h-174v-431h-109v431h-88v89h579v-89h-99v-342z" />
    <glyph glyph-name="rho" unicode="&#x3c1;" horiz-adv-x="563"
d="M54 282q0 56 14 102t43 79t72 51t102 18q118 0 174.5 -69.5t56.5 -200.5q0 -132 -54 -203t-151 -71q-50 0 -88.5 22.5t-55.5 60.5h-4v-271h-109v482zM278 78q59 0 91 36.5t32 104.5v85q0 66 -31 102t-88 36t-88 -36t-31 -102v-147q0 -18 9 -33t25 -25t37 -15.5t44 -5.5z
" />
    <glyph glyph-name="sigma1" unicode="&#x3c2;" horiz-adv-x="493"
d="M329 -13l-96 27q-49 13 -85 33t-59 51t-34.5 73t-11.5 98q0 60 16 108.5t46 83t72.5 53t95.5 18.5q73 0 122.5 -34t73.5 -94l-90 -42q-11 36 -38 57.5t-69 21.5q-54 0 -84 -37.5t-30 -97.5v-64q0 -53 29 -87t91 -51l80 -21q38 -11 56 -33.5t18 -52.5q0 -17 -8 -43
l-40 -120l-95 31z" />
    <glyph glyph-name="sigma" unicode="&#x3c3;" horiz-adv-x="585"
d="M434 431v-8q45 -23 66 -64.5t21 -108.5q0 -59 -17 -107t-48 -82.5t-75.5 -53.5t-98.5 -19t-98.5 19t-75.5 54t-48 84t-17 109q0 61 16.5 110.5t48 84t77 53t104.5 18.5h272v-89h-127zM289 431q-61 0 -96 -34t-35 -102v-80q0 -69 34 -103t90 -34t90 34t34 103v80
q0 45 -13.5 77t-42.5 59h-61z" />
    <glyph glyph-name="tau" unicode="&#x3c4;" horiz-adv-x="487"
d="M292 0q-57 0 -86 29.5t-29 83.5v318h-157v89h437v-89h-171v-342h111v-89h-105z" />
    <glyph glyph-name="upsilon" unicode="&#x3c5;" horiz-adv-x="574"
d="M180 224q0 -75 25 -110t82 -35t82 35t25 110v296h109v-277q0 -131 -54 -193t-162 -62t-162 62t-54 193v277h109v-296z" />
    <glyph glyph-name="phi" unicode="&#x3c6;" horiz-adv-x="740"
d="M309 -12q-58 0 -106.5 18.5t-83 53.5t-53.5 84.5t-19 111.5q0 101 35 171t104 105l66 -70q-48 -28 -69 -71.5t-21 -108.5v-54q0 -39 11.5 -67t31.5 -46.5t47 -27.5t57 -9v211q0 243 188 243q96 0 145.5 -60t49.5 -199t-73 -212t-203 -73v-188h-107v188zM416 78
q73 0 117 35t44 115v84q0 73 -21 101.5t-59 28.5t-59.5 -28.5t-21.5 -101.5v-234z" />
    <glyph glyph-name="chi" unicode="&#x3c7;" horiz-adv-x="517"
d="M79 520q45 0 67.5 -16t37.5 -55l79 -192h3l118 263h117l-175 -348l118 -283h68v-89h-63q-45 0 -68.5 16.5t-37.5 54.5l-83 213h-4l-124 -284h-117l181 368l-113 263h-68v89h64z" />
    <glyph glyph-name="psi" unicode="&#x3c8;" horiz-adv-x="739"
d="M316 -200v188q-119 0 -182 68.5t-63 199.5v264h109v-291q0 -151 136 -151v632h107v-632q136 0 136 151v291h109v-264q0 -131 -63 -199.5t-182 -68.5v-188h-107z" />
    <glyph glyph-name="omega" unicode="&#x3c9;" horiz-adv-x="751"
d="M430 208q0 -73 20.5 -101t58.5 -28t58.5 28t20.5 101v74q0 125 -90 180l66 70q69 -33 104 -101.5t35 -185.5q0 -67 -13 -115.5t-36.5 -80t-56.5 -46.5t-74 -15q-61 0 -97 35t-49 96h-4q-13 -61 -48.5 -96t-96.5 -35q-41 0 -74 15t-56.5 46.5t-36.5 80t-13 115.5
q0 112 35.5 182.5t103.5 104.5l66 -70q-48 -28 -69 -71.5t-21 -108.5v-74q0 -73 20.5 -101t58.5 -28t58.5 28t20.5 101v150h109v-150z" />
    <glyph glyph-name="iotadieresis" unicode="&#x3ca;" horiz-adv-x="310"
d="M288 0h-95q-57 0 -86 29.5t-29 83.5v407h109v-431h101v-89zM41 610q-34 0 -48 15t-14 38v18q0 23 14 38t48 15t48 -15t14 -38v-18q0 -23 -14 -38t-48 -15zM241 610q-34 0 -48 15t-14 38v18q0 23 14 38t48 15t48 -15t14 -38v-18q0 -23 -14 -38t-48 -15z" />
    <glyph glyph-name="upsilondieresis" unicode="&#x3cb;" horiz-adv-x="574"
d="M180 224q0 -75 25 -110t82 -35t82 35t25 110v296h109v-277q0 -131 -54 -193t-162 -62t-162 62t-54 193v277h109v-296zM191 610q-34 0 -48 15t-14 38v18q0 23 14 38t48 15t48 -15t14 -38v-18q0 -23 -14 -38t-48 -15zM391 610q-34 0 -48 15t-14 38v18q0 23 14 38t48 15
t48 -15t14 -38v-18q0 -23 -14 -38t-48 -15z" />
    <glyph glyph-name="omicrontonos" unicode="&#x3cc;" horiz-adv-x="564"
d="M282 -12q-54 0 -98.5 19t-75.5 54.5t-48 86t-17 112.5t17 112.5t48 86t75.5 54.5t98.5 19t98.5 -19t75.5 -54.5t48 -86t17 -112.5t-17 -112.5t-48 -86t-75.5 -54.5t-98.5 -19zM282 78q56 0 90 34.5t34 103.5v88q0 69 -34 103.5t-90 34.5t-90 -34.5t-34 -103.5v-88
q0 -69 34 -103.5t90 -34.5zM315 582l-73 10l31 203l103 -14z" />
    <glyph glyph-name="upsilontonos" unicode="&#x3cd;" horiz-adv-x="574"
d="M180 224q0 -75 25 -110t82 -35t82 35t25 110v296h109v-277q0 -131 -54 -193t-162 -62t-162 62t-54 193v277h109v-296zM324 582l-73 10l31 203l103 -14z" />
    <glyph glyph-name="omegatonos" unicode="&#x3ce;" horiz-adv-x="751"
d="M430 208q0 -73 20.5 -101t58.5 -28t58.5 28t20.5 101v74q0 125 -90 180l66 70q69 -33 104 -101.5t35 -185.5q0 -67 -13 -115.5t-36.5 -80t-56.5 -46.5t-74 -15q-61 0 -97 35t-49 96h-4q-13 -61 -48.5 -96t-96.5 -35q-41 0 -74 15t-56.5 46.5t-36.5 80t-13 115.5
q0 112 35.5 182.5t103.5 104.5l66 -70q-48 -28 -69 -71.5t-21 -108.5v-74q0 -73 20.5 -101t58.5 -28t58.5 28t20.5 101v150h109v-150zM408 582l-73 10l31 203l103 -14z" />
    <glyph glyph-name="uni0400" unicode="&#x400;" horiz-adv-x="593"
d="M86 0v698h447v-100h-334v-194h303v-100h-303v-204h334v-100h-447zM180 915l95 46l91 -180l-68 -32z" />
    <glyph glyph-name="uni0401" unicode="&#x401;" horiz-adv-x="593"
d="M86 0v698h447v-100h-334v-194h303v-100h-303v-204h334v-100h-447zM209 776q-34 0 -48.5 15.5t-14.5 38.5v18q0 23 14.5 38.5t48.5 15.5t48.5 -15.5t14.5 -38.5v-18q0 -23 -14.5 -38.5t-48.5 -15.5zM409 776q-34 0 -48.5 15.5t-14.5 38.5v18q0 23 14.5 38.5t48.5 15.5
t48.5 -15.5t14.5 -38.5v-18q0 -23 -14.5 -38.5t-48.5 -15.5z" />
    <glyph glyph-name="uni0402" unicode="&#x402;" horiz-adv-x="795"
d="M493 -70h92q19 18 30 51t11 85v126q0 78 -36 114.5t-108 36.5q-44 0 -78.5 -5.5t-58.5 -15.5v-322h-113v598h-208v100h529v-100h-208v-180h5q26 11 61.5 17t78.5 6q127 0 188 -62t61 -189v-126q0 -121 -51 -179t-146 -58h-49v103z" />
    <glyph glyph-name="uni0403" unicode="&#x403;" horiz-adv-x="505"
d="M86 698h393v-100h-280v-598h-113v698zM293 749l-68 32l91 180l95 -46z" />
    <glyph glyph-name="uni0404" unicode="&#x404;" horiz-adv-x="648"
d="M355 -12q-144 0 -222 90t-78 267t78 271t222 94q96 0 156.5 -39.5t98.5 -114.5l-93 -55q-20 50 -57.5 79t-104.5 29q-87 0 -132.5 -54.5t-47.5 -149.5v-2h267v-100h-267v-15q2 -95 47.5 -147t132.5 -52q69 0 109 31.5t59 83.5l91 -57q-35 -75 -98 -117t-161 -42z" />
    <glyph glyph-name="uni0405" unicode="&#x405;" horiz-adv-x="598"
d="M295 -12q-88 0 -149.5 32t-105.5 86l78 73q37 -45 81.5 -68t101.5 -23q67 0 101 30t34 81q0 41 -24 65t-85 36l-62 11q-102 19 -153 67t-51 132q0 46 17.5 83.5t49 63t76.5 39.5t101 14q79 0 137 -27.5t99 -79.5l-79 -70q-27 35 -66 56t-97 21q-60 0 -93 -24t-33 -70
q0 -44 27 -65.5t84 -32.5l62 -13q105 -20 153.5 -68t48.5 -132q0 -49 -17 -89t-49.5 -68.5t-79.5 -44t-107 -15.5z" />
    <glyph glyph-name="uni0406" unicode="&#x406;" horiz-adv-x="416"
d="M56 0v92h95v514h-95v92h304v-92h-96v-514h96v-92h-304z" />
    <glyph glyph-name="uni0407" unicode="&#x407;" horiz-adv-x="416"
d="M56 0v92h95v514h-95v92h304v-92h-96v-514h96v-92h-304zM108 776q-34 0 -48.5 15.5t-14.5 38.5v18q0 23 14.5 38.5t48.5 15.5t48.5 -15.5t14.5 -38.5v-18q0 -23 -14.5 -38.5t-48.5 -15.5zM308 776q-34 0 -48.5 15.5t-14.5 38.5v18q0 23 14.5 38.5t48.5 15.5t48.5 -15.5
t14.5 -38.5v-18q0 -23 -14.5 -38.5t-48.5 -15.5z" />
    <glyph glyph-name="uni0408" unicode="&#x408;" horiz-adv-x="531"
d="M449 698v-508q0 -46 -15 -83t-42.5 -63.5t-67 -41t-87.5 -14.5q-91 0 -143.5 48.5t-66.5 126.5l104 23q9 -45 34.5 -71t71.5 -26q45 0 72 28t27 85v402h-228v94h341z" />
    <glyph glyph-name="uni0409" unicode="&#x409;" horiz-adv-x="1028"
d="M14 100h77q20 20 35 49t24.5 74t14.5 110.5t5 159.5v205h428v-268h191q96 0 149 -57.5t53 -157.5t-53 -157.5t-149 -57.5h-304v598h-206v-118q0 -101 -6.5 -173.5t-18.5 -123.5t-29.5 -84t-38.5 -54q-26 -25 -56 -36.5t-73 -11.5h-43v103zM781 99q43 0 67 23t24 69v48
q0 46 -24 69t-67 23h-183v-232h183z" />
    <glyph glyph-name="uni040A" unicode="&#x40a;" horiz-adv-x="1038"
d="M86 698h113v-294h296v294h113v-268h190q96 0 149.5 -57.5t53.5 -157.5t-53.5 -157.5t-149.5 -57.5h-303v304h-296v-304h-113v698zM790 99q43 0 67.5 23t24.5 69v48q0 46 -24.5 69t-67.5 23h-182v-232h182z" />
    <glyph glyph-name="uni040B" unicode="&#x40b;" horiz-adv-x="805"
d="M232 598h-208v100h529v-100h-208v-180h5q26 11 62.5 17t82.5 6q131 0 192.5 -62t61.5 -189v-190h-113v192q0 78 -37 114.5t-112 36.5q-47 0 -82.5 -5.5t-59.5 -15.5v-322h-113v598z" />
    <glyph glyph-name="uni040C" unicode="&#x40c;" horiz-adv-x="668"
d="M86 698h113v-294h121l124 218q23 41 48.5 58.5t62.5 17.5h53v-100h-63l-100 -176q-17 -29 -31.5 -42t-35.5 -20v-5q24 -5 41 -17t35 -44l111 -194h61v-100h-69q-33 0 -57 16.5t-48 58.5l-132 230h-121v-305h-113v698zM346 749l-68 32l91 180l95 -46z" />
    <glyph glyph-name="uni040D" unicode="&#x40d;" horiz-adv-x="714"
d="M86 698h110v-397l-11 -144h3l70 129l268 412h102v-698h-110v397l11 144h-3l-70 -129l-268 -412h-102v698zM228 915l95 46l91 -180l-68 -32z" />
    <glyph glyph-name="uni040E" unicode="&#x40e;" horiz-adv-x="610"
d="M133 100h110l26 64l-252 534h120l128 -275l55 -129h4l47 131l109 273h113l-245 -605q-11 -27 -23 -45t-28 -28.5t-37.5 -15t-51.5 -4.5h-75v100zM311 755q-60 0 -95.5 24.5t-56.5 67.5l-20 44l89 36l34 -90q10 -3 23.5 -5t25.5 -2t25.5 2t23.5 5l34 90l89 -36l-20 -44
q-21 -43 -56.5 -67.5t-95.5 -24.5z" />
    <glyph glyph-name="uni040F" unicode="&#x40f;" horiz-adv-x="699"
d="M297 0h-211v698h113v-598h301v598h113v-698h-211v-150h-105v150z" />
    <glyph glyph-name="uni0410" unicode="&#x410;" horiz-adv-x="662"
d="M522 0l-63 189h-261l-61 -189h-115l238 698h142l238 -698h-118zM331 594h-5l-101 -308h206z" />
    <glyph glyph-name="uni0411" unicode="&#x411;" horiz-adv-x="645"
d="M86 698h446v-100h-333v-174h195q97 0 150 -57.5t53 -154.5t-53 -154.5t-150 -57.5h-308v698zM387 99q43 0 67 23t24 69v42q0 46 -24 69t-67 23h-188v-226h188z" />
    <glyph glyph-name="uni0412" unicode="&#x412;" horiz-adv-x="659"
d="M86 698h309q87 0 136.5 -49t49.5 -131q0 -39 -11 -66.5t-28 -45t-39 -26t-43 -10.5v-6q21 -1 46.5 -10t47.5 -28.5t37 -50t15 -74.5q0 -42 -13.5 -79t-37.5 -64t-57 -42.5t-72 -15.5h-340v698zM199 97h194q44 0 69 23t25 66v34q0 43 -25 66t-69 23h-194v-212zM199 403
h175q42 0 65 21.5t23 61.5v32q0 40 -23 61.5t-65 21.5h-175v-198z" />
    <glyph glyph-name="uni0413" unicode="&#x413;" horiz-adv-x="505"
d="M86 698h393v-100h-280v-598h-113v698z" />
    <glyph glyph-name="uni0414" unicode="&#x414;" horiz-adv-x="764"
d="M13 100h74q20 25 36.5 59.5t28 81t17.5 107t6 138.5v212h455v-598h104v-250h-105v150h-511v-150h-105v250zM517 100v498h-233v-125q0 -75 -4.5 -133t-13 -102.5t-21 -77t-28.5 -56.5v-4h300z" />
    <glyph glyph-name="uni0415" unicode="&#x415;" horiz-adv-x="593"
d="M86 0v698h447v-100h-334v-194h303v-100h-303v-204h334v-100h-447z" />
    <glyph glyph-name="uni0416" unicode="&#x416;" horiz-adv-x="991"
d="M42 100h62l95 188q16 32 33 47t40 20v5q-21 7 -38 21.5t-31 43.5l-81 173h-62v100h55q38 0 64.5 -17t46.5 -59l103 -218h110v294h113v-294h110l103 218q20 42 46.5 59t64.5 17h55v-100h-62l-81 -173q-14 -29 -31 -43.5t-38 -21.5v-5q23 -5 40 -20t33 -47l95 -188h62v-100
h-70q-35 0 -57.5 16.5t-45.5 61.5l-114 227h-110v-305h-113v305h-110l-114 -227q-23 -45 -45.5 -61.5t-57.5 -16.5h-70v100z" />
    <glyph glyph-name="uni0417" unicode="&#x417;" horiz-adv-x="599"
d="M283 -12q-82 0 -143.5 30t-105.5 85l77 71q32 -41 73.5 -63t98.5 -22q69 0 106 26t37 79v11q0 48 -31 74t-97 26h-112v100h106q62 0 91 25.5t29 76.5v10q0 45 -30.5 68.5t-92.5 23.5q-54 0 -93.5 -19.5t-64.5 -52.5l-77 65q41 51 98 79.5t137 28.5q118 0 180.5 -51
t62.5 -137q0 -72 -38.5 -110t-99.5 -48v-5q30 -3 57.5 -14t48.5 -30.5t33.5 -48t12.5 -67.5q0 -47 -18 -86t-52 -67t-83 -43t-110 -15z" />
    <glyph glyph-name="uni0418" unicode="&#x418;" horiz-adv-x="714"
d="M86 698h110v-397l-11 -144h3l70 129l268 412h102v-698h-110v397l11 144h-3l-70 -129l-268 -412h-102v698z" />
    <glyph glyph-name="uni0419" unicode="&#x419;" horiz-adv-x="714"
d="M86 698h110v-397l-11 -144h3l70 129l268 412h102v-698h-110v397l11 144h-3l-70 -129l-268 -412h-102v698zM356 755q-60 0 -95.5 24.5t-56.5 67.5l-20 44l89 36l34 -90q10 -3 23.5 -5t25.5 -2t25.5 2t23.5 5l34 90l89 -36l-20 -44q-21 -43 -56.5 -67.5t-95.5 -24.5z" />
    <glyph glyph-name="uni041A" unicode="&#x41a;" horiz-adv-x="668"
d="M86 698h113v-294h121l124 218q23 41 48.5 58.5t62.5 17.5h53v-100h-63l-100 -176q-17 -29 -31.5 -42t-35.5 -20v-5q24 -5 41 -17t35 -44l111 -194h61v-100h-69q-33 0 -57 16.5t-48 58.5l-132 230h-121v-305h-113v698z" />
    <glyph glyph-name="uni041B" unicode="&#x41b;" horiz-adv-x="707"
d="M14 100h77q20 20 35 49t24.5 74t14.5 110.5t5 159.5v205h451v-698h-113v598h-229v-118q0 -101 -6.5 -173.5t-18.5 -123.5t-29.5 -84t-38.5 -54q-26 -25 -56 -36.5t-73 -11.5h-43v103z" />
    <glyph glyph-name="uni041C" unicode="&#x41c;" horiz-adv-x="814"
d="M620 534h-5l-55 -113l-153 -279l-153 279l-55 113h-5v-534h-108v698h134l187 -355h6l187 355h128v-698h-108v534z" />
    <glyph glyph-name="uni041D" unicode="&#x41d;" horiz-adv-x="714"
d="M515 304h-316v-304h-113v698h113v-294h316v294h113v-698h-113v304z" />
    <glyph glyph-name="uni041E" unicode="&#x41e;" horiz-adv-x="712"
d="M356 -12q-68 0 -123.5 23.5t-95 69t-61 113t-21.5 155.5t21.5 155.5t61 113t95 69t123.5 23.5t123.5 -23.5t95 -69t61 -113t21.5 -155.5t-21.5 -155.5t-61 -113t-95 -69t-123.5 -23.5zM356 89q40 0 73.5 14t57 40.5t36.5 64.5t13 86v110q0 48 -13 86t-36.5 64.5t-57 40.5
t-73.5 14q-41 0 -74 -14t-56.5 -40.5t-36.5 -64.5t-13 -86v-110q0 -48 13 -86t36.5 -64.5t56.5 -40.5t74 -14z" />
    <glyph glyph-name="uni041F" unicode="&#x41f;" horiz-adv-x="699"
d="M86 698h527v-698h-113v598h-301v-598h-113v698z" />
    <glyph glyph-name="uni0420" unicode="&#x420;" horiz-adv-x="627"
d="M86 0v698h300q97 0 150 -57t53 -153t-53 -153t-150 -57h-187v-278h-113zM199 377h180q43 0 67 22.5t24 64.5v48q0 42 -24 64.5t-67 22.5h-180v-222z" />
    <glyph glyph-name="uni0421" unicode="&#x421;" horiz-adv-x="634"
d="M348 -12q-137 0 -215 92.5t-78 268.5q0 88 20 155t58 113t92.5 69.5t122.5 23.5q91 0 152.5 -40t96.5 -118l-95 -52q-18 50 -55.5 79.5t-98.5 29.5q-81 0 -127 -55t-46 -152v-106q0 -97 46 -152t127 -55q63 0 102.5 32.5t58.5 83.5l91 -55q-35 -76 -98 -119t-154 -43z
" />
    <glyph glyph-name="uni0422" unicode="&#x422;" horiz-adv-x="577"
d="M345 598v-598h-113v598h-208v100h529v-100h-208z" />
    <glyph glyph-name="uni0423" unicode="&#x423;" horiz-adv-x="610"
d="M133 100h110l26 64l-252 534h120l128 -275l55 -129h4l47 131l109 273h113l-245 -605q-11 -27 -23 -45t-28 -28.5t-37.5 -15t-51.5 -4.5h-75v100z" />
    <glyph glyph-name="uni0424" unicode="&#x424;" horiz-adv-x="870"
d="M378 55h-35q-69 0 -124.5 22.5t-94 61.5t-59.5 92.5t-21 116.5q0 62 20.5 115.5t59.5 93t94.5 62t124.5 22.5h35v90h114v-90h35q69 0 124.5 -22.5t94.5 -62t59.5 -93t20.5 -115.5q0 -63 -21 -116.5t-59.5 -92.5t-94 -61.5t-124.5 -22.5h-35v-90h-114v90zM380 148v400h-37
q-43 0 -76.5 -13t-57 -35.5t-35.5 -53.5t-12 -67v-62q0 -36 12.5 -67t35.5 -53.5t57 -35.5t76 -13h37zM527 148q42 0 76 13t57 35.5t35.5 53.5t12.5 67v62q0 36 -12.5 67t-35.5 53.5t-56.5 35.5t-76.5 13h-37v-400h37z" />
    <glyph glyph-name="uni0425" unicode="&#x425;" horiz-adv-x="639"
d="M618 0h-133l-169 278h-3l-167 -278h-125l226 357l-218 341h133l159 -260h2l161 260h125l-220 -340z" />
    <glyph glyph-name="uni0426" unicode="&#x426;" horiz-adv-x="747"
d="M612 0h-526v698h113v-598h301v598h113v-598h104v-250h-105v150z" />
    <glyph glyph-name="uni0427" unicode="&#x427;" horiz-adv-x="659"
d="M460 263h-5q-26 -11 -62.5 -17t-82.5 -6q-131 0 -192.5 62t-61.5 190v206h113v-209q0 -78 37 -114t112 -36q47 0 82.5 5.5t59.5 15.5v338h113v-698h-113v263z" />
    <glyph glyph-name="uni0428" unicode="&#x428;" horiz-adv-x="987"
d="M86 698h113v-598h238v598h113v-598h238v598h113v-698h-815v698z" />
    <glyph glyph-name="uni0429" unicode="&#x429;" horiz-adv-x="1036"
d="M901 0h-815v698h113v-598h238v598h113v-598h238v598h113v-598h105v-250h-105v150z" />
    <glyph glyph-name="uni042A" unicode="&#x42a;" horiz-adv-x="749"
d="M191 598h-169v100h282v-268h205q97 0 150 -57.5t53 -157.5t-53 -157.5t-150 -57.5h-318v598zM501 99q43 0 67.5 23t24.5 69v48q0 46 -24.5 69t-67.5 23h-197v-232h197z" />
    <glyph glyph-name="uni042B" unicode="&#x42b;" horiz-adv-x="900"
d="M86 698h113v-268h195q97 0 150 -57.5t53 -157.5t-53 -157.5t-150 -57.5h-308v698zM387 99q43 0 67 23t24 69v48q0 46 -24 69t-67 23h-188v-232h188zM701 698h113v-698h-113v698z" />
    <glyph glyph-name="uni042C" unicode="&#x42c;" horiz-adv-x="644"
d="M86 698h113v-268h205q97 0 150 -57.5t53 -157.5t-53 -157.5t-150 -57.5h-318v698zM397 99q43 0 67 23t24 69v48q0 46 -24 69t-67 23h-198v-232h198z" />
    <glyph glyph-name="uni042D" unicode="&#x42d;" horiz-adv-x="648"
d="M206 403h267v8q0 94 -47 146t-132 52q-67 0 -104.5 -29t-57.5 -79l-93 55q38 75 98.5 114.5t156.5 39.5q143 0 221 -90t78 -267t-78 -271t-221 -94q-98 0 -161.5 42t-98.5 117l91 57q20 -52 60 -83.5t109 -31.5q85 0 132 54t47 149v11h-267v100z" />
    <glyph glyph-name="uni042E" unicode="&#x42e;" horiz-adv-x="983"
d="M634 -12q-131 0 -207 80.5t-87 235.5h-141v-304h-113v698h113v-294h143q12 153 90.5 229.5t201.5 76.5q68 0 122.5 -23t92.5 -68t58.5 -112.5t20.5 -157.5t-20.5 -157.5t-58.5 -112.5t-92.5 -68t-122.5 -23zM634 89q81 0 127.5 53.5t46.5 151.5v110q0 98 -46.5 151.5
t-127.5 53.5t-127.5 -53.5t-46.5 -151.5v-110q0 -98 46.5 -151.5t127.5 -53.5z" />
    <glyph glyph-name="uni042F" unicode="&#x42f;" horiz-adv-x="656"
d="M41 100h61l74 134q14 26 28 39t40 19v5q-88 5 -132.5 56.5t-44.5 135.5q0 98 53.5 153.5t148.5 55.5h301v-698h-113v281h-127l-118 -210q-24 -42 -47 -56.5t-56 -14.5h-68v100zM457 377v222h-179q-43 0 -67.5 -22.5t-24.5 -64.5v-48q0 -42 24.5 -64.5t67.5 -22.5h179z
" />
    <glyph glyph-name="uni0430" unicode="&#x430;" horiz-adv-x="549"
d="M459 0q-43 0 -66 24.5t-28 62.5h-5q-15 -49 -55 -74t-97 -25q-81 0 -124.5 42t-43.5 113q0 78 56.5 117t165.5 39h94v44q0 48 -26 74t-81 26q-46 0 -75 -20t-49 -51l-65 59q26 44 73 72.5t123 28.5q101 0 155 -47t54 -135v-261h55v-89h-61zM239 71q51 0 84 22.5t33 60.5
v75h-92q-113 0 -113 -70v-18q0 -35 23.5 -52.5t64.5 -17.5z" />
    <glyph glyph-name="uni0431" unicode="&#x431;" horiz-adv-x="567"
d="M286 -12q-56 0 -100 18.5t-75 58.5t-47.5 101.5t-16.5 148.5q0 106 15.5 182.5t49 127t85 77.5t123.5 33l166 15v-107l-172 -16q-41 -4 -68.5 -16t-45 -36.5t-26.5 -65t-13 -100.5h5q20 52 54.5 78t93.5 26q46 0 84.5 -17.5t66.5 -50.5t43.5 -80.5t15.5 -108.5
t-17 -110.5t-48 -84.5t-75 -54t-98 -19zM286 78q57 0 90 35.5t33 104.5v65q0 69 -33 104.5t-90 35.5q-60 0 -91.5 -32t-31.5 -86v-87q0 -69 33 -104.5t90 -35.5z" />
    <glyph glyph-name="uni0432" unicode="&#x432;" horiz-adv-x="566"
d="M78 520h277q67 0 103.5 -36t36.5 -96q0 -98 -105 -111v-5q63 -5 93.5 -36.5t30.5 -82.5q0 -33 -10.5 -61t-30 -48.5t-47.5 -32t-63 -11.5h-285v520zM338 83q29 0 46 15t17 44v27q0 29 -17 44.5t-46 15.5h-153v-146h153zM324 304q28 0 43 14t15 40v25q0 26 -15 40t-43 14
h-139v-133h139z" />
    <glyph glyph-name="uni0433" unicode="&#x433;" horiz-adv-x="439"
d="M78 520h339v-89h-230v-431h-109v520z" />
    <glyph glyph-name="uni0434" unicode="&#x434;" horiz-adv-x="623"
d="M9 89h63q29 45 45.5 113.5t16.5 168.5v149h380v-431h88v-229h-99v140h-395v-140h-99v229zM405 89v342h-167v-66q0 -105 -15 -171.5t-35 -104.5h217z" />
    <glyph glyph-name="uni0435" unicode="&#x435;" horiz-adv-x="556"
d="M282 -12q-56 0 -100 19t-75 54.5t-47.5 86t-16.5 112.5t16.5 112.5t47.5 86t75 54.5t100 19q57 0 100.5 -20t72.5 -55.5t43.5 -82.5t14.5 -101v-41h-357v-17q0 -60 35.5 -98.5t101.5 -38.5q48 0 81 21t56 57l64 -63q-29 -48 -84 -76.5t-128 -28.5zM282 447
q-28 0 -51.5 -10t-40 -28t-25.5 -43t-9 -55v-7h242v10q0 60 -31 96.5t-85 36.5z" />
    <glyph glyph-name="uni0436" unicode="&#x436;" horiz-adv-x="811"
d="M39 89h58l57 126q11 23 26.5 35t34.5 16v4q-38 11 -59 54l-49 107h-58v89h53q35 0 59.5 -16t41.5 -52l67 -142h81v210h109v-210h81l67 142q17 36 41.5 52t59.5 16h53v-89h-58l-49 -107q-21 -43 -59 -54v-4q19 -4 34.5 -16t26.5 -35l57 -126h58v-89h-62q-34 0 -58 15.5
t-43 56.5l-68 150h-81v-222h-109v222h-81l-68 -150q-19 -41 -43 -56.5t-58 -15.5h-62v89z" />
    <glyph glyph-name="uni0437" unicode="&#x437;" horiz-adv-x="514"
d="M240 -12q-78 0 -128 26t-86 74l71 65q24 -35 59.5 -55t83.5 -20q56 0 82.5 20t26.5 52v12q0 32 -21.5 48.5t-61.5 16.5h-112v80h101q40 0 61.5 15.5t21.5 45.5v11q0 29 -24 46t-76 17q-47 0 -80 -19t-53 -51l-68 59q30 46 80.5 73.5t127.5 27.5q104 0 154.5 -38.5
t50.5 -102.5q0 -50 -26 -77.5t-78 -37.5v-5q57 -7 86.5 -38t29.5 -80q0 -77 -59.5 -121t-162.5 -44z" />
    <glyph glyph-name="uni0438" unicode="&#x438;" horiz-adv-x="598"
d="M78 520h107v-254l-10 -123h4l62 111l180 266h99v-520h-107v254l10 123h-4l-62 -111l-180 -266h-99v520z" />
    <glyph glyph-name="uni0439" unicode="&#x439;" horiz-adv-x="598"
d="M78 520h107v-254l-10 -123h4l62 111l180 266h99v-520h-107v254l10 123h-4l-62 -111l-180 -266h-99v520zM300 589q-60 0 -95.5 24.5t-56.5 67.5l-20 44l89 36l34 -90q10 -3 23.5 -5t25.5 -2t25.5 2t23.5 5l34 90l89 -36l-20 -44q-21 -43 -56.5 -67.5t-95.5 -24.5z" />
    <glyph glyph-name="uni043A" unicode="&#x43a;" horiz-adv-x="568"
d="M78 520h109v-210h92l86 145q22 37 44 51t56 14h53v-89h-58l-66 -110q-15 -26 -26.5 -36t-30.5 -15v-4q20 -4 35 -14.5t29 -36.5l70 -126h57v-89h-62q-33 0 -56.5 15t-44.5 53l-86 154h-92v-222h-109v520z" />
    <glyph glyph-name="uni043B" unicode="&#x43b;" horiz-adv-x="585"
d="M11 89h68q12 16 21 38.5t15 55.5t9.5 77.5t3.5 104.5v155h378v-520h-109v431h-164v-71q0 -72 -5.5 -126t-15 -93t-23 -64.5t-28.5 -40.5q-21 -21 -48 -30t-65 -9h-37v92z" />
    <glyph glyph-name="uni043C" unicode="&#x43c;" horiz-adv-x="710"
d="M78 520h132l147 -246h2l147 246h126v-520h-107v386h-4l-34 -64l-132 -220l-132 220l-34 64h-4v-386h-107v520z" />
    <glyph glyph-name="uni043D" unicode="&#x43d;" horiz-adv-x="598"
d="M78 520h109v-209h224v209h109v-520h-109v222h-224v-222h-109v520z" />
    <glyph glyph-name="uni043E" unicode="&#x43e;" horiz-adv-x="564"
d="M282 -12q-54 0 -98.5 19t-75.5 54.5t-48 86t-17 112.5t17 112.5t48 86t75.5 54.5t98.5 19t98.5 -19t75.5 -54.5t48 -86t17 -112.5t-17 -112.5t-48 -86t-75.5 -54.5t-98.5 -19zM282 78q56 0 90 34.5t34 103.5v88q0 69 -34 103.5t-90 34.5t-90 -34.5t-34 -103.5v-88
q0 -69 34 -103.5t90 -34.5z" />
    <glyph glyph-name="uni043F" unicode="&#x43f;" horiz-adv-x="583"
d="M78 520h427v-520h-109v431h-209v-431h-109v520z" />
    <glyph glyph-name="uni0440" unicode="&#x440;" horiz-adv-x="592"
d="M78 520h109v-86h5q17 47 55.5 72.5t90.5 25.5q99 0 153 -71.5t54 -200.5t-54 -200.5t-153 -71.5q-52 0 -90.5 26t-55.5 72h-5v-286h-109v720zM305 82q57 0 91 36.5t34 96.5v90q0 60 -34 96.5t-91 36.5q-50 0 -84 -24.5t-34 -64.5v-178q0 -40 34 -64.5t84 -24.5z" />
    <glyph glyph-name="uni0441" unicode="&#x441;" horiz-adv-x="510"
d="M279 -12q-56 0 -100 19t-74 54.5t-46 86t-16 112.5t16 112.5t46 86t74 54.5t100 19q78 0 128 -35t73 -93l-90 -42q-11 36 -38.5 57.5t-72.5 21.5q-60 0 -90.5 -37.5t-30.5 -97.5v-93q0 -60 30.5 -97.5t90.5 -37.5q48 0 76.5 23.5t45.5 62.5l83 -44q-26 -64 -78 -98
t-127 -34z" />
    <glyph glyph-name="uni0442" unicode="&#x442;" horiz-adv-x="481"
d="M186 431h-166v89h441v-89h-166v-431h-109v431z" />
    <glyph glyph-name="uni0443" unicode="&#x443;" horiz-adv-x="514"
d="M397 520h105l-219 -623q-9 -26 -20.5 -44.5t-27 -30t-37.5 -17t-52 -5.5h-63v89h88l30 88l-189 543h109l104 -306l30 -113h5l33 113z" />
    <glyph glyph-name="uni0444" unicode="&#x444;" horiz-adv-x="773"
d="M332 55h-4q-19 -32 -46.5 -49.5t-65.5 -17.5q-86 0 -128 65t-42 207t41.5 207t128.5 65q38 0 65.5 -18t46.5 -50h4v246h109v-246h4q19 32 46.5 50t65.5 18q87 0 128.5 -65t41.5 -207t-42 -207t-128 -65q-38 0 -65.5 17.5t-46.5 49.5h-4v-255h-109v255zM253 74q80 0 80 65
v242q0 31 -19 48t-61 17q-49 0 -71 -32.5t-22 -106.5v-94q0 -75 22 -107t71 -32zM520 74q49 0 71 32t22 107v94q0 74 -22 106.5t-71 32.5q-42 0 -61 -17t-19 -48v-242q0 -65 80 -65z" />
    <glyph glyph-name="uni0445" unicode="&#x445;" horiz-adv-x="530"
d="M20 0l183 263l-178 257h126l117 -181h3l120 181h116l-178 -256l181 -264h-126l-120 189h-3l-125 -189h-116z" />
    <glyph glyph-name="uni0446" unicode="&#x446;" horiz-adv-x="614"
d="M494 0h-416v520h109v-431h209v431h109v-431h88v-229h-99v140z" />
    <glyph glyph-name="uni0447" unicode="&#x447;" horiz-adv-x="555"
d="M368 231h-5q-22 -29 -56 -47t-89 -18q-83 0 -125.5 42t-42.5 129v183h109v-176q0 -44 23 -64.5t74 -20.5t81.5 15t30.5 43v203h109v-520h-109v231z" />
    <glyph glyph-name="uni0448" unicode="&#x448;" horiz-adv-x="817"
d="M78 520h109v-431h167v431h109v-431h167v431h109v-520h-661v520z" />
    <glyph glyph-name="uni0449" unicode="&#x449;" horiz-adv-x="848"
d="M728 0h-650v520h109v-431h167v431h109v-431h167v431h109v-431h88v-229h-99v140z" />
    <glyph glyph-name="uni044A" unicode="&#x44a;" horiz-adv-x="612"
d="M152 431h-132v89h241v-174h143q39 0 71 -11.5t55 -34t36 -54.5t13 -72q0 -84 -48.5 -129t-126.5 -45h-252v431zM384 85q38 0 60 16.5t22 51.5v41q0 35 -22 51t-60 16h-123v-176h123z" />
    <glyph glyph-name="uni044B" unicode="&#x44b;" horiz-adv-x="760"
d="M78 520h109v-174h133q39 0 71 -11.5t55 -34t36 -54.5t13 -73q0 -83 -48 -128t-126 -45h-243v520zM300 85q38 0 60 16.5t22 51.5v41q0 35 -22 51t-60 16h-113v-176h113zM573 520h109v-520h-109v520z" />
    <glyph glyph-name="uni044C" unicode="&#x44c;" horiz-adv-x="538"
d="M78 520h109v-174h143q78 0 126.5 -45.5t48.5 -127.5q0 -83 -48 -128t-126 -45h-253v520zM310 85q38 0 60 16.5t22 51.5v41q0 35 -22 51t-60 16h-123v-176h123z" />
    <glyph glyph-name="uni044D" unicode="&#x44d;" horiz-adv-x="521"
d="M166 303h198v6q0 60 -32 96.5t-95 36.5q-51 0 -80 -21t-46 -60l-84 48q26 57 76.5 90t133.5 33q59 0 104 -19t76 -54.5t46.5 -86t15.5 -112.5t-16 -112.5t-46.5 -86t-76 -54.5t-104.5 -19q-83 0 -130.5 32.5t-76.5 93.5l86 44q15 -39 44 -59.5t77 -20.5q66 0 97 36.5
t31 99.5v9h-198v80z" />
    <glyph glyph-name="uni044E" unicode="&#x44e;" horiz-adv-x="800"
d="M524 -12q-100 0 -161 61.5t-70 172.5h-106v-222h-109v520h109v-209h107q12 105 72 163t158 58q54 0 97.5 -18.5t73.5 -53.5t46 -85.5t16 -114.5q0 -63 -16 -113.5t-46 -86t-73.5 -54t-97.5 -18.5zM524 79q56 0 87 33t31 104v88q0 71 -31 104t-87 33t-87 -33t-31 -104v-88
q0 -71 31 -104t87 -33z" />
    <glyph glyph-name="uni044F" unicode="&#x44f;" horiz-adv-x="556"
d="M41 89h56l29 64q21 44 60 49v4q-64 7 -99.5 44.5t-35.5 102.5q0 39 12.5 69.5t35.5 52.5t55 33.5t71 11.5h253v-520h-109v192h-111l-55 -119q-19 -42 -43 -57.5t-57 -15.5h-62v89zM369 275v160h-123q-38 0 -60 -16.5t-22 -51.5v-26q0 -33 22 -49.5t60 -16.5h123z" />
    <glyph glyph-name="uni0450" unicode="&#x450;" horiz-adv-x="556"
d="M282 -12q-56 0 -100 19t-75 54.5t-47.5 86t-16.5 112.5t16.5 112.5t47.5 86t75 54.5t100 19q57 0 100.5 -20t72.5 -55.5t43.5 -82.5t14.5 -101v-41h-357v-17q0 -60 35.5 -98.5t101.5 -38.5q48 0 81 21t56 57l64 -63q-29 -48 -84 -76.5t-128 -28.5zM282 447
q-28 0 -51.5 -10t-40 -28t-25.5 -43t-9 -55v-7h242v10q0 60 -31 96.5t-85 36.5zM155 749l95 46l91 -180l-68 -33z" />
    <glyph glyph-name="uni0451" unicode="&#x451;" horiz-adv-x="556"
d="M282 -12q-56 0 -100 19t-75 54.5t-47.5 86t-16.5 112.5t16.5 112.5t47.5 86t75 54.5t100 19q57 0 100.5 -20t72.5 -55.5t43.5 -82.5t14.5 -101v-41h-357v-17q0 -60 35.5 -98.5t101.5 -38.5q48 0 81 21t56 57l64 -63q-29 -48 -84 -76.5t-128 -28.5zM282 447
q-28 0 -51.5 -10t-40 -28t-25.5 -43t-9 -55v-7h242v10q0 60 -31 96.5t-85 36.5zM184 610q-34 0 -48 15t-14 38v18q0 23 14 38t48 15t48 -15t14 -38v-18q0 -23 -14 -38t-48 -15zM384 610q-34 0 -48 15t-14 38v18q0 23 14 38t48 15t48 -15t14 -38v-18q0 -23 -14 -38t-48 -15z
" />
    <glyph glyph-name="uni0452" unicode="&#x452;" horiz-adv-x="583"
d="M317 -111h81v428q0 122 -98 122q-21 0 -41.5 -5.5t-36.5 -16.5t-25.5 -28t-9.5 -39v-350h-109v600h-63v79h63v61h109v-61h146v-79h-146v-166h5q17 42 51.5 70t94.5 28q80 0 124.5 -52.5t44.5 -149.5v-401q0 -60 -30.5 -94.5t-96.5 -34.5h-63v89z" />
    <glyph glyph-name="uni0453" unicode="&#x453;" horiz-adv-x="439"
d="M78 520h339v-89h-230v-431h-109v520zM256 582l-68 33l91 180l95 -46z" />
    <glyph glyph-name="uni0454" unicode="&#x454;" horiz-adv-x="522"
d="M285 -12q-59 0 -104.5 19t-76.5 54.5t-46.5 86t-15.5 112.5t15.5 112.5t46.5 86t76 54.5t104 19q84 0 133 -33.5t74 -88.5l-89 -46q-12 37 -40.5 57.5t-77.5 20.5q-65 0 -95.5 -37.5t-31.5 -96.5v-5h199v-80h-199v-9q0 -60 31 -98t97 -38q48 0 79 21t50 63l81 -48
q-30 -62 -79.5 -94t-130.5 -32z" />
    <glyph glyph-name="uni0455" unicode="&#x455;" horiz-adv-x="494"
d="M243 -12q-74 0 -124 26t-87 72l70 64q29 -35 64.5 -54.5t82.5 -19.5q48 0 71.5 18.5t23.5 51.5q0 25 -16.5 42.5t-57.5 22.5l-48 6q-80 10 -125.5 46.5t-45.5 108.5q0 38 14 67.5t39.5 50t61 31.5t78.5 11q70 0 114.5 -22t79.5 -61l-67 -64q-20 24 -52.5 41.5t-74.5 17.5
q-45 0 -66.5 -18t-21.5 -47q0 -30 19 -45t61 -22l48 -6q86 -13 125.5 -50.5t39.5 -100.5q0 -38 -14.5 -68.5t-41.5 -52.5t-65 -34t-85 -12z" />
    <glyph glyph-name="uni0456" unicode="&#x456;" horiz-adv-x="265"
d="M133 613q-34 0 -49.5 16t-15.5 41v17q0 25 15.5 41t49.5 16t49 -16t15 -41v-17q0 -25 -15 -41t-49 -16zM78 520h109v-520h-109v520z" />
    <glyph glyph-name="uni0457" unicode="&#x457;" horiz-adv-x="265"
d="M78 0v520h109v-520h-109zM34 610q-34 0 -48 15t-14 38v18q0 23 14 38t48 15t48 -15t14 -38v-18q0 -23 -14 -38t-48 -15zM234 610q-34 0 -48 15t-14 38v18q0 23 14 38t48 15t48 -15t14 -38v-18q0 -23 -14 -38t-48 -15z" />
    <glyph glyph-name="uni0458" unicode="&#x458;" horiz-adv-x="265"
d="M78 520h109v-590q0 -60 -30.5 -95t-96.5 -35h-63v89h81v631zM133 613q-34 0 -49.5 16t-15.5 41v17q0 25 15.5 41t49.5 16t49 -16t15 -41v-17q0 -25 -15 -41t-49 -16z" />
    <glyph glyph-name="uni0459" unicode="&#x459;" horiz-adv-x="830"
d="M11 89h68q12 16 21 38.5t15 55.5t9.5 77.5t3.5 104.5v155h362v-174h133q39 0 71 -11.5t55 -34t35.5 -54.5t12.5 -73q0 -83 -48 -128t-126 -45h-242v431h-148v-71q0 -72 -5.5 -126t-15 -93t-23 -64.5t-28.5 -40.5q-21 -21 -48 -30t-65 -9h-37v92zM603 85q38 0 59.5 16.5
t21.5 51.5v41q0 35 -21.5 51t-59.5 16h-113v-176h113z" />
    <glyph glyph-name="uni045A" unicode="&#x45a;" horiz-adv-x="848"
d="M78 520h109v-209h212v209h109v-174h133q39 0 71 -11.5t55 -34t35.5 -54.5t12.5 -73q0 -83 -48 -128t-126 -45h-242v222h-212v-222h-109v520zM621 85q38 0 59.5 16.5t21.5 51.5v41q0 35 -21.5 51t-59.5 16h-113v-176h113z" />
    <glyph glyph-name="uni045B" unicode="&#x45b;" horiz-adv-x="580"
d="M78 0v600h-63v79h63v61h109v-61h146v-79h-146v-166h5q17 42 51.5 70t94.5 28q81 0 125 -52.5t44 -149.5v-330h-109v317q0 121 -98 121q-21 0 -41.5 -5.5t-36.5 -16.5t-25.5 -28t-9.5 -39v-349h-109z" />
    <glyph glyph-name="uni045C" unicode="&#x45c;" horiz-adv-x="568"
d="M78 520h109v-210h92l86 145q22 37 44 51t56 14h53v-89h-58l-66 -110q-15 -26 -26.5 -36t-30.5 -15v-4q20 -4 35 -14.5t29 -36.5l70 -126h57v-89h-62q-33 0 -56.5 15t-44.5 53l-86 154h-92v-222h-109v520zM301 582l-68 33l91 180l95 -46z" />
    <glyph glyph-name="uni045D" unicode="&#x45d;" horiz-adv-x="598"
d="M78 520h107v-254l-10 -123h4l62 111l180 266h99v-520h-107v254l10 123h-4l-62 -111l-180 -266h-99v520zM171 749l95 46l91 -180l-68 -33z" />
    <glyph glyph-name="uni045E" unicode="&#x45e;" horiz-adv-x="514"
d="M397 520h105l-219 -623q-9 -26 -20.5 -44.5t-27 -30t-37.5 -17t-52 -5.5h-63v89h88l30 88l-189 543h109l104 -306l30 -113h5l33 113zM260 589q-60 0 -95.5 24.5t-56.5 67.5l-20 44l89 36l34 -90q10 -3 23.5 -5t25.5 -2t25.5 2t23.5 5l34 90l89 -36l-20 -44
q-21 -43 -56.5 -67.5t-95.5 -24.5z" />
    <glyph glyph-name="uni045F" unicode="&#x45f;" horiz-adv-x="583"
d="M242 0h-164v520h109v-431h209v431h109v-520h-164v-140h-99v140z" />
    <glyph glyph-name="uni0472" unicode="&#x472;" horiz-adv-x="710"
d="M355 -12q-68 0 -123.5 23.5t-94.5 69t-60.5 113t-21.5 155.5t21.5 155.5t60.5 113t94.5 69t123.5 23.5t123.5 -23.5t94.5 -69t60.5 -113t21.5 -155.5t-21.5 -155.5t-60.5 -113t-94.5 -69t-123.5 -23.5zM355 84q83 0 133.5 55.5t50.5 153.5v10h-368v-10q0 -98 50.5 -153.5
t133.5 -55.5zM171 402h368v3q0 98 -50.5 153.5t-133.5 55.5t-133.5 -55.5t-50.5 -153.5v-3z" />
    <glyph glyph-name="uni0473" unicode="&#x473;" horiz-adv-x="564"
d="M282 -12q-54 0 -98.5 19t-75.5 54.5t-48 86t-17 112.5t17 112.5t48 86t75.5 54.5t98.5 19t98.5 -19t75.5 -54.5t48 -86t17 -112.5t-17 -112.5t-48 -86t-75.5 -54.5t-98.5 -19zM282 75q57 0 92.5 35t35.5 104v10h-256v-10q0 -69 35.5 -104t92.5 -35zM154 302h256v4
q0 69 -35.5 104t-92.5 35t-92.5 -35t-35.5 -104v-4z" />
    <glyph glyph-name="uni0490" unicode="&#x490;" horiz-adv-x="505"
d="M86 698h288v150h105v-250h-280v-598h-113v698z" />
    <glyph glyph-name="uni0491" unicode="&#x491;" horiz-adv-x="439"
d="M78 520h240v140h99v-229h-230v-431h-109v520z" />
    <glyph glyph-name="uni0492" unicode="&#x492;" horiz-adv-x="530"
d="M111 314h-94v85h94v299h393v-100h-280v-199h187v-85h-187v-314h-113v314z" />
    <glyph glyph-name="uni0493" unicode="&#x493;" horiz-adv-x="457"
d="M96 218h-70v79h70v223h339v-89h-230v-134h146v-79h-146v-218h-109v218z" />
    <glyph glyph-name="uni0494" unicode="&#x494;" horiz-adv-x="649"
d="M333 -70h92q25 20 40 57.5t15 95.5v67q0 78 -36 114.5t-107 36.5q-45 0 -79.5 -5.5t-58.5 -15.5v-280h-113v698h393v-100h-280v-222h5q26 11 62 17t78 6q127 0 188 -62t61 -189v-68q0 -63 -15.5 -110t-43.5 -79t-67 -48t-86 -16h-48v103z" />
    <glyph glyph-name="uni0495" unicode="&#x495;" horiz-adv-x="553"
d="M283 -111h85q14 16 21 43.5t7 78.5v95q0 60 -22.5 83t-74.5 23q-51 0 -81.5 -15.5t-30.5 -43.5v-153h-109v520h339v-89h-230v-191h5q22 29 56 47t89 18q85 0 126.5 -44.5t41.5 -147.5v-114q0 -103 -42 -151t-122 -48h-58v89z" />
    <glyph glyph-name="uni0496" unicode="&#x496;" horiz-adv-x="1005"
d="M887 0h-8q-35 0 -57.5 16.5t-45.5 61.5l-114 227h-110v-305h-113v305h-110l-114 -227q-23 -45 -45.5 -61.5t-57.5 -16.5h-70v100h62l95 188q16 32 33 47t40 20v5q-21 7 -38 21.5t-31 43.5l-81 173h-62v100h55q38 0 64.5 -17t46.5 -59l103 -218h110v294h113v-294h110
l103 218q20 42 46.5 59t64.5 17h55v-100h-62l-81 -173q-14 -29 -31 -43.5t-38 -21.5v-5q23 -5 40 -20t33 -47l95 -188h105v-250h-105v150z" />
    <glyph glyph-name="uni0497" unicode="&#x497;" horiz-adv-x="817"
d="M702 0q-27 1 -50.5 16t-42.5 56l-68 150h-81v-222h-109v222h-81l-68 -150q-19 -41 -43 -56.5t-58 -15.5h-62v89h58l57 126q11 23 26.5 35t34.5 16v4q-38 11 -59 54l-49 107h-58v89h53q35 0 59.5 -16t41.5 -52l67 -142h81v210h109v-210h81l67 142q17 36 41.5 52t59.5 16
h53v-89h-58l-49 -107q-21 -43 -59 -54v-4q19 -4 34.5 -16t26.5 -35l57 -126h87v-229h-99v140z" />
    <glyph glyph-name="uni0498" unicode="&#x498;" horiz-adv-x="599"
d="M232 -8q-63 7 -112.5 35.5t-85.5 75.5l77 71q32 -41 73.5 -63t98.5 -22q69 0 106 26t37 79v11q0 48 -31 74t-97 26h-112v100h106q62 0 91 25.5t29 76.5v10q0 45 -30.5 68.5t-92.5 23.5q-54 0 -93.5 -19.5t-64.5 -52.5l-77 65q41 51 98 79.5t137 28.5q118 0 180.5 -51
t62.5 -137q0 -72 -38.5 -110t-99.5 -48v-5q30 -3 57.5 -14t48.5 -30.5t33.5 -48t12.5 -67.5q0 -85 -55 -139.5t-153 -67.5v-142h-106v142z" />
    <glyph glyph-name="uni0499" unicode="&#x499;" horiz-adv-x="514"
d="M191 -8q-57 7 -96.5 31.5t-68.5 64.5l71 65q24 -35 59.5 -55t83.5 -20q56 0 82.5 20t26.5 52v12q0 32 -21.5 48.5t-61.5 16.5h-112v80h101q40 0 61.5 15.5t21.5 45.5v11q0 29 -24 46t-76 17q-47 0 -80 -19t-53 -51l-68 59q30 46 80.5 73.5t127.5 27.5q104 0 154.5 -38.5
t50.5 -102.5q0 -50 -26 -77.5t-78 -37.5v-5q57 -7 86.5 -38t29.5 -80q0 -67 -45.5 -109.5t-126.5 -52.5v-131h-99v132z" />
    <glyph glyph-name="uni049A" unicode="&#x49a;" horiz-adv-x="682"
d="M564 0h-7q-33 0 -57 16.5t-48 58.5l-132 230h-121v-305h-113v698h113v-294h121l124 218q23 41 48.5 58.5t62.5 17.5h53v-100h-63l-100 -176q-17 -29 -31.5 -42t-35.5 -20v-5q24 -5 41 -17t35 -44l111 -194h104v-250h-105v150z" />
    <glyph glyph-name="uni049B" unicode="&#x49b;" horiz-adv-x="575"
d="M460 0q-28 1 -51 15.5t-44 52.5l-86 154h-92v-222h-109v520h109v-210h92l86 145q22 37 44 51t56 14h53v-89h-58l-66 -110q-15 -26 -26.5 -36t-30.5 -15v-4q20 -4 35 -14.5t29 -36.5l70 -126h88v-229h-99v140z" />
    <glyph glyph-name="uni049C" unicode="&#x49c;" horiz-adv-x="719"
d="M86 698h113v-294h51v145h85v-145h47l114 216q22 42 47.5 60t62.5 18h54v-100h-63l-93 -176q-15 -28 -30 -42t-35 -20v-5q23 -5 41.5 -20.5t35.5 -47.5l100 -187h61v-100h-69q-33 0 -56.5 16.5t-46.5 58.5l-123 230h-47v-145h-85v145h-51v-305h-113v698z" />
    <glyph glyph-name="uni049D" unicode="&#x49d;" horiz-adv-x="619"
d="M78 520h109v-210h43v117h74v-117h36l75 140q21 41 43.5 55.5t57.5 14.5h53v-89h-58l-59 -110q-14 -26 -25.5 -36t-28.5 -15v-4q21 -4 34.5 -14t27.5 -37l63 -126h57v-89h-63q-33 0 -57 15.5t-44 54.5l-76 152h-36v-116h-74v116h-43v-222h-109v520z" />
    <glyph glyph-name="uni04A0" unicode="&#x4a0;" horiz-adv-x="772"
d="M191 598h-169v100h282v-294h121l124 218q23 41 48.5 58.5t62.5 17.5h53v-100h-63l-100 -176q-17 -29 -31.5 -42t-35.5 -20v-5q24 -5 41 -17t35 -44l111 -194h61v-100h-69q-33 0 -57 16.5t-48 58.5l-132 230h-121v-305h-113v598z" />
    <glyph glyph-name="uni04A1" unicode="&#x4a1;" horiz-adv-x="641"
d="M152 431h-132v89h241v-210h91l87 145q22 38 44 51.5t55 13.5h53v-89h-58l-66 -110q-14 -26 -26 -36t-31 -15v-4q20 -4 35 -14.5t29 -36.5l71 -126h57v-89h-63q-32 0 -56 15t-45 53l-86 154h-91v-222h-109v431z" />
    <glyph glyph-name="uni04A2" unicode="&#x4a2;" horiz-adv-x="762"
d="M627 0h-112v304h-316v-304h-113v698h113v-294h316v294h113v-598h104v-250h-105v150z" />
    <glyph glyph-name="uni04A3" unicode="&#x4a3;" horiz-adv-x="629"
d="M509 0h-98v222h-224v-222h-109v520h109v-209h224v209h109v-431h88v-229h-99v140z" />
    <glyph glyph-name="uni04A4" unicode="&#x4a4;" horiz-adv-x="914"
d="M86 698h113v-294h296v294h393v-100h-280v-598h-113v304h-296v-304h-113v698z" />
    <glyph glyph-name="uni04A5" unicode="&#x4a5;" horiz-adv-x="760"
d="M78 520h109v-209h212v209h338v-89h-229v-431h-109v222h-212v-222h-109v520z" />
    <glyph glyph-name="uni04AA" unicode="&#x4aa;" horiz-adv-x="634"
d="M296 -8q-114 17 -177.5 107.5t-63.5 249.5q0 88 20 155t58 113t92.5 69.5t122.5 23.5q91 0 152.5 -40t96.5 -118l-95 -52q-18 50 -55.5 79.5t-98.5 29.5q-81 0 -127 -55t-46 -152v-106q0 -97 46 -152t127 -55q63 0 102.5 32.5t58.5 83.5l91 -55q-30 -65 -79.5 -105.5
t-119.5 -52.5v-142h-105v142z" />
    <glyph glyph-name="uni04AB" unicode="&#x4ab;" horiz-adv-x="510"
d="M231 -8q-91 16 -139.5 86.5t-48.5 181.5q0 62 16 112.5t46 86t74 54.5t100 19q78 0 128 -35t73 -93l-90 -42q-11 36 -38.5 57.5t-72.5 21.5q-60 0 -90.5 -37.5t-30.5 -97.5v-93q0 -60 30.5 -97.5t90.5 -37.5q48 0 76.5 23.5t45.5 62.5l83 -44q-43 -107 -154 -127v-133
h-99v132z" />
    <glyph glyph-name="uni04AE" unicode="&#x4ae;" horiz-adv-x="617"
d="M251 0v275l-240 423h129l170 -311h3l169 311h124l-242 -421v-277h-113z" />
    <glyph glyph-name="uni04AF" unicode="&#x4af;" horiz-adv-x="513"
d="M202 0l-187 520h108l83 -238l50 -166h6l51 166l82 238h103l-187 -520v-200h-109v200z" />
    <glyph glyph-name="uni04B0" unicode="&#x4b0;" horiz-adv-x="617"
d="M251 189h-153v86h153l-240 423h128l171 -312h3l167 312h126l-242 -423h153v-86h-153v-189h-113v189z" />
    <glyph glyph-name="uni04B1" unicode="&#x4b1;" horiz-adv-x="513"
d="M202 -79h-122v79h122l-187 520h108l83 -238l50 -166h6l51 166l82 238h103l-187 -520h122v-79h-122v-121h-109v121z" />
    <glyph glyph-name="uni04B2" unicode="&#x4b2;" horiz-adv-x="666"
d="M553 0h-68l-169 278h-3l-167 -278h-125l226 357l-218 341h133l159 -260h2l161 260h125l-220 -340l165 -258h104v-250h-105v150z" />
    <glyph glyph-name="uni04B3" unicode="&#x4b3;" horiz-adv-x="549"
d="M442 0h-58l-120 189h-3l-125 -189h-116l183 263l-178 257h126l117 -181h3l120 181h116l-178 -256l120 -175h92v-229h-99v140z" />
    <glyph glyph-name="uni04B6" unicode="&#x4b6;" horiz-adv-x="707"
d="M572 0h-112v263h-5q-26 -11 -62.5 -17t-82.5 -6q-131 0 -192.5 62t-61.5 190v206h113v-209q0 -78 37 -114t112 -36q47 0 82.5 5.5t59.5 15.5v338h113v-598h104v-250h-105v150z" />
    <glyph glyph-name="uni04B7" unicode="&#x4b7;" horiz-adv-x="586"
d="M466 0h-98v231h-5q-22 -29 -56 -47t-89 -18q-83 0 -125.5 42t-42.5 129v183h109v-176q0 -44 23 -64.5t74 -20.5t81.5 15t30.5 43v203h109v-431h88v-229h-99v140z" />
    <glyph glyph-name="uni04B8" unicode="&#x4b8;" horiz-adv-x="668"
d="M468 263h-5q-37 -15 -99 -21v-133h-85v132q-115 8 -169 70t-54 181v206h113v-209q0 -131 110 -147v156h85v-158q64 3 104 20v338h113v-698h-113v263z" />
    <glyph glyph-name="uni04B9" unicode="&#x4b9;" horiz-adv-x="563"
d="M376 223h-5q-11 -15 -28.5 -28.5t-37.5 -20.5v-92h-74v84q-181 0 -181 171v183h109v-176q0 -73 72 -83v141h74v-141q31 2 51 17t20 37v205h109v-520h-109v223z" />
    <glyph glyph-name="uni04BA" unicode="&#x4ba;" horiz-adv-x="659"
d="M86 698h113v-263h5q26 11 62.5 17t82.5 6q131 0 192.5 -62t61.5 -190v-206h-113v209q0 78 -36.5 114t-111.5 36q-48 0 -83.5 -5.5t-59.5 -15.5v-338h-113v698z" />
    <glyph glyph-name="uni04BB" unicode="&#x4bb;" horiz-adv-x="580"
d="M78 740h109v-306h5q17 42 51.5 70t94.5 28q80 0 124.5 -52.5t44.5 -149.5v-330h-109v317q0 121 -98 121q-21 0 -41.5 -5.5t-36.5 -16.5t-25.5 -28t-9.5 -39v-349h-109v740z" />
    <glyph glyph-name="uni04C0" unicode="&#x4c0;" horiz-adv-x="416"
d="M56 0v92h95v514h-95v92h304v-92h-96v-514h96v-92h-304z" />
    <glyph glyph-name="uni04C1" unicode="&#x4c1;" horiz-adv-x="991"
d="M42 100h62l95 188q16 32 33 47t40 20v5q-21 7 -38 21.5t-31 43.5l-81 173h-62v100h55q38 0 64.5 -17t46.5 -59l103 -218h110v294h113v-294h110l103 218q20 42 46.5 59t64.5 17h55v-100h-62l-81 -173q-14 -29 -31 -43.5t-38 -21.5v-5q23 -5 40 -20t33 -47l95 -188h62v-100
h-70q-35 0 -57.5 16.5t-45.5 61.5l-114 227h-110v-305h-113v305h-110l-114 -227q-23 -45 -45.5 -61.5t-57.5 -16.5h-70v100zM494 755q-60 0 -95.5 24.5t-56.5 67.5l-20 44l89 36l34 -90q10 -3 23.5 -5t25.5 -2t25.5 2t23.5 5l34 90l89 -36l-20 -44q-21 -43 -56.5 -67.5
t-95.5 -24.5z" />
    <glyph glyph-name="uni04C2" unicode="&#x4c2;" horiz-adv-x="811"
d="M39 89h58l57 126q11 23 26.5 35t34.5 16v4q-38 11 -59 54l-49 107h-58v89h53q35 0 59.5 -16t41.5 -52l67 -142h81v210h109v-210h81l67 142q17 36 41.5 52t59.5 16h53v-89h-58l-49 -107q-21 -43 -59 -54v-4q19 -4 34.5 -16t26.5 -35l57 -126h58v-89h-62q-34 0 -58 15.5
t-43 56.5l-68 150h-81v-222h-109v222h-81l-68 -150q-19 -41 -43 -56.5t-58 -15.5h-62v89zM405 589q-60 0 -95.5 24.5t-56.5 67.5l-20 44l89 36l34 -90q10 -3 23.5 -5t25.5 -2t25.5 2t23.5 5l34 90l89 -36l-20 -44q-21 -43 -56.5 -67.5t-95.5 -24.5z" />
    <glyph glyph-name="uni04CF" unicode="&#x4cf;" horiz-adv-x="265"
d="M78 740h109v-740h-109v740z" />
    <glyph glyph-name="uni04D0" unicode="&#x4d0;" horiz-adv-x="662"
d="M522 0l-63 189h-261l-61 -189h-115l238 698h142l238 -698h-118zM331 594h-5l-101 -308h206zM329 755q-60 0 -95.5 24.5t-56.5 67.5l-20 44l89 36l34 -90q10 -3 23.5 -5t25.5 -2t25.5 2t23.5 5l34 90l89 -36l-20 -44q-21 -43 -56.5 -67.5t-95.5 -24.5z" />
    <glyph glyph-name="uni04D1" unicode="&#x4d1;" horiz-adv-x="549"
d="M459 0q-43 0 -66 24.5t-28 62.5h-5q-15 -49 -55 -74t-97 -25q-81 0 -124.5 42t-43.5 113q0 78 56.5 117t165.5 39h94v44q0 48 -26 74t-81 26q-46 0 -75 -20t-49 -51l-65 59q26 44 73 72.5t123 28.5q101 0 155 -47t54 -135v-261h55v-89h-61zM239 71q51 0 84 22.5t33 60.5
v75h-92q-113 0 -113 -70v-18q0 -35 23.5 -52.5t64.5 -17.5zM260 589q-60 0 -95.5 24.5t-56.5 67.5l-20 44l89 36l34 -90q10 -3 23.5 -5t25.5 -2t25.5 2t23.5 5l34 90l89 -36l-20 -44q-21 -43 -56.5 -67.5t-95.5 -24.5z" />
    <glyph glyph-name="uni04D2" unicode="&#x4d2;" horiz-adv-x="662"
d="M522 0l-63 189h-261l-61 -189h-115l238 698h142l238 -698h-118zM331 594h-5l-101 -308h206zM230 776q-34 0 -48.5 15.5t-14.5 38.5v18q0 23 14.5 38.5t48.5 15.5t48.5 -15.5t14.5 -38.5v-18q0 -23 -14.5 -38.5t-48.5 -15.5zM430 776q-34 0 -48.5 15.5t-14.5 38.5v18
q0 23 14.5 38.5t48.5 15.5t48.5 -15.5t14.5 -38.5v-18q0 -23 -14.5 -38.5t-48.5 -15.5z" />
    <glyph glyph-name="uni04D3" unicode="&#x4d3;" horiz-adv-x="549"
d="M459 0q-43 0 -66 24.5t-28 62.5h-5q-15 -49 -55 -74t-97 -25q-81 0 -124.5 42t-43.5 113q0 78 56.5 117t165.5 39h94v44q0 48 -26 74t-81 26q-46 0 -75 -20t-49 -51l-65 59q26 44 73 72.5t123 28.5q101 0 155 -47t54 -135v-261h55v-89h-61zM239 71q51 0 84 22.5t33 60.5
v75h-92q-113 0 -113 -70v-18q0 -35 23.5 -52.5t64.5 -17.5zM160 610q-34 0 -48 15t-14 38v18q0 23 14 38t48 15t48 -15t14 -38v-18q0 -23 -14 -38t-48 -15zM360 610q-34 0 -48 15t-14 38v18q0 23 14 38t48 15t48 -15t14 -38v-18q0 -23 -14 -38t-48 -15z" />
    <glyph glyph-name="uni04D4" unicode="&#x4d4;" horiz-adv-x="933"
d="M426 188h-218l-92 -188h-114l350 698h521v-100h-334v-194h303v-100h-303v-204h334v-100h-447v188zM409 598l-155 -312h172v312h-17z" />
    <glyph glyph-name="uni04D5" unicode="&#x4d5;" horiz-adv-x="865"
d="M264 232q-113 -2 -113 -71v-18q0 -35 23.5 -53.5t66.5 -18.5q48 0 81.5 22.5t33.5 60.5v78h-92zM707 304v10q0 60 -31 96.5t-85 36.5q-28 0 -51.5 -10t-40 -28t-25.5 -43t-9 -55v-7h242zM604 78q48 0 81.5 21t54.5 56l64 -62q-29 -48 -82.5 -76.5t-122.5 -28.5
q-39 0 -72.5 10t-59 26t-42 35.5t-23.5 38.5h-6q-5 -18 -19.5 -37.5t-37.5 -35.5t-56 -26.5t-75 -10.5q-79 0 -123.5 43t-44.5 112q0 79 58 120t164 41h94v39q0 48 -26 74t-80 26q-48 0 -76.5 -19.5t-48.5 -50.5l-65 58q26 44 73 72.5t123 28.5q36 0 62 -9t44.5 -23
t30 -31.5t19.5 -34.5h6q8 18 24 35.5t38.5 31.5t52 22.5t64.5 8.5q56 0 98 -20t70.5 -55.5t42.5 -82.5t14 -101v-41h-357v-17q0 -60 36.5 -98.5t102.5 -38.5z" />
    <glyph glyph-name="uni04D6" unicode="&#x4d6;" horiz-adv-x="593"
d="M86 0v698h447v-100h-334v-194h303v-100h-303v-204h334v-100h-447zM308 755q-60 0 -95.5 24.5t-56.5 67.5l-20 44l89 36l34 -90q10 -3 23.5 -5t25.5 -2t25.5 2t23.5 5l34 90l89 -36l-20 -44q-21 -43 -56.5 -67.5t-95.5 -24.5z" />
    <glyph glyph-name="uni04D7" unicode="&#x4d7;" horiz-adv-x="556"
d="M282 -12q-56 0 -100 19t-75 54.5t-47.5 86t-16.5 112.5t16.5 112.5t47.5 86t75 54.5t100 19q57 0 100.5 -20t72.5 -55.5t43.5 -82.5t14.5 -101v-41h-357v-17q0 -60 35.5 -98.5t101.5 -38.5q48 0 81 21t56 57l64 -63q-29 -48 -84 -76.5t-128 -28.5zM282 447
q-28 0 -51.5 -10t-40 -28t-25.5 -43t-9 -55v-7h242v10q0 60 -31 96.5t-85 36.5zM284 589q-60 0 -95.5 24.5t-56.5 67.5l-20 44l89 36l34 -90q10 -3 23.5 -5t25.5 -2t25.5 2t23.5 5l34 90l89 -36l-20 -44q-21 -43 -56.5 -67.5t-95.5 -24.5z" />
    <glyph glyph-name="uni04D8" unicode="&#x4d8;" horiz-adv-x="712"
d="M537 401q0 48 -13.5 86.5t-38 65.5t-58 41.5t-72.5 14.5q-68 0 -110 -33.5t-63 -92.5l-99 41q15 39 39 73t58 59t78 39.5t97 14.5q69 0 125 -24t95.5 -70t60.5 -113.5t21 -153.5t-21 -153.5t-60.5 -113.5t-95.5 -70t-125 -24t-124.5 23t-94.5 68.5t-60 113t-21 156.5v34
h482v18zM174 290q1 -44 14 -81t37.5 -64t57.5 -41.5t72 -14.5t72.5 14.5t58 41.5t37.5 64t14 81h-363z" />
    <glyph glyph-name="uni04D9" unicode="&#x4d9;" horiz-adv-x="556"
d="M400 288v17q0 60 -34.5 98.5t-100.5 38.5q-50 0 -82.5 -22t-52.5 -56l-65 63q29 48 83.5 76.5t126.5 28.5q55 0 99.5 -19t75 -54.5t47 -86t16.5 -112.5t-16.5 -112.5t-47 -86t-75 -54.5t-99.5 -19q-57 0 -100.5 20t-73 55.5t-44 82.5t-14.5 101v41h357zM157 206
q0 -60 31 -96.5t86 -36.5q28 0 51.5 10t40 28t25.5 43t9 55v7h-243v-10z" />
    <glyph glyph-name="uni04DC" unicode="&#x4dc;" horiz-adv-x="991"
d="M42 100h62l95 188q16 32 33 47t40 20v5q-21 7 -38 21.5t-31 43.5l-81 173h-62v100h55q38 0 64.5 -17t46.5 -59l103 -218h110v294h113v-294h110l103 218q20 42 46.5 59t64.5 17h55v-100h-62l-81 -173q-14 -29 -31 -43.5t-38 -21.5v-5q23 -5 40 -20t33 -47l95 -188h62v-100
h-70q-35 0 -57.5 16.5t-45.5 61.5l-114 227h-110v-305h-113v305h-110l-114 -227q-23 -45 -45.5 -61.5t-57.5 -16.5h-70v100zM395 776q-34 0 -48.5 15.5t-14.5 38.5v18q0 23 14.5 38.5t48.5 15.5t48.5 -15.5t14.5 -38.5v-18q0 -23 -14.5 -38.5t-48.5 -15.5zM595 776
q-34 0 -48.5 15.5t-14.5 38.5v18q0 23 14.5 38.5t48.5 15.5t48.5 -15.5t14.5 -38.5v-18q0 -23 -14.5 -38.5t-48.5 -15.5z" />
    <glyph glyph-name="uni04DD" unicode="&#x4dd;" horiz-adv-x="811"
d="M39 89h58l57 126q11 23 26.5 35t34.5 16v4q-38 11 -59 54l-49 107h-58v89h53q35 0 59.5 -16t41.5 -52l67 -142h81v210h109v-210h81l67 142q17 36 41.5 52t59.5 16h53v-89h-58l-49 -107q-21 -43 -59 -54v-4q19 -4 34.5 -16t26.5 -35l57 -126h58v-89h-62q-34 0 -58 15.5
t-43 56.5l-68 150h-81v-222h-109v222h-81l-68 -150q-19 -41 -43 -56.5t-58 -15.5h-62v89zM305 610q-34 0 -48 15t-14 38v18q0 23 14 38t48 15t48 -15t14 -38v-18q0 -23 -14 -38t-48 -15zM505 610q-34 0 -48 15t-14 38v18q0 23 14 38t48 15t48 -15t14 -38v-18q0 -23 -14 -38
t-48 -15z" />
    <glyph glyph-name="uni04DE" unicode="&#x4de;" horiz-adv-x="599"
d="M283 -12q-82 0 -143.5 30t-105.5 85l77 71q32 -41 73.5 -63t98.5 -22q69 0 106 26t37 79v11q0 48 -31 74t-97 26h-112v100h106q62 0 91 25.5t29 76.5v10q0 45 -30.5 68.5t-92.5 23.5q-54 0 -93.5 -19.5t-64.5 -52.5l-77 65q41 51 98 79.5t137 28.5q118 0 180.5 -51
t62.5 -137q0 -72 -38.5 -110t-99.5 -48v-5q30 -3 57.5 -14t48.5 -30.5t33.5 -48t12.5 -67.5q0 -47 -18 -86t-52 -67t-83 -43t-110 -15zM190 776q-34 0 -48.5 15.5t-14.5 38.5v18q0 23 14.5 38.5t48.5 15.5t48.5 -15.5t14.5 -38.5v-18q0 -23 -14.5 -38.5t-48.5 -15.5z
M390 776q-34 0 -48.5 15.5t-14.5 38.5v18q0 23 14.5 38.5t48.5 15.5t48.5 -15.5t14.5 -38.5v-18q0 -23 -14.5 -38.5t-48.5 -15.5z" />
    <glyph glyph-name="uni04DF" unicode="&#x4df;" horiz-adv-x="514"
d="M240 -12q-78 0 -128 26t-86 74l71 65q24 -35 59.5 -55t83.5 -20q56 0 82.5 20t26.5 52v12q0 32 -21.5 48.5t-61.5 16.5h-112v80h101q40 0 61.5 15.5t21.5 45.5v11q0 29 -24 46t-76 17q-47 0 -80 -19t-53 -51l-68 59q30 46 80.5 73.5t127.5 27.5q104 0 154.5 -38.5
t50.5 -102.5q0 -50 -26 -77.5t-78 -37.5v-5q57 -7 86.5 -38t29.5 -80q0 -77 -59.5 -121t-162.5 -44zM144 610q-34 0 -48 15t-14 38v18q0 23 14 38t48 15t48 -15t14 -38v-18q0 -23 -14 -38t-48 -15zM344 610q-34 0 -48 15t-14 38v18q0 23 14 38t48 15t48 -15t14 -38v-18
q0 -23 -14 -38t-48 -15z" />
    <glyph glyph-name="uni04E2" unicode="&#x4e2;" horiz-adv-x="714"
d="M86 698h110v-397l-11 -144h3l70 129l268 412h102v-698h-110v397l11 144h-3l-70 -129l-268 -412h-102v698zM211 881h292v-83h-292v83z" />
    <glyph glyph-name="uni04E3" unicode="&#x4e3;" horiz-adv-x="598"
d="M78 520h107v-254l-10 -123h4l62 111l180 266h99v-520h-107v254l10 123h-4l-62 -111l-180 -266h-99v520zM154 714h292v-83h-292v83z" />
    <glyph glyph-name="uni04E4" unicode="&#x4e4;" horiz-adv-x="714"
d="M86 698h110v-397l-11 -144h3l70 129l268 412h102v-698h-110v397l11 144h-3l-70 -129l-268 -412h-102v698zM257 776q-34 0 -48.5 15.5t-14.5 38.5v18q0 23 14.5 38.5t48.5 15.5t48.5 -15.5t14.5 -38.5v-18q0 -23 -14.5 -38.5t-48.5 -15.5zM457 776q-34 0 -48.5 15.5
t-14.5 38.5v18q0 23 14.5 38.5t48.5 15.5t48.5 -15.5t14.5 -38.5v-18q0 -23 -14.5 -38.5t-48.5 -15.5z" />
    <glyph glyph-name="uni04E5" unicode="&#x4e5;" horiz-adv-x="598"
d="M78 520h107v-254l-10 -123h4l62 111l180 266h99v-520h-107v254l10 123h-4l-62 -111l-180 -266h-99v520zM200 610q-34 0 -48 15t-14 38v18q0 23 14 38t48 15t48 -15t14 -38v-18q0 -23 -14 -38t-48 -15zM400 610q-34 0 -48 15t-14 38v18q0 23 14 38t48 15t48 -15t14 -38
v-18q0 -23 -14 -38t-48 -15z" />
    <glyph glyph-name="uni04E6" unicode="&#x4e6;" horiz-adv-x="712"
d="M356 -12q-68 0 -123.5 23.5t-95 69t-61 113t-21.5 155.5t21.5 155.5t61 113t95 69t123.5 23.5t123.5 -23.5t95 -69t61 -113t21.5 -155.5t-21.5 -155.5t-61 -113t-95 -69t-123.5 -23.5zM356 89q40 0 73.5 14t57 40.5t36.5 64.5t13 86v110q0 48 -13 86t-36.5 64.5t-57 40.5
t-73.5 14q-41 0 -74 -14t-56.5 -40.5t-36.5 -64.5t-13 -86v-110q0 -48 13 -86t36.5 -64.5t56.5 -40.5t74 -14zM256 776q-34 0 -48.5 15.5t-14.5 38.5v18q0 23 14.5 38.5t48.5 15.5t48.5 -15.5t14.5 -38.5v-18q0 -23 -14.5 -38.5t-48.5 -15.5zM456 776q-34 0 -48.5 15.5
t-14.5 38.5v18q0 23 14.5 38.5t48.5 15.5t48.5 -15.5t14.5 -38.5v-18q0 -23 -14.5 -38.5t-48.5 -15.5z" />
    <glyph glyph-name="uni04E7" unicode="&#x4e7;" horiz-adv-x="564"
d="M282 -12q-54 0 -98.5 19t-75.5 54.5t-48 86t-17 112.5t17 112.5t48 86t75.5 54.5t98.5 19t98.5 -19t75.5 -54.5t48 -86t17 -112.5t-17 -112.5t-48 -86t-75.5 -54.5t-98.5 -19zM282 78q56 0 90 34.5t34 103.5v88q0 69 -34 103.5t-90 34.5t-90 -34.5t-34 -103.5v-88
q0 -69 34 -103.5t90 -34.5zM182 610q-34 0 -48 15t-14 38v18q0 23 14 38t48 15t48 -15t14 -38v-18q0 -23 -14 -38t-48 -15zM382 610q-34 0 -48 15t-14 38v18q0 23 14 38t48 15t48 -15t14 -38v-18q0 -23 -14 -38t-48 -15z" />
    <glyph glyph-name="uni04E8" unicode="&#x4e8;" horiz-adv-x="710"
d="M355 -12q-68 0 -123.5 23.5t-94.5 69t-60.5 113t-21.5 155.5t21.5 155.5t60.5 113t94.5 69t123.5 23.5t123.5 -23.5t94.5 -69t60.5 -113t21.5 -155.5t-21.5 -155.5t-60.5 -113t-94.5 -69t-123.5 -23.5zM355 84q83 0 133.5 55.5t50.5 153.5v10h-368v-10q0 -98 50.5 -153.5
t133.5 -55.5zM171 402h368v3q0 98 -50.5 153.5t-133.5 55.5t-133.5 -55.5t-50.5 -153.5v-3z" />
    <glyph glyph-name="uni04E9" unicode="&#x4e9;" horiz-adv-x="564"
d="M282 -12q-54 0 -98.5 19t-75.5 54.5t-48 86t-17 112.5t17 112.5t48 86t75.5 54.5t98.5 19t98.5 -19t75.5 -54.5t48 -86t17 -112.5t-17 -112.5t-48 -86t-75.5 -54.5t-98.5 -19zM282 75q57 0 92.5 35t35.5 104v10h-256v-10q0 -69 35.5 -104t92.5 -35zM154 302h256v4
q0 69 -35.5 104t-92.5 35t-92.5 -35t-35.5 -104v-4z" />
    <glyph glyph-name="uni04EE" unicode="&#x4ee;" horiz-adv-x="610"
d="M133 100h110l26 64l-252 534h120l128 -275l55 -129h4l47 131l109 273h113l-245 -605q-11 -27 -23 -45t-28 -28.5t-37.5 -15t-51.5 -4.5h-75v100zM166 881h292v-83h-292v83z" />
    <glyph glyph-name="uni04EF" unicode="&#x4ef;" horiz-adv-x="514"
d="M397 520h105l-219 -623q-9 -26 -20.5 -44.5t-27 -30t-37.5 -17t-52 -5.5h-63v89h88l30 88l-189 543h109l104 -306l30 -113h5l33 113zM114 714h292v-83h-292v83z" />
    <glyph glyph-name="uni04F0" unicode="&#x4f0;" horiz-adv-x="610"
d="M133 100h110l26 64l-252 534h120l128 -275l55 -129h4l47 131l109 273h113l-245 -605q-11 -27 -23 -45t-28 -28.5t-37.5 -15t-51.5 -4.5h-75v100zM212 776q-34 0 -48.5 15.5t-14.5 38.5v18q0 23 14.5 38.5t48.5 15.5t48.5 -15.5t14.5 -38.5v-18q0 -23 -14.5 -38.5
t-48.5 -15.5zM412 776q-34 0 -48.5 15.5t-14.5 38.5v18q0 23 14.5 38.5t48.5 15.5t48.5 -15.5t14.5 -38.5v-18q0 -23 -14.5 -38.5t-48.5 -15.5z" />
    <glyph glyph-name="uni04F1" unicode="&#x4f1;" horiz-adv-x="514"
d="M397 520h105l-219 -623q-9 -26 -20.5 -44.5t-27 -30t-37.5 -17t-52 -5.5h-63v89h88l30 88l-189 543h109l104 -306l30 -113h5l33 113zM160 610q-34 0 -48 15t-14 38v18q0 23 14 38t48 15t48 -15t14 -38v-18q0 -23 -14 -38t-48 -15zM360 610q-34 0 -48 15t-14 38v18
q0 23 14 38t48 15t48 -15t14 -38v-18q0 -23 -14 -38t-48 -15z" />
    <glyph glyph-name="uni04F2" unicode="&#x4f2;" horiz-adv-x="610"
d="M133 100h110l26 64l-252 534h120l128 -275l55 -129h4l47 131l109 273h113l-245 -605q-11 -27 -23 -45t-28 -28.5t-37.5 -15t-51.5 -4.5h-75v100zM232 749l-62 29l91 181l89 -44zM411 749l-62 29l91 181l89 -44z" />
    <glyph glyph-name="uni04F3" unicode="&#x4f3;" horiz-adv-x="514"
d="M397 520h105l-219 -623q-9 -26 -20.5 -44.5t-27 -30t-37.5 -17t-52 -5.5h-63v89h88l30 88l-189 543h109l104 -306l30 -113h5l33 113zM180 583l-62 29l91 181l89 -44zM359 583l-62 29l91 181l89 -44z" />
    <glyph glyph-name="uni04F4" unicode="&#x4f4;" horiz-adv-x="659"
d="M460 263h-5q-26 -11 -62.5 -17t-82.5 -6q-131 0 -192.5 62t-61.5 190v206h113v-209q0 -78 37 -114t112 -36q47 0 82.5 5.5t59.5 15.5v338h113v-698h-113v263zM214 776q-34 0 -48.5 15.5t-14.5 38.5v18q0 23 14.5 38.5t48.5 15.5t48.5 -15.5t14.5 -38.5v-18
q0 -23 -14.5 -38.5t-48.5 -15.5zM414 776q-34 0 -48.5 15.5t-14.5 38.5v18q0 23 14.5 38.5t48.5 15.5t48.5 -15.5t14.5 -38.5v-18q0 -23 -14.5 -38.5t-48.5 -15.5z" />
    <glyph glyph-name="uni04F5" unicode="&#x4f5;" horiz-adv-x="555"
d="M368 231h-5q-22 -29 -56 -47t-89 -18q-83 0 -125.5 42t-42.5 129v183h109v-176q0 -44 23 -64.5t74 -20.5t81.5 15t30.5 43v203h109v-520h-109v231zM164 610q-34 0 -48 15t-14 38v18q0 23 14 38t48 15t48 -15t14 -38v-18q0 -23 -14 -38t-48 -15zM364 610q-34 0 -48 15
t-14 38v18q0 23 14 38t48 15t48 -15t14 -38v-18q0 -23 -14 -38t-48 -15z" />
    <glyph glyph-name="uni04F8" unicode="&#x4f8;" horiz-adv-x="900"
d="M86 698h113v-268h195q97 0 150 -57.5t53 -157.5t-53 -157.5t-150 -57.5h-308v698zM387 99q43 0 67 23t24 69v48q0 46 -24 69t-67 23h-188v-232h188zM701 698h113v-698h-113v698zM350 776q-34 0 -48.5 15.5t-14.5 38.5v18q0 23 14.5 38.5t48.5 15.5t48.5 -15.5t14.5 -38.5
v-18q0 -23 -14.5 -38.5t-48.5 -15.5zM550 776q-34 0 -48.5 15.5t-14.5 38.5v18q0 23 14.5 38.5t48.5 15.5t48.5 -15.5t14.5 -38.5v-18q0 -23 -14.5 -38.5t-48.5 -15.5z" />
    <glyph glyph-name="uni04F9" unicode="&#x4f9;" horiz-adv-x="760"
d="M78 520h109v-174h133q39 0 71 -11.5t55 -34t36 -54.5t13 -73q0 -83 -48 -128t-126 -45h-243v520zM300 85q38 0 60 16.5t22 51.5v41q0 35 -22 51t-60 16h-113v-176h113zM573 520h109v-520h-109v520zM280 610q-34 0 -48 15t-14 38v18q0 23 14 38t48 15t48 -15t14 -38v-18
q0 -23 -14 -38t-48 -15zM480 610q-34 0 -48 15t-14 38v18q0 23 14 38t48 15t48 -15t14 -38v-18q0 -23 -14 -38t-48 -15z" />
    <glyph glyph-name="uni0E3F" unicode="&#xe3f;" horiz-adv-x="652"
d="M365 -85h-85v106h-194v656h194v103h85v-103h29q85 0 132.5 -46t47.5 -123q0 -67 -33 -99.5t-88 -40.5v-6q27 -3 53.5 -12t47 -26.5t33 -45.5t12.5 -68t-13.5 -74.5t-37 -60t-56 -40t-69.5 -14.5h-58v-106zM285 399v184h-91v-184h91zM360 399h20q81 0 81 76v32
q0 76 -81 76h-20v-184zM285 115v195h-91v-195h91zM360 115h33q43 0 68 20t25 61v33q0 41 -25 61t-68 20h-33v-195z" />
    <glyph glyph-name="Wgrave" unicode="&#x1e80;" horiz-adv-x="926"
d="M189 0l-165 698h115l71 -336l49 -232h3l56 232l83 336h126l82 -336l55 -231h3l51 231l73 336h111l-172 -698h-127l-89 361l-52 212h-2l-53 -212l-91 -361h-127zM335 915l95 46l91 -180l-68 -32z" />
    <glyph glyph-name="wgrave" unicode="&#x1e81;" horiz-adv-x="799"
d="M26 520h106l53 -218l47 -197h3l54 197l63 218h98l64 -218l55 -197h3l46 197l54 218h101l-140 -520h-123l-68 237l-42 146h-2l-41 -146l-69 -237h-120zM271 749l95 46l91 -180l-68 -33z" />
    <glyph glyph-name="Wacute" unicode="&#x1e82;" horiz-adv-x="926"
d="M189 0l-165 698h115l71 -336l49 -232h3l56 232l83 336h126l82 -336l55 -231h3l51 231l73 336h111l-172 -698h-127l-89 361l-52 212h-2l-53 -212l-91 -361h-127zM475 749l-68 32l91 180l95 -46z" />
    <glyph glyph-name="wacute" unicode="&#x1e83;" horiz-adv-x="799"
d="M26 520h106l53 -218l47 -197h3l54 197l63 218h98l64 -218l55 -197h3l46 197l54 218h101l-140 -520h-123l-68 237l-42 146h-2l-41 -146l-69 -237h-120zM411 582l-68 33l91 180l95 -46z" />
    <glyph glyph-name="Wdieresis" unicode="&#x1e84;" horiz-adv-x="926"
d="M189 0l-165 698h115l71 -336l49 -232h3l56 232l83 336h126l82 -336l55 -231h3l51 231l73 336h111l-172 -698h-127l-89 361l-52 212h-2l-53 -212l-91 -361h-127zM364 776q-34 0 -48.5 15.5t-14.5 38.5v18q0 23 14.5 38.5t48.5 15.5t48.5 -15.5t14.5 -38.5v-18
q0 -23 -14.5 -38.5t-48.5 -15.5zM564 776q-34 0 -48.5 15.5t-14.5 38.5v18q0 23 14.5 38.5t48.5 15.5t48.5 -15.5t14.5 -38.5v-18q0 -23 -14.5 -38.5t-48.5 -15.5z" />
    <glyph glyph-name="wdieresis" unicode="&#x1e85;" horiz-adv-x="799"
d="M26 520h106l53 -218l47 -197h3l54 197l63 218h98l64 -218l55 -197h3l46 197l54 218h101l-140 -520h-123l-68 237l-42 146h-2l-41 -146l-69 -237h-120zM300 610q-34 0 -48 15t-14 38v18q0 23 14 38t48 15t48 -15t14 -38v-18q0 -23 -14 -38t-48 -15zM500 610q-34 0 -48 15
t-14 38v18q0 23 14 38t48 15t48 -15t14 -38v-18q0 -23 -14 -38t-48 -15z" />
    <glyph glyph-name="uni1E9E" unicode="&#x1e9e;" horiz-adv-x="713"
d="M671 205q0 -49 -15.5 -89t-45 -68.5t-71 -44t-92.5 -15.5q-132 0 -199 87l74 70q24 -30 54 -46.5t71 -16.5q51 0 79 29t28 75v32q0 46 -28.5 73.5t-87.5 27.5h-95v94l162 188h-306v-601h-113v698h532v-106l-157 -183v-4q43 -1 81.5 -14t67 -38t45 -62t16.5 -86z" />
    <glyph glyph-name="uni1EA0" unicode="&#x1ea0;" horiz-adv-x="662"
d="M522 0l-63 189h-261l-61 -189h-115l238 698h142l238 -698h-118zM331 594h-5l-101 -308h206zM330 -184q-34 0 -49 15t-15 38v18q0 23 15 38t49 15t49 -15t15 -38v-18q0 -23 -15 -38t-49 -15z" />
    <glyph glyph-name="uni1EA1" unicode="&#x1ea1;" horiz-adv-x="549"
d="M459 0q-43 0 -66 24.5t-28 62.5h-5q-15 -49 -55 -74t-97 -25q-81 0 -124.5 42t-43.5 113q0 78 56.5 117t165.5 39h94v44q0 48 -26 74t-81 26q-46 0 -75 -20t-49 -51l-65 59q26 44 73 72.5t123 28.5q101 0 155 -47t54 -135v-261h55v-89h-61zM239 71q51 0 84 22.5t33 60.5
v75h-92q-113 0 -113 -70v-18q0 -35 23.5 -52.5t64.5 -17.5zM255 -184q-34 0 -49 15t-15 38v18q0 23 15 38t49 15t49 -15t15 -38v-18q0 -23 -15 -38t-49 -15z" />
    <glyph glyph-name="uni1EA2" unicode="&#x1ea2;" horiz-adv-x="662"
d="M522 0l-63 189h-261l-61 -189h-115l238 698h142l238 -698h-118zM331 594h-5l-101 -308h206zM231 947h123q46 0 64 -18.5t18 -44.5q0 -25 -14 -54t-38 -59l-26 -31l-58 28l50 99h-119v80z" />
    <glyph glyph-name="uni1EA3" unicode="&#x1ea3;" horiz-adv-x="549"
d="M459 0q-43 0 -66 24.5t-28 62.5h-5q-15 -49 -55 -74t-97 -25q-81 0 -124.5 42t-43.5 113q0 78 56.5 117t165.5 39h94v44q0 48 -26 74t-81 26q-46 0 -75 -20t-49 -51l-65 59q26 44 73 72.5t123 28.5q101 0 155 -47t54 -135v-261h55v-89h-61zM239 71q51 0 84 22.5t33 60.5
v75h-92q-113 0 -113 -70v-18q0 -35 23.5 -52.5t64.5 -17.5zM160 781h123q46 0 64 -18.5t18 -44.5q0 -25 -14 -54t-38 -59l-26 -31l-58 28l50 99h-119v80z" />
    <glyph glyph-name="uni1EA4" unicode="&#x1ea4;" horiz-adv-x="662"
d="M522 0l-63 189h-261l-61 -189h-115l238 698h142l238 -698h-118zM331 594h-5l-101 -308h206zM492 879l-62 30l91 180l89 -44zM379 927l125 -140l-53 -45l-121 109l-121 -109l-53 45l125 140h98z" />
    <glyph glyph-name="uni1EA5" unicode="&#x1ea5;" horiz-adv-x="549"
d="M459 0q-43 0 -66 24.5t-28 62.5h-5q-15 -49 -55 -74t-97 -25q-81 0 -124.5 42t-43.5 113q0 78 56.5 117t165.5 39h94v44q0 48 -26 74t-81 26q-46 0 -75 -20t-49 -51l-65 59q26 44 73 72.5t123 28.5q101 0 155 -47t54 -135v-261h55v-89h-61zM239 71q51 0 84 22.5t33 60.5
v75h-92q-113 0 -113 -70v-18q0 -35 23.5 -52.5t64.5 -17.5zM421 713l-62 30l91 180l89 -44zM308 760l125 -139l-53 -45l-121 109l-121 -109l-53 45l125 139h98z" />
    <glyph glyph-name="uni1EA6" unicode="&#x1ea6;" horiz-adv-x="662"
d="M522 0l-63 189h-261l-61 -189h-115l238 698h142l238 -698h-118zM331 594h-5l-101 -308h206zM50 1045l89 44l91 -180l-62 -30zM379 927l125 -140l-53 -45l-121 109l-121 -109l-53 45l125 140h98z" />
    <glyph glyph-name="uni1EA7" unicode="&#x1ea7;" horiz-adv-x="549"
d="M459 0q-43 0 -66 24.5t-28 62.5h-5q-15 -49 -55 -74t-97 -25q-81 0 -124.5 42t-43.5 113q0 78 56.5 117t165.5 39h94v44q0 48 -26 74t-81 26q-46 0 -75 -20t-49 -51l-65 59q26 44 73 72.5t123 28.5q101 0 155 -47t54 -135v-261h55v-89h-61zM239 71q51 0 84 22.5t33 60.5
v75h-92q-113 0 -113 -70v-18q0 -35 23.5 -52.5t64.5 -17.5zM-21 879l89 44l91 -180l-62 -30zM308 760l125 -139l-53 -45l-121 109l-121 -109l-53 45l125 139h98z" />
    <glyph glyph-name="uni1EA8" unicode="&#x1ea8;" horiz-adv-x="662"
d="M522 0l-63 189h-261l-61 -189h-115l238 698h142l238 -698h-118zM331 594h-5l-101 -308h206zM375 1077h120q45 0 63.5 -18.5t18.5 -43.5q0 -26 -16 -55t-39 -59l-26 -31l-53 28l53 103h-121v76zM379 927l125 -140l-53 -45l-121 109l-121 -109l-53 45l125 140h98z" />
    <glyph glyph-name="uni1EA9" unicode="&#x1ea9;" horiz-adv-x="549"
d="M459 0q-43 0 -66 24.5t-28 62.5h-5q-15 -49 -55 -74t-97 -25q-81 0 -124.5 42t-43.5 113q0 78 56.5 117t165.5 39h94v44q0 48 -26 74t-81 26q-46 0 -75 -20t-49 -51l-65 59q26 44 73 72.5t123 28.5q101 0 155 -47t54 -135v-261h55v-89h-61zM239 71q51 0 84 22.5t33 60.5
v75h-92q-113 0 -113 -70v-18q0 -35 23.5 -52.5t64.5 -17.5zM304 911h120q45 0 63.5 -18.5t18.5 -44.5q0 -25 -16 -54t-39 -59l-26 -31l-53 28l53 102h-121v77zM308 760l125 -139l-53 -45l-121 109l-121 -109l-53 45l125 139h98z" />
    <glyph glyph-name="uni1EAA" unicode="&#x1eaa;" horiz-adv-x="662"
d="M522 0l-63 189h-261l-61 -189h-115l238 698h142l238 -698h-118zM331 594h-5l-101 -308h206zM257 1075q25 0 43 -8t35 -16q23 -11 40.5 -17t33.5 -6q17 0 30 6.5t28 19.5l39 -47q-15 -23 -40.5 -40.5t-62.5 -17.5q-25 0 -43 7.5t-35 15.5q-23 11 -40.5 17t-33.5 6
q-17 0 -30 -6.5t-28 -19.5l-39 48q15 23 40.5 40.5t62.5 17.5zM379 921l124 -134l-52 -45l-121 105l-121 -105l-52 45l124 134h98z" />
    <glyph glyph-name="uni1EAB" unicode="&#x1eab;" horiz-adv-x="549"
d="M459 0q-43 0 -66 24.5t-28 62.5h-5q-15 -49 -55 -74t-97 -25q-81 0 -124.5 42t-43.5 113q0 78 56.5 117t165.5 39h94v44q0 48 -26 74t-81 26q-46 0 -75 -20t-49 -51l-65 59q26 44 73 72.5t123 28.5q101 0 155 -47t54 -135v-261h55v-89h-61zM239 71q51 0 84 22.5t33 60.5
v75h-92q-113 0 -113 -70v-18q0 -35 23.5 -52.5t64.5 -17.5zM186 908q25 0 43 -7.5t35 -15.5q23 -11 40.5 -17t33.5 -6q17 0 30 6.5t28 19.5l39 -48q-15 -23 -40.5 -40t-62.5 -17q-25 0 -43 7.5t-35 15.5q-23 11 -40.5 17t-33.5 6q-17 0 -30 -6.5t-28 -19.5l-39 48
q15 23 40.5 40t62.5 17zM308 755l124 -134l-52 -45l-121 105l-121 -105l-52 45l124 134h98z" />
    <glyph glyph-name="uni1EAC" unicode="&#x1eac;" horiz-adv-x="662"
d="M522 0l-63 189h-261l-61 -189h-115l238 698h142l238 -698h-118zM331 594h-5l-101 -308h206zM385 944l120 -150l-56 -42l-119 116l-119 -116l-56 42l120 150h110zM330 -184q-34 0 -49 15t-15 38v18q0 23 15 38t49 15t49 -15t15 -38v-18q0 -23 -15 -38t-49 -15z" />
    <glyph glyph-name="uni1EAD" unicode="&#x1ead;" horiz-adv-x="549"
d="M459 0q-43 0 -66 24.5t-28 62.5h-5q-15 -49 -55 -74t-97 -25q-81 0 -124.5 42t-43.5 113q0 78 56.5 117t165.5 39h94v44q0 48 -26 74t-81 26q-46 0 -75 -20t-49 -51l-65 59q26 44 73 72.5t123 28.5q101 0 155 -47t54 -135v-261h55v-89h-61zM239 71q51 0 84 22.5t33 60.5
v75h-92q-113 0 -113 -70v-18q0 -35 23.5 -52.5t64.5 -17.5zM315 778l120 -150l-56 -43l-119 117l-119 -117l-56 43l120 150h110zM255 -184q-34 0 -49 15t-15 38v18q0 23 15 38t49 15t49 -15t15 -38v-18q0 -23 -15 -38t-49 -15z" />
    <glyph glyph-name="uni1EAE" unicode="&#x1eae;" horiz-adv-x="662"
d="M522 0l-63 189h-261l-61 -189h-115l238 698h142l238 -698h-118zM331 594h-5l-101 -308h206zM330 746q-41 0 -70 12.5t-49 32.5t-32.5 43.5t-20.5 46.5l58 33l21 -34q18 -29 39.5 -43t53.5 -14t53.5 14t39.5 43l21 34l58 -33q-8 -23 -20.5 -46.5t-32.5 -43.5t-49 -32.5
t-70 -12.5zM341 879l-62 30l90 180l88 -44z" />
    <glyph glyph-name="uni1EAF" unicode="&#x1eaf;" horiz-adv-x="549"
d="M459 0q-43 0 -66 24.5t-28 62.5h-5q-15 -49 -55 -74t-97 -25q-81 0 -124.5 42t-43.5 113q0 78 56.5 117t165.5 39h94v44q0 48 -26 74t-81 26q-46 0 -75 -20t-49 -51l-65 59q26 44 73 72.5t123 28.5q101 0 155 -47t54 -135v-261h55v-89h-61zM239 71q51 0 84 22.5t33 60.5
v75h-92q-113 0 -113 -70v-18q0 -35 23.5 -52.5t64.5 -17.5zM259 579q-41 0 -70 13t-49 32.5t-33 43.5t-21 47l58 33l21 -32q19 -29 40.5 -44.5t53.5 -15.5t53.5 15.5t40.5 44.5l21 32l58 -33q-8 -23 -21 -47t-33 -43.5t-49 -32.5t-70 -13zM270 713l-62 30l90 180l88 -44z
" />
    <glyph glyph-name="uni1EB0" unicode="&#x1eb0;" horiz-adv-x="662"
d="M522 0l-63 189h-261l-61 -189h-115l238 698h142l238 -698h-118zM331 594h-5l-101 -308h206zM330 746q-41 0 -70 12.5t-49 32.5t-32.5 43.5t-20.5 46.5l58 33l21 -34q18 -29 39.5 -43t53.5 -14t53.5 14t39.5 43l21 34l58 -33q-8 -23 -20.5 -46.5t-32.5 -43.5t-49 -32.5
t-70 -12.5zM204 1045l88 44l89 -179l-62 -31z" />
    </font>
</defs>
</svg>
