<?xml version="1.0" standalone="no"?>
<!DOCTYPE svg PUBLIC "-//W3C//DTD SVG 1.1//EN" "http://www.w3.org/Graphics/SVG/1.1/DTD/svg11.dtd" >
<svg xmlns="http://www.w3.org/2000/svg" xmlns:xlink="http://www.w3.org/1999/xlink" version="1.1">
<metadata>
Created by FontForge 20170731 at Thu Jun 10 16:22:20 2021
 By Aleksey,,,
Copyright 2018 IBM Corp. All rights reserved.
</metadata>
<defs>
<font id="IBMPlexSans-Regular" horiz-adv-x="600" >
  <font-face
    font-family="IBM Plex Sans"
    font-weight="400"
    font-stretch="normal"
    units-per-em="1000"
    panose-1="2 11 5 3 5 2 3 0 2 3"
    ascent="780"
    descent="-220"
    x-height="516"
    cap-height="698"
    bbox="-260 -245 1241 1119"
    underline-thickness="60"
    underline-position="-185"
    unicode-range="U+000D-FB02"
  />
<missing-glyph horiz-adv-x="472"
d="M32 0v780h408v-780h-408zM92 60h288v660h-288v-660z" />
    <glyph glyph-name="fi" unicode="fi" horiz-adv-x="567"
d="M113 446h-84v70h84v104q0 54 28 87t85 33h78v-70h-111v-154h289v-516h-80v446h-209v-446h-80v446zM442 637q-26 0 -37.5 12.5t-11.5 32.5v13q0 20 11.5 32.5t37.5 12.5t37.5 -12.5t11.5 -32.5v-13q0 -20 -11.5 -32.5t-37.5 -12.5z" />
    <glyph glyph-name=".notdef" horiz-adv-x="472"
d="M32 0v780h408v-780h-408zM92 60h288v660h-288v-660z" />
    <glyph glyph-name=".null" horiz-adv-x="0"
 />
    <glyph glyph-name=".null" horiz-adv-x="0"
 />
    <glyph glyph-name="uni000D" unicode="&#xd;" horiz-adv-x="236"
 />
    <glyph glyph-name="space" unicode=" " horiz-adv-x="236"
 />
    <glyph glyph-name="exclam" unicode="!" horiz-adv-x="284"
d="M122 185l-24 310v203h88v-203l-24 -310h-40zM142 -12q-32 0 -46.5 16t-14.5 42v13q0 26 14.5 42t46.5 16t46.5 -16t14.5 -42v-13q0 -26 -14.5 -42t-46.5 -16z" />
    <glyph glyph-name="quotedbl" unicode="&#x22;" horiz-adv-x="419"
d="M85 460v280h72v-280h-72zM262 460v280h72v-280h-72z" />
    <glyph glyph-name="numbersign" unicode="#" horiz-adv-x="713"
d="M406 205h-154l-36 -205h-64l36 205h-128v60h138l28 168h-127v60h138l35 205h64l-35 -205h154l35 205h64l-35 -205h128v-60h-139l-28 -168h128v-60h-138l-36 -205h-64zM416 265l28 168h-154l-28 -168h154z" />
    <glyph glyph-name="dollar" unicode="$" horiz-adv-x="598"
d="M270 -82v82q-76 5 -128.5 37.5t-89.5 81.5l59 53q32 -43 70.5 -68.5t89.5 -32.5v257q-103 23 -150.5 67.5t-47.5 122.5q0 40 14.5 71.5t40.5 54.5t62 36.5t80 17.5v82h62v-81q68 -6 117.5 -34.5t85.5 -78.5l-61 -46q-25 35 -60 57.5t-83 29.5v-234l9 -2
q104 -23 151.5 -67.5t47.5 -123.5q0 -86 -55.5 -138.5t-151.5 -61.5v-82h-62zM460 195q0 51 -29.5 78t-99.5 44v-246q60 8 94.5 40.5t34.5 83.5zM152 524q0 -51 29.5 -76.5t89.5 -41.5v221q-54 -7 -86.5 -33t-32.5 -70z" />
    <glyph glyph-name="percent" unicode="%" horiz-adv-x="927"
d="M183 0l484 698h77l-484 -698h-77zM223 314q-76 0 -117 50.5t-41 147.5t41 147.5t117 50.5t117 -50.5t41 -147.5t-41 -147.5t-117 -50.5zM223 366q86 0 86 116v60q0 116 -86 116t-86 -116v-60q0 -116 86 -116zM704 -12q-76 0 -117 50.5t-41 147.5t41 147.5t117 50.5
t117 -50.5t41 -147.5t-41 -147.5t-117 -50.5zM704 40q86 0 86 116v60q0 116 -86 116t-86 -116v-60q0 -116 86 -116z" />
    <glyph glyph-name="ampersand" unicode="&#x26;" horiz-adv-x="694"
d="M489 82q-11 -13 -28 -29.5t-41.5 -30.5t-58 -24t-75.5 -10q-52 0 -92 15t-67 41.5t-41 61.5t-14 75q0 39 12 69t32.5 53.5t46 41.5t52.5 33q-36 38 -57.5 77.5t-21.5 86.5q0 35 13 66t36.5 53.5t57 35.5t74.5 13q37 0 68 -11t53 -30.5t34.5 -47.5t12.5 -61
q0 -35 -12.5 -62.5t-34.5 -50.5t-51 -42.5t-62 -37.5l157 -169q15 38 23 81t10 88h136v-68h-71q-7 -44 -19 -82.5t-29 -71.5l136 -145h-104zM313 643q-43 0 -70.5 -27t-27.5 -67v-12q0 -30 18.5 -60.5t48.5 -64.5q24 13 46.5 27.5t40 31.5t28.5 35.5t11 39.5v12
q0 41 -28.5 63t-66.5 22zM293 58q51 0 88 19.5t63 52.5l-187 202q-20 -11 -38.5 -23t-32.5 -28.5t-22.5 -38t-8.5 -50.5v-15q0 -55 37.5 -87t100.5 -32z" />
    <glyph glyph-name="quotesingle" unicode="'" horiz-adv-x="242"
d="M85 460v280h72v-280h-72z" />
    <glyph glyph-name="parenleft" unicode="(" horiz-adv-x="335"
d="M83 312q0 72 14 139t38.5 124.5t57.5 104.5t71 80h76q-42 -38 -75.5 -86t-57 -102t-36.5 -110t-13 -108v-86q0 -53 13 -109t37 -110t57.5 -102t74.5 -84h-76q-37 31 -70 78t-57.5 105t-39 125.5t-14.5 140.5z" />
    <glyph glyph-name="parenright" unicode=")" horiz-adv-x="335"
d="M252 312q0 -73 -14.5 -140.5t-39 -125.5t-57.5 -105t-70 -78h-76q41 36 74.5 84t57.5 102t37 110t13 109v86q0 52 -13 108t-36.5 110t-57 102t-75.5 86h76q38 -33 71 -80t57.5 -104.5t38.5 -124.5t14 -139z" />
    <glyph glyph-name="asterisk" unicode="*" horiz-adv-x="450"
d="M143 388l-56 41l91 116l-142 39l22 67l138 -51l-6 147h70l-6 -147l138 51l22 -67l-142 -39l91 -116l-56 -41l-82 123z" />
    <glyph glyph-name="plus" unicode="+"
d="M262 62v209h-195v68h195v209h76v-209h195v-68h-195v-209h-76z" />
    <glyph glyph-name="comma" unicode="," horiz-adv-x="272"
d="M136 117q32 0 46.5 -16.5t14.5 -42.5v-14q0 -41 -24 -90.5t-67 -86.5h-67q30 32 48.5 60.5t26.5 63.5q-20 5 -29.5 19t-9.5 34v14q0 26 14.5 42.5t46.5 16.5z" />
    <glyph glyph-name="hyphen" unicode="-" horiz-adv-x="399"
d="M69 261v86h261v-86h-261z" />
    <glyph glyph-name="period" unicode="." horiz-adv-x="272"
d="M136 -12q-32 0 -46.5 16t-14.5 42v13q0 26 14.5 42t46.5 16t46.5 -16t14.5 -42v-13q0 -26 -14.5 -42t-46.5 -16z" />
    <glyph glyph-name="slash" unicode="/" horiz-adv-x="383"
d="M9 -151l261 891h72l-261 -891h-72z" />
    <glyph glyph-name="zero" unicode="0"
d="M300 -12q-125 0 -182.5 95t-57.5 266t57.5 266t182.5 95t182.5 -95t57.5 -266t-57.5 -266t-182.5 -95zM300 61q41 0 70 17t47 48t26.5 73t8.5 93v114q0 51 -8.5 93t-26.5 73t-47 48t-70 17t-70 -17t-47 -48t-26.5 -73t-8.5 -93v-114q0 -51 8.5 -93t26.5 -73t47 -48
t70 -17z" />
    <glyph glyph-name="one" unicode="1"
d="M88 0v74h195v562h-7l-176 -164l-49 53l185 173h131v-624h180v-74h-459z" />
    <glyph glyph-name="two" unicode="2"
d="M533 0h-458v86l228 210q49 45 82 95.5t33 101.5v12q0 58 -32 94t-97 36q-32 0 -56 -9t-41.5 -25t-29 -37.5t-18.5 -46.5l-75 29q10 31 27.5 60.5t44 52.5t64 37t88.5 14t91 -15t67 -42t41.5 -64t14.5 -82q0 -41 -11.5 -76t-31.5 -66.5t-48.5 -61.5t-61.5 -60l-188 -169
h367v-74z" />
    <glyph glyph-name="three" unicode="3"
d="M261 402q71 0 106.5 32.5t35.5 83.5v7q0 55 -34.5 82.5t-90.5 27.5q-54 0 -88 -23.5t-56 -63.5l-62 48q13 21 31.5 41.5t43.5 36.5t58 26t75 10q44 0 83 -11.5t67.5 -34t45 -55.5t16.5 -75q0 -34 -10.5 -61t-28.5 -47t-42.5 -34t-52.5 -21v-4q28 -6 54.5 -19.5t47 -35
t33 -52t12.5 -69.5q0 -45 -17 -82.5t-48 -64t-75 -41.5t-97 -15q-45 0 -80 10t-62 27t-47.5 38t-36.5 44l63 48q13 -21 28.5 -38t34.5 -29t43 -18.5t56 -6.5q74 0 112 33.5t38 95.5v8q0 62 -38 95.5t-112 33.5h-82v73h76z" />
    <glyph glyph-name="four" unicode="4"
d="M375 0v137h-337v74l292 487h125v-491h101v-70h-101v-137h-80zM117 207h258v426h-5z" />
    <glyph glyph-name="five" unicode="5"
d="M498 624h-306l-20 -266h7q25 35 56.5 56t86.5 21q45 0 83 -15t66 -42.5t43.5 -67.5t15.5 -91t-16 -93.5t-46.5 -73t-74 -47.5t-98.5 -17q-44 0 -77.5 10t-59.5 27t-45.5 38t-35.5 44l63 48q13 -21 27.5 -38t32 -29t40.5 -18.5t55 -6.5q72 0 109 38t37 107v10
q0 69 -37 107t-109 38q-48 0 -75.5 -17.5t-49.5 -41.5l-71 10l25 384h374v-74z" />
    <glyph glyph-name="six" unicode="6"
d="M301 -12q-54 0 -97.5 18.5t-74 53t-46.5 84.5t-16 112q0 78 23 146.5t59.5 125t80.5 100t86 70.5h108q-56 -41 -100 -80t-77 -81.5t-56 -91t-37 -109.5l5 -2q25 43 64.5 71.5t103.5 28.5q45 0 83 -15t65 -43t42.5 -68t15.5 -89q0 -51 -16.5 -93.5t-47 -73t-73.5 -47.5
t-95 -17zM300 61q69 0 107.5 38t38.5 109v8q0 71 -38.5 109t-107.5 38t-107.5 -38t-38.5 -109v-8q0 -71 38.5 -109t107.5 -38z" />
    <glyph glyph-name="seven" unicode="7"
d="M175 0l267 626h-298v-130h-75v202h458v-74l-262 -624h-90z" />
    <glyph glyph-name="eight" unicode="8"
d="M300 -12q-60 0 -105 15.5t-75.5 42.5t-46 64t-15.5 80q0 72 39 114t102 59v8q-55 19 -87.5 61.5t-32.5 102.5q0 80 58 127.5t163 47.5t163 -47.5t58 -127.5q0 -60 -32.5 -102.5t-87.5 -61.5v-8q63 -17 102 -59t39 -114q0 -43 -15.5 -80t-46 -64t-75.5 -42.5t-105 -15.5z
M300 61q73 0 113 32.5t40 92.5v21q0 60 -40 92.5t-113 32.5t-113 -32.5t-40 -92.5v-21q0 -60 40 -92.5t113 -32.5zM300 402q66 0 100 28t34 82v15q0 54 -34 82t-100 28t-100 -28t-34 -82v-15q0 -54 34 -82t100 -28z" />
    <glyph glyph-name="nine" unicode="9"
d="M533 442q0 -78 -23 -146.5t-59.5 -125t-80.5 -100t-86 -70.5h-108q56 41 100 80t77 81.5t56 91t37 109.5l-5 2q-25 -43 -64.5 -71.5t-103.5 -28.5q-45 0 -83 15t-65 43t-42.5 67.5t-15.5 89.5q0 51 16.5 93.5t47 73t73 47.5t95.5 17q54 0 97.5 -18.5t74 -53t46.5 -84.5
t16 -112zM300 335q69 0 107.5 38t38.5 109v8q0 71 -38.5 109t-107.5 38t-107.5 -38t-38.5 -109v-8q0 -71 38.5 -109t107.5 -38z" />
    <glyph glyph-name="colon" unicode=":" horiz-adv-x="292"
d="M146 -12q-32 0 -46.5 16t-14.5 42v13q0 26 14.5 42t46.5 16t46.5 -16t14.5 -42v-13q0 -26 -14.5 -42t-46.5 -16zM146 399q-32 0 -46.5 16t-14.5 42v13q0 26 14.5 42t46.5 16t46.5 -16t14.5 -42v-13q0 -26 -14.5 -42t-46.5 -16z" />
    <glyph glyph-name="semicolon" unicode=";" horiz-adv-x="292"
d="M146 117q32 0 46.5 -16.5t14.5 -42.5v-14q0 -41 -24 -90.5t-67 -86.5h-67q30 32 48.5 60.5t26.5 63.5q-20 5 -29.5 19t-9.5 34v14q0 26 14.5 42.5t46.5 16.5zM146 399q-32 0 -46.5 16t-14.5 42v13q0 26 14.5 42t46.5 16t46.5 -16t14.5 -42v-13q0 -26 -14.5 -42t-46.5 -16
z" />
    <glyph glyph-name="less" unicode="&#x3c;"
d="M90 237v80l420 249v-84l-345 -201v-8l345 -201v-84z" />
    <glyph glyph-name="equal" unicode="="
d="M67 372v68h466v-68h-466zM67 172v68h466v-68h-466z" />
    <glyph glyph-name="greater" unicode="&#x3e;"
d="M90 72l345 201v8l-345 201v84l420 -249v-80l-420 -249v84z" />
    <glyph glyph-name="question" unicode="?" horiz-adv-x="477"
d="M179 208v164q82 4 128.5 40t46.5 99v14q0 51 -32 81.5t-86 30.5q-58 0 -92.5 -33t-46.5 -84l-74 28q9 32 26.5 61.5t44 52t62.5 35.5t83 13q93 0 147 -51t54 -138q0 -48 -16.5 -83.5t-42.5 -60.5t-59 -40t-66 -21v-108h-77zM218 -12q-32 0 -46.5 16t-14.5 42v13
q0 26 14.5 42t46.5 16t46.5 -16t14.5 -42v-13q0 -26 -14.5 -42t-46.5 -16z" />
    <glyph glyph-name="at" unicode="@" horiz-adv-x="891"
d="M679 -121h-232q-86 0 -156.5 29t-120.5 82.5t-77.5 129t-27.5 168.5t28 170t79 132.5t123 86.5t161 31q70 0 137 -21.5t118.5 -67.5t83 -119.5t31.5 -176.5q0 -52 -9.5 -98t-30.5 -80.5t-54 -55t-80 -20.5q-48 0 -72 24t-29 62h-4q-20 -40 -49 -63t-75 -23
q-35 0 -66.5 13.5t-55.5 40.5t-38 68.5t-14 97.5t14 97.5t38 68.5t55.5 40.5t66.5 13.5q46 0 73 -22.5t41 -54.5h4v68h69v-304q0 -39 13.5 -52.5t41.5 -13.5q47 0 71 48t24 132v46q0 66 -23.5 120t-64.5 92t-97 59t-120 21q-72 0 -131 -25t-102 -69.5t-66.5 -104
t-23.5 -128.5v-59q0 -71 23 -130t64.5 -102t99.5 -66.5t129 -23.5h231v-61zM437 135q53 0 78.5 25t25.5 71v122q0 38 -25 64t-79 26t-79 -31t-25 -83v-80q0 -52 25 -83t79 -31z" />
    <glyph glyph-name="A" unicode="A" horiz-adv-x="641"
d="M530 0l-70 206h-282l-70 -206h-85l244 698h107l244 -698h-88zM321 620h-5l-118 -340h241z" />
    <glyph glyph-name="B" unicode="B" horiz-adv-x="653"
d="M93 698h287q87 0 136.5 -49t49.5 -131q0 -39 -11 -66t-28 -44.5t-37 -26t-37 -11.5v-6q19 -1 42.5 -10t44.5 -28.5t35.5 -50t14.5 -73.5t-13.5 -80t-37.5 -64t-57 -42.5t-72 -15.5h-317v698zM177 74h207q54 0 85 27.5t31 80.5v34q0 53 -31 80.5t-85 27.5h-207v-250z
M177 396h193q50 0 78 25t28 72v34q0 47 -28 72t-78 25h-193v-228z" />
    <glyph glyph-name="C" unicode="C" horiz-adv-x="621"
d="M339 -12q-133 0 -207 90.5t-74 266.5t74 270.5t207 94.5q88 0 147.5 -40t92.5 -113l-68 -41q-21 54 -64 86.5t-108 32.5q-45 0 -80.5 -17t-60 -48.5t-37.5 -75t-13 -97.5v-104q0 -108 50 -169t141 -61q67 0 112 34.5t66 91.5l67 -42q-33 -74 -95 -116.5t-150 -42.5z" />
    <glyph glyph-name="D" unicode="D" horiz-adv-x="671"
d="M93 698h234q65 0 118 -22t90.5 -65.5t57.5 -109t20 -152.5t-20 -152.5t-57.5 -109t-90.5 -65.5t-118 -22h-234v698zM327 74q43 0 79 14.5t62 42.5t40.5 68.5t14.5 92.5v114q0 52 -14.5 92.5t-40.5 68.5t-62 42.5t-79 14.5h-150v-550h150z" />
    <glyph glyph-name="E" unicode="E" horiz-adv-x="583"
d="M93 0v698h426v-74h-342v-234h322v-74h-322v-242h342v-74h-426z" />
    <glyph glyph-name="F" unicode="F" horiz-adv-x="559"
d="M93 0v698h416v-74h-332v-234h303v-74h-303v-316h-84z" />
    <glyph glyph-name="G" unicode="G" horiz-adv-x="695"
d="M545 102h-3q-13 -49 -63.5 -81.5t-130.5 -32.5q-64 0 -117.5 23.5t-91.5 69t-59.5 113t-21.5 155.5q0 87 21 154.5t60 113t94 69.5t122 24q94 0 157 -42t97 -111l-69 -42q-24 56 -71.5 88t-113.5 32q-46 0 -84 -16.5t-65.5 -46.5t-42.5 -72t-15 -94v-113q0 -52 15 -94.5
t42.5 -72.5t67.5 -46.5t90 -16.5q36 0 68.5 9.5t57 28.5t38.5 47.5t14 67.5v69h-154v74h236v-359h-78v102z" />
    <glyph glyph-name="H" unicode="H" horiz-adv-x="707"
d="M530 316h-353v-316h-84v698h84v-308h353v308h84v-698h-84v316z" />
    <glyph glyph-name="I" unicode="I" horiz-adv-x="400"
d="M60 0v70h98v558h-98v70h280v-70h-98v-558h98v-70h-280z" />
    <glyph glyph-name="J" unicode="J" horiz-adv-x="510"
d="M422 698v-517q0 -44 -14.5 -80t-41 -61t-63.5 -38.5t-81 -13.5q-81 0 -130.5 43.5t-63.5 115.5l76 18q10 -45 38 -73.5t82 -28.5t84 33t30 100v428h-240v74h324z" />
    <glyph glyph-name="K" unicode="K" horiz-adv-x="634"
d="M276 343l-99 -110v-233h-84v698h84v-371h3l100 121l211 250h103l-260 -299l278 -399h-104z" />
    <glyph glyph-name="L" unicode="L" horiz-adv-x="501"
d="M93 0v698h84v-624h297v-74h-381z" />
    <glyph glyph-name="M" unicode="M" horiz-adv-x="812"
d="M637 588h-5l-59 -117l-167 -304l-167 304l-59 117h-5v-588h-82v698h112l200 -376h5l201 376h108v-698h-82v588z" />
    <glyph glyph-name="N" unicode="N" horiz-adv-x="707"
d="M262 426l-84 155h-3v-581h-82v698h97l255 -426l84 -155h3v581h82v-698h-97z" />
    <glyph glyph-name="O" unicode="O" horiz-adv-x="708"
d="M354 -12q-68 0 -122.5 23.5t-93 69t-59.5 113t-21 155.5t21 155t59.5 113t93 69.5t122.5 23.5q67 0 122 -23.5t93.5 -69.5t59.5 -113t21 -155t-21 -155.5t-59.5 -113t-93.5 -69t-122 -23.5zM354 63q45 0 83 16t65.5 46t42.5 72t15 94v116q0 52 -15 94t-42.5 72t-65.5 46
t-83 16t-83 -16t-65.5 -46t-42.5 -72t-15 -94v-116q0 -52 15 -94t42.5 -72t65.5 -46t83 -16z" />
    <glyph glyph-name="P" unicode="P" horiz-adv-x="606"
d="M93 0v698h278q94 0 144.5 -53.5t50.5 -146.5t-50.5 -146.5t-144.5 -53.5h-194v-298h-84zM177 372h194q50 0 77.5 26t27.5 74v52q0 48 -27.5 74t-77.5 26h-194v-252z" />
    <glyph glyph-name="Q" unicode="Q" horiz-adv-x="708"
d="M508 -164h-103q-42 0 -63 23.5t-21 58.5v71q-60 6 -109 32t-83 71.5t-52.5 110t-18.5 146.5q0 88 21 155t59.5 113t93 69.5t122.5 23.5q67 0 122 -23.5t93.5 -69.5t59.5 -113t21 -155q0 -161 -67 -251.5t-182 -106.5v-85h107v-70zM354 63q45 0 83 16t65.5 46t42.5 72
t15 94v116q0 52 -15 94t-42.5 72t-65.5 46t-83 16t-83 -16t-65.5 -46t-42.5 -72t-15 -94v-116q0 -52 15 -94t42.5 -72t65.5 -46t83 -16z" />
    <glyph glyph-name="R" unicode="R" horiz-adv-x="640"
d="M177 0h-84v698h278q92 0 143.5 -51t51.5 -147q0 -77 -35.5 -126.5t-104.5 -65.5l160 -308h-95l-151 300h-163v-300zM371 372q50 0 77.5 26t27.5 74v52q0 48 -27.5 74t-77.5 26h-194v-252h194z" />
    <glyph glyph-name="S" unicode="S" horiz-adv-x="581"
d="M289 -12q-85 0 -145 32.5t-102 89.5l62 52q37 -49 82 -74.5t106 -25.5q75 0 114.5 36t39.5 96q0 50 -30 77t-99 43l-57 13q-96 22 -146.5 66.5t-50.5 125.5q0 46 17 82t47.5 60t73 36.5t93.5 12.5q79 0 135.5 -29t95.5 -85l-63 -46q-29 40 -70 63t-102 23
q-67 0 -105.5 -28.5t-38.5 -85.5q0 -50 32.5 -75.5t98.5 -40.5l57 -13q103 -23 149 -70t46 -125q0 -48 -16.5 -87t-47.5 -66t-75.5 -42t-100.5 -15z" />
    <glyph glyph-name="T" unicode="T" horiz-adv-x="572"
d="M328 624v-624h-84v624h-222v74h528v-74h-222z" />
    <glyph glyph-name="U" unicode="U" horiz-adv-x="678"
d="M172 698v-432q0 -100 37 -151.5t130 -51.5t130 51.5t37 151.5v432h84v-412q0 -76 -13.5 -132t-43.5 -93t-78.5 -55t-118.5 -18t-117.5 18t-76.5 55t-41.5 93t-12.5 132v412h84z" />
    <glyph glyph-name="V" unicode="V" horiz-adv-x="609"
d="M252 0l-232 698h90l115 -352l77 -262h5l79 262l116 352h87l-235 -698h-102z" />
    <glyph glyph-name="W" unicode="W" horiz-adv-x="891"
d="M190 0l-170 698h89l75 -336l58 -261h2l65 261l88 336h96l85 -336l65 -260h3l60 260l79 336h86l-179 -698h-93l-91 348l-64 256h-2l-66 -256l-93 -348h-93z" />
    <glyph glyph-name="X" unicode="X" horiz-adv-x="613"
d="M589 0h-101l-183 293h-2l-183 -293h-96l228 355l-222 343h101l175 -278h2l179 278h96l-224 -340z" />
    <glyph glyph-name="Y" unicode="Y" horiz-adv-x="593"
d="M253 0v276l-240 422h96l186 -336h3l186 336h96l-243 -419v-279h-84z" />
    <glyph glyph-name="Z" unicode="Z" horiz-adv-x="580"
d="M544 0h-508v76l403 548h-382v74h473v-76l-404 -548h418v-74z" />
    <glyph glyph-name="bracketleft" unicode="[" horiz-adv-x="317"
d="M93 -138v898h164v-63h-95v-772h95v-63h-164z" />
    <glyph glyph-name="backslash" unicode="\" horiz-adv-x="383"
d="M299 -151l-259 891h72l259 -891h-72z" />
    <glyph glyph-name="bracketright" unicode="]" horiz-adv-x="317"
d="M224 760v-898h-164v63h95v772h-95v63h164z" />
    <glyph glyph-name="asciicircum" unicode="^"
d="M489 296l-187 328h-4l-187 -328l-61 32l207 370h86l207 -370z" />
    <glyph glyph-name="underscore" unicode="_" horiz-adv-x="565"
d="M30 -165v70h505v-70h-505z" />
    <glyph glyph-name="grave" unicode="`"
d="M187 744l73 35l85 -170l-52 -24z" />
    <glyph glyph-name="a" unicode="a" horiz-adv-x="534"
d="M460 0q-45 0 -64.5 24t-24.5 60h-5q-17 -48 -56 -72t-93 -24q-82 0 -127.5 42t-45.5 114q0 73 53.5 112t166.5 39h102v51q0 55 -30 84t-92 29q-47 0 -78.5 -21t-52.5 -56l-48 45q21 42 67 71.5t116 29.5q94 0 146 -46t52 -128v-284h59v-70h-45zM230 56q30 0 55 7t43 20
t28 30t10 37v85h-106q-69 0 -100.5 -20t-31.5 -58v-21q0 -38 27.5 -59t74.5 -21z" />
    <glyph glyph-name="b" unicode="b" horiz-adv-x="580"
d="M85 740h80v-308h4q20 49 58.5 72.5t92.5 23.5q48 0 87 -19t66.5 -54t42 -85t14.5 -112t-14.5 -112t-42 -85t-66.5 -54t-87 -19q-105 0 -151 96h-4v-84h-80v740zM298 60q68 0 107 42.5t39 111.5v88q0 69 -39 111.5t-107 42.5q-27 0 -51.5 -7.5t-42.5 -20.5t-28.5 -31.5
t-10.5 -39.5v-192q0 -25 10.5 -44.5t28.5 -33t42.5 -20.5t51.5 -7z" />
    <glyph glyph-name="c" unicode="c" horiz-adv-x="503"
d="M277 -12q-54 0 -97 19t-72.5 54t-45 85t-15.5 112t15.5 112t45 85t72.5 54t97 19q77 0 123.5 -33.5t69.5 -87.5l-67 -34q-14 40 -46 62t-80 22q-36 0 -63 -11.5t-45 -32t-27 -49t-9 -62.5v-88q0 -68 36.5 -111.5t107.5 -43.5q97 0 140 90l58 -39q-25 -56 -74.5 -89
t-123.5 -33z" />
    <glyph glyph-name="d" unicode="d" horiz-adv-x="580"
d="M415 84h-4q-47 -96 -151 -96q-48 0 -87 19t-66.5 54t-42 85t-14.5 112t14.5 112t42 85t66.5 54t87 19q54 0 92.5 -23.5t58.5 -72.5h4v308h80v-740h-80v84zM282 60q27 0 51.5 7t42.5 20.5t28.5 33t10.5 44.5v192q0 21 -10.5 39.5t-28.5 31.5t-42.5 20.5t-51.5 7.5
q-68 0 -107 -42.5t-39 -111.5v-88q0 -69 39 -111.5t107 -42.5z" />
    <glyph glyph-name="e" unicode="e" horiz-adv-x="549"
d="M279 -12q-53 0 -95.5 19t-73 54.5t-47 85t-16.5 111.5q0 61 16.5 111t47 85.5t73 54.5t95.5 19q52 0 93 -19t70 -52.5t44.5 -79.5t15.5 -101v-38h-371v-24q0 -33 10.5 -61.5t30 -49.5t48 -33t64.5 -12q49 0 85.5 23t56.5 66l57 -41q-25 -53 -78 -85.5t-126 -32.5z
M279 461q-33 0 -60 -11.5t-46.5 -32.5t-30.5 -49.5t-11 -62.5v-7h285v11q0 69 -37.5 110.5t-99.5 41.5z" />
    <glyph glyph-name="f" unicode="f" horiz-adv-x="324"
d="M113 446h-84v70h84v104q0 54 28 87t85 33h78v-70h-111v-154h111v-70h-111v-446h-80v446z" />
    <glyph glyph-name="g" unicode="g" horiz-adv-x="528"
d="M520 -57q0 -80 -62.5 -117.5t-187.5 -37.5q-121 0 -174 33t-53 94q0 42 22 65.5t60 34.5v11q-46 22 -46 72q0 39 25 59.5t64 30.5v4q-46 22 -71.5 63t-25.5 95q0 39 14 72t39.5 56.5t61 36.5t79.5 13q55 0 98 -20v9q0 30 14 49.5t46 19.5h77v-70h-98v-33
q28 -24 43.5 -57.5t15.5 -75.5q0 -39 -14 -72t-39.5 -56.5t-61.5 -36.5t-80 -13q-25 0 -50 5q-26 -7 -47 -20.5t-21 -37.5q0 -23 22 -31t57 -8h110q96 0 139.5 -36.5t43.5 -100.5zM445 -63q0 31 -23.5 49.5t-83.5 18.5h-172q-48 -22 -48 -70q0 -34 25.5 -58t86.5 -24h74
q67 0 104 21t37 63zM266 236q51 0 81 24.5t30 75.5v28q0 51 -30 75.5t-81 24.5t-81 -24.5t-30 -75.5v-28q0 -51 30 -75.5t81 -24.5z" />
    <glyph glyph-name="h" unicode="h" horiz-adv-x="568"
d="M85 740h80v-308h4q19 44 53.5 70t92.5 26q80 0 126.5 -51.5t46.5 -145.5v-331h-80v317q0 139 -117 139q-24 0 -46.5 -6t-40.5 -18t-28.5 -30.5t-10.5 -43.5v-358h-80v740z" />
    <glyph glyph-name="i" unicode="i" horiz-adv-x="250"
d="M125 637q-26 0 -37.5 12.5t-11.5 32.5v13q0 20 11.5 32.5t37.5 12.5t37.5 -12.5t11.5 -32.5v-13q0 -20 -11.5 -32.5t-37.5 -12.5zM85 516h80v-516h-80v516z" />
    <glyph glyph-name="j" unicode="j" horiz-adv-x="250"
d="M85 516h80v-596q0 -54 -27 -87t-85 -33h-52v70h84v646zM125 637q-26 0 -37.5 12.5t-11.5 32.5v13q0 20 11.5 32.5t37.5 12.5t37.5 -12.5t11.5 -32.5v-13q0 -20 -11.5 -32.5t-37.5 -12.5z" />
    <glyph glyph-name="k" unicode="k" horiz-adv-x="527"
d="M85 740h80v-469h4l79 88l146 157h97l-191 -204l210 -312h-97l-171 263l-77 -79v-184h-80v740z" />
    <glyph glyph-name="l" unicode="l" horiz-adv-x="272"
d="M170 0q-42 0 -63.5 23.5t-21.5 59.5v657h80v-670h76v-70h-71z" />
    <glyph glyph-name="m" unicode="m" horiz-adv-x="873"
d="M85 0v516h80v-84h4q9 20 20.5 37.5t28 30.5t38.5 20.5t52 7.5q51 0 94 -24.5t64 -80.5h2q14 42 52.5 73.5t104.5 31.5q79 0 123.5 -51.5t44.5 -145.5v-331h-80v317q0 69 -27 104t-86 35q-24 0 -45.5 -6t-38.5 -18t-27 -30.5t-10 -43.5v-358h-80v317q0 69 -27 104t-84 35
q-24 0 -46 -6t-39 -18t-27.5 -30.5t-10.5 -43.5v-358h-80z" />
    <glyph glyph-name="n" unicode="n" horiz-adv-x="568"
d="M85 0v516h80v-84h4q19 44 53.5 70t92.5 26q80 0 126.5 -51.5t46.5 -145.5v-331h-80v317q0 139 -117 139q-24 0 -46.5 -6t-40.5 -18t-28.5 -30.5t-10.5 -43.5v-358h-80z" />
    <glyph glyph-name="o" unicode="o" horiz-adv-x="560"
d="M280 -12q-52 0 -95 19t-73.5 54.5t-47.5 85t-17 111.5q0 61 17 111t47.5 85.5t73.5 54.5t95 19t94.5 -19t73.5 -54.5t48 -85.5t17 -111q0 -62 -17 -111.5t-48 -85t-73.5 -54.5t-94.5 -19zM280 59q65 0 106 40t41 122v74q0 82 -41 122t-106 40t-106 -40t-41 -122v-74
q0 -82 41 -122t106 -40z" />
    <glyph glyph-name="p" unicode="p" horiz-adv-x="580"
d="M85 516h80v-84h4q20 49 58.5 72.5t92.5 23.5q48 0 87 -19t66.5 -54t42 -85t14.5 -112t-14.5 -112t-42 -85t-66.5 -54t-87 -19q-105 0 -151 96h-4v-284h-80v716zM298 60q68 0 107 42.5t39 111.5v88q0 69 -39 111.5t-107 42.5q-27 0 -51.5 -7.5t-42.5 -20.5t-28.5 -31.5
t-10.5 -39.5v-192q0 -25 10.5 -44.5t28.5 -33t42.5 -20.5t51.5 -7z" />
    <glyph glyph-name="q" unicode="q" horiz-adv-x="580"
d="M415 84h-4q-47 -96 -151 -96q-48 0 -87 19t-66.5 54t-42 85t-14.5 112t14.5 112t42 85t66.5 54t87 19q54 0 92.5 -23.5t58.5 -72.5h4v84h80v-716h-80v284zM282 60q27 0 51.5 7t42.5 20.5t28.5 33t10.5 44.5v192q0 21 -10.5 39.5t-28.5 31.5t-42.5 20.5t-51.5 7.5
q-68 0 -107 -42.5t-39 -111.5v-88q0 -69 39 -111.5t107 -42.5z" />
    <glyph glyph-name="r" unicode="r" horiz-adv-x="367"
d="M85 0v516h80v-95h5q14 37 50 66t99 29h31v-80h-47q-65 0 -101.5 -24.5t-36.5 -61.5v-350h-80z" />
    <glyph glyph-name="s" unicode="s" horiz-adv-x="487"
d="M240 -12q-72 0 -120.5 27.5t-83.5 73.5l57 46q30 -38 67 -58.5t86 -20.5q51 0 79.5 22t28.5 62q0 30 -19.5 51.5t-70.5 29.5l-41 6q-36 5 -66 15.5t-52.5 28t-35 43.5t-12.5 62q0 38 14 66.5t38.5 47.5t58.5 28.5t73 9.5q63 0 105.5 -22t74.5 -61l-53 -48
q-17 24 -50 43.5t-83 19.5t-75.5 -21.5t-25.5 -58.5q0 -38 25.5 -55t73.5 -25l40 -6q86 -13 122 -49.5t36 -95.5q0 -75 -51 -118t-140 -43z" />
    <glyph glyph-name="t" unicode="t" horiz-adv-x="351"
d="M199 0q-42 0 -63.5 23.5t-21.5 61.5v361h-85v70h48q26 0 35.5 10.5t9.5 36.5v96h72v-143h113v-70h-113v-376h105v-70h-100z" />
    <glyph glyph-name="u" unicode="u" horiz-adv-x="568"
d="M403 84h-4q-8 -18 -19.5 -35.5t-28.5 -31t-41 -21.5t-56 -8q-80 0 -127 51.5t-47 145.5v331h80v-317q0 -139 118 -139q24 0 46.5 6t40 18t28 30.5t10.5 44.5v357h80v-516h-80v84z" />
    <glyph glyph-name="v" unicode="v" horiz-adv-x="492"
d="M199 0l-181 516h80l90 -256l56 -176h5l56 176l92 256h77l-182 -516h-93z" />
    <glyph glyph-name="w" unicode="w" horiz-adv-x="768"
d="M31 516h78l55 -223l55 -226h2l63 226l65 223h71l67 -223l64 -226h2l53 226l56 223h75l-137 -516h-99l-72 248l-45 157h-2l-44 -157l-72 -248h-97z" />
    <glyph glyph-name="x" unicode="x" horiz-adv-x="507"
d="M21 0l191 260l-183 256h94l131 -192h3l136 192h89l-182 -250l186 -266h-94l-134 202h-3l-145 -202h-89z" />
    <glyph glyph-name="y" unicode="y" horiz-adv-x="499"
d="M403 516h79l-231 -636q-9 -23 -18 -38.5t-22 -24.5t-32.5 -13t-47.5 -4h-41v70h81l39 110l-193 536h80l124 -351l24 -84h5l28 84z" />
    <glyph glyph-name="z" unicode="z" horiz-adv-x="464"
d="M33 0v67l293 379h-284v70h381v-60l-299 -386h307v-70h-398z" />
    <glyph glyph-name="braceleft" unicode="{" horiz-adv-x="343"
d="M199 -138q-40 0 -60 23.5t-20 58.5v240q0 43 -27.5 65.5t-69.5 22.5v78q42 0 69.5 22.5t27.5 65.5v240q0 35 20 58.5t60 23.5h84v-63h-95v-250q0 -47 -26.5 -83.5t-68.5 -44.5v-16q42 -8 68.5 -44.5t26.5 -83.5v-250h95v-63h-84z" />
    <glyph glyph-name="bar" unicode="|" horiz-adv-x="314"
d="M123 -138v898h68v-898h-68z" />
    <glyph glyph-name="braceright" unicode="}" horiz-adv-x="343"
d="M144 760q40 0 60 -23.5t20 -58.5v-240q0 -43 27.5 -65.5t69.5 -22.5v-78q-42 0 -69.5 -22.5t-27.5 -65.5v-240q0 -35 -20 -58.5t-60 -23.5h-84v63h95v250q0 47 26.5 83.5t68.5 44.5v16q-42 8 -68.5 44.5t-26.5 83.5v250h-95v63h84z" />
    <glyph glyph-name="asciitilde" unicode="~"
d="M419 236q-37 0 -65.5 10t-63.5 27q-28 14 -55 24t-58 10q-25 0 -42.5 -7.5t-40.5 -24.5l-33 44q20 25 47.5 40t72.5 15q37 0 65.5 -10t63.5 -27q28 -14 55 -24t58 -10q25 0 42.5 7.5t40.5 24.5l33 -44q-20 -25 -47.5 -40t-72.5 -15z" />
    <glyph glyph-name="uni00A0" unicode="&#xa0;" horiz-adv-x="236"
 />
    <glyph glyph-name="exclamdown" unicode="&#xa1;" horiz-adv-x="284"
d="M97 -182v203l24 310h40l24 -310v-203h-88zM142 399q-32 0 -46.5 16t-14.5 42v13q0 26 14.5 42t46.5 16t46.5 -16t14.5 -42v-13q0 -26 -14.5 -42t-46.5 -16z" />
    <glyph glyph-name="cent" unicode="&#xa2;" horiz-adv-x="514"
d="M235 -114v105q-91 13 -139.5 84t-48.5 183q0 113 49 183.5t139 83.5v105h70v-103q63 -5 103 -37.5t61 -80.5l-64 -35q-27 71 -101 82v-396q78 9 114 88l58 -39q-22 -51 -65 -83t-106 -37v-103h-70zM133 214q0 -57 26 -98.5t77 -52.5v390q-51 -11 -77 -52t-26 -99v-88z
" />
    <glyph glyph-name="sterling" unicode="&#xa3;" horiz-adv-x="595"
d="M82 0v100q42 18 57 56.5t15 80.5q0 13 -1 25.5t-3 23.5h-90v70h71q-11 34 -21 67.5t-10 75.5q0 46 15.5 85t45 67t72.5 43.5t97 15.5q77 0 128.5 -30t85.5 -84l-63 -46q-26 40 -62.5 63t-91.5 23q-65 0 -102.5 -36t-37.5 -109q0 -38 9 -70.5t19 -64.5h216v-70h-198
q3 -20 3 -40q0 -56 -22.5 -101t-52.5 -65v-5h364v-75h-443z" />
    <glyph glyph-name="currency" unicode="&#xa4;" horiz-adv-x="612"
d="M306 119q-84 0 -138 45l-102 -102l-48 47l106 106q-32 56 -32 134t32 134l-106 106l48 47l102 -102q54 45 138 45t138 -45l102 102l48 -47l-106 -106q32 -56 32 -134t-32 -134l106 -106l-48 -47l-102 102q-54 -45 -138 -45zM306 186q58 0 93.5 32.5t35.5 98.5v64
q0 66 -35.5 98.5t-93.5 32.5t-93.5 -32.5t-35.5 -98.5v-64q0 -66 35.5 -98.5t93.5 -32.5z" />
    <glyph glyph-name="yen" unicode="&#xa5;" horiz-adv-x="605"
d="M344 145v-145h-83v145h-176v67h176v96h-176v67h136l-187 323h94l175 -315h5l170 315h93l-187 -323h136v-67h-176v-96h176v-67h-176z" />
    <glyph glyph-name="brokenbar" unicode="&#xa6;" horiz-adv-x="314"
d="M123 406v354h68v-354h-68zM123 -138v354h68v-354h-68z" />
    <glyph glyph-name="section" unicode="&#xa7;" horiz-adv-x="586"
d="M475 4q0 -37 -14.5 -66.5t-40.5 -50t-62.5 -31.5t-80.5 -11q-45 0 -88.5 13t-78.5 43l46 56q24 -20 54 -31.5t68 -11.5q56 0 87 23.5t31 64.5q0 38 -27.5 60t-76.5 37l-63 19q-81 24 -117 63t-36 90q0 48 28.5 85t80.5 58v7q-33 22 -53.5 54t-20.5 77q0 36 14 65t40 50
t62.5 32t80.5 11q45 0 89 -13t79 -43l-47 -56q-24 20 -54 31.5t-68 11.5q-56 0 -87 -23.5t-31 -64.5q0 -38 27.5 -60t76.5 -37l63 -19q81 -24 117.5 -63t36.5 -90q0 -48 -28.5 -85t-81.5 -58v-6q36 -23 55.5 -55.5t19.5 -75.5zM431 263q0 42 -28.5 68.5t-88.5 43.5l-62 17
q-8 2 -16 5l-16 6q-30 -21 -47.5 -48.5t-17.5 -62.5q0 -42 28 -68.5t88 -43.5l62 -17q8 -2 16 -5l16 -6q30 22 48 49t18 62z" />
    <glyph glyph-name="dieresis" unicode="&#xa8;"
d="M207 618q-26 0 -37.5 12.5t-11.5 33.5v11q0 21 11.5 33.5t37.5 12.5t37.5 -12.5t11.5 -33.5v-11q0 -21 -11.5 -33.5t-37.5 -12.5zM393 618q-26 0 -37.5 12.5t-11.5 33.5v11q0 21 11.5 33.5t37.5 12.5t37.5 -12.5t11.5 -33.5v-11q0 -21 -11.5 -33.5t-37.5 -12.5z" />
    <glyph glyph-name="copyright" unicode="&#xa9;" horiz-adv-x="776"
d="M388 -11q-70 0 -131 25t-106 71.5t-71 113.5t-26 150t26 150t71 113.5t106 71.5t131 25t131 -25t106 -71.5t71 -113.5t26 -150t-26 -150t-71 -113.5t-106 -71.5t-131 -25zM388 49q58 0 107 20.5t84.5 56.5t55 85.5t19.5 107.5v60q0 58 -19.5 107.5t-55 85.5t-84.5 56.5
t-107 20.5q-59 0 -107.5 -20.5t-84 -56.5t-55 -85.5t-19.5 -107.5v-60q0 -58 19.5 -107.5t55 -85.5t84 -56.5t107.5 -20.5zM396 155q-78 0 -121.5 52.5t-43.5 141.5t43.5 141.5t121.5 52.5q51 0 83.5 -24t49.5 -63l-57 -32q-11 26 -29 41t-47 15q-44 0 -66.5 -27.5
t-22.5 -71.5v-65q0 -44 22.5 -71.5t66.5 -27.5q32 0 51 16.5t34 43.5l54 -34q-17 -38 -51.5 -63t-87.5 -25z" />
    <glyph glyph-name="ordfeminine" unicode="&#xaa;" horiz-adv-x="399"
d="M360 350h-34q-29 0 -45.5 13t-16.5 40h-4q-11 -23 -38 -41t-73 -18q-53 0 -81 27t-28 71q0 54 38.5 79t110.5 25h71v28q0 78 -75 78q-34 0 -57 -14.5t-34 -37.5l-42 34q15 26 48 48t88 22q63 0 99 -33t36 -94v-171h37v-56zM187 500q-41 0 -62.5 -12t-21.5 -35v-10
q0 -48 60 -48q19 0 36.5 4.5t31 13t21.5 20t8 26.5v41h-73z" />
    <glyph glyph-name="guillemotleft" unicode="&#xab;" horiz-adv-x="513"
d="M228 80l-192 166v76l192 166l24 -54l-137 -150l137 -150zM437 80l-192 166v76l192 166l24 -54l-137 -150l137 -150z" />
    <glyph glyph-name="logicalnot" unicode="&#xac;"
d="M464 78v193h-397v68h466v-261h-69z" />
    <glyph glyph-name="uni00AD" unicode="&#xad;" horiz-adv-x="399"
d="M69 261v86h261v-86h-261z" />
    <glyph glyph-name="registered" unicode="&#xae;" horiz-adv-x="476"
d="M238 298q-41 0 -77 15.5t-63 43.5t-42.5 65.5t-15.5 81.5t15.5 81.5t42.5 65.5t63 43.5t77 15.5q40 0 76 -15.5t63 -43.5t43 -65.5t16 -81.5t-16 -81.5t-43 -65.5t-63 -43.5t-76 -15.5zM238 338q34 0 62.5 13t49 34.5t32 49.5t11.5 58v22q0 30 -11.5 58t-32 49.5
t-49 34.5t-62.5 13t-62.5 -13t-49 -34.5t-32 -49.5t-11.5 -58v-22q0 -30 11.5 -58t32 -49.5t49 -34.5t62.5 -13zM203 396h-40v209h90q30 0 47 -17.5t17 -45.5q0 -24 -11 -39t-28 -22l49 -85h-45l-44 80h-35v-80zM251 508q23 0 23 21v22q0 21 -23 21h-48v-64h48z" />
    <glyph glyph-name="macron" unicode="&#xaf;"
d="M160 705h280v-68h-280v68z" />
    <glyph glyph-name="degree" unicode="&#xb0;" horiz-adv-x="468"
d="M234 366q-36 0 -66.5 13t-53 36t-35.5 54.5t-13 68.5t13 68.5t35.5 54.5t53 36t66.5 13t66.5 -13t53 -36t35.5 -54.5t13 -68.5t-13 -68.5t-35.5 -54.5t-53 -36t-66.5 -13zM234 430q45 0 71.5 31.5t26.5 76.5t-26.5 76.5t-71.5 31.5t-71.5 -31.5t-26.5 -76.5t26.5 -76.5
t71.5 -31.5z" />
    <glyph glyph-name="plusminus" unicode="&#xb1;"
d="M262 152v199h-195v68h195v199h76v-199h195v-68h-195v-199h-76zM67 0v68h466v-68h-466z" />
    <glyph glyph-name="twosuperior" unicode="&#xb2;" horiz-adv-x="346"
d="M311 329h-272v57l130 105q29 24 45.5 47.5t16.5 50.5v6q0 26 -16.5 41.5t-48.5 15.5q-35 0 -52.5 -17t-25.5 -41l-54 20q6 18 16.5 34t27 28.5t39.5 20t53 7.5q62 0 95 -30.5t33 -78.5q0 -44 -26.5 -76.5t-68.5 -64.5l-97 -75h205v-50z" />
    <glyph glyph-name="threesuperior" unicode="&#xb3;" horiz-adv-x="346"
d="M155 546q38 0 56.5 14.5t18.5 37.5v4q0 25 -17.5 38.5t-47.5 13.5q-29 0 -49 -12t-34 -33l-43 34q17 25 47.5 43t80.5 18q57 0 93.5 -25t36.5 -70q0 -36 -23 -57t-55 -28v-3q34 -6 59 -28t25 -62q0 -49 -38.5 -78.5t-104.5 -29.5q-55 0 -86 20t-50 46l47 34
q14 -22 34 -36t55 -14q38 0 57.5 16t19.5 45v6q0 55 -77 55h-45v51h40z" />
    <glyph glyph-name="acute" unicode="&#xb4;"
d="M307 585l-52 24l85 170l73 -35z" />
    <glyph glyph-name="mu" unicode="&#xb5;" horiz-adv-x="573"
d="M85 -200v716h80v-317q0 -69 30 -104t87 -35q24 0 46.5 6t40.5 18.5t28.5 31t10.5 44.5v356h80v-516h-80v84h-4q-8 -18 -19.5 -35.5t-28.5 -31t-40 -21.5t-54 -8q-73 0 -101 52h-3l7 -85v-155h-80z" />
    <glyph glyph-name="paragraph" unicode="&#xb6;" horiz-adv-x="652"
d="M246 300q-41 0 -76 16t-61.5 43t-41.5 63t-15 77q0 40 15 76.5t41.5 63.5t61.5 43t76 16h324v-68h-67v-779h-73v779h-111v-779h-73v449z" />
    <glyph glyph-name="periodcentered" unicode="&#xb7;" horiz-adv-x="326"
d="M163 240q-32 0 -46.5 16t-14.5 42v13q0 26 14.5 42t46.5 16t46.5 -16t14.5 -42v-13q0 -26 -14.5 -42t-46.5 -16z" />
    <glyph glyph-name="cedilla" unicode="&#xb8;"
d="M312 -207q-41 0 -64.5 13.5t-34.5 27.5l38 41q9 -11 24 -19.5t37 -8.5q19 0 31.5 7.5t12.5 23.5q0 14 -13 24.5t-55 16.5l-28 4l19 97h50l-16 -81l3 -3q19 6 39 6q29 0 48.5 -17t19.5 -49q0 -21 -9 -37t-24.5 -26t-35.5 -15t-42 -5z" />
    <glyph glyph-name="onesuperior" unicode="&#xb9;" horiz-adv-x="359"
d="M55 329v50h109v268h-6l-90 -89l-36 37l102 103h93v-319h98v-50h-270z" />
    <glyph glyph-name="ordmasculine" unicode="&#xba;" horiz-adv-x="398"
d="M199 344q-73 0 -114 47.5t-41 132.5t41 132.5t114 47.5t114 -47.5t41 -132.5t-41 -132.5t-114 -47.5zM199 396q44 0 65.5 27t21.5 70v62q0 43 -21.5 70t-65.5 27t-65.5 -27t-21.5 -70v-62q0 -43 21.5 -70t65.5 -27z" />
    <glyph glyph-name="guillemotright" unicode="&#xbb;" horiz-adv-x="513"
d="M52 134l137 150l-137 150l24 54l192 -166v-76l-192 -166zM261 134l137 150l-137 150l24 54l192 -166v-76l-192 -166z" />
    <glyph glyph-name="onequarter" unicode="&#xbc;" horiz-adv-x="847"
d="M55 329v50h109v268h-6l-90 -89l-36 37l102 103h93v-319h98v-50h-270zM171 0l486 698h67l-486 -698h-67zM710 0v72h-189v52l164 245h85v-249h56v-48h-56v-72h-60zM710 312h-4l-130 -192h134v192z" />
    <glyph glyph-name="onehalf" unicode="&#xbd;" horiz-adv-x="872"
d="M55 329v50h109v268h-6l-90 -89l-36 37l102 103h93v-319h98v-50h-270zM171 0l486 698h67l-486 -698h-67zM837 0h-272v57l130 105q29 24 45.5 48t16.5 50v6q0 26 -16.5 41.5t-48.5 15.5q-35 0 -52.5 -17t-25.5 -41l-54 20q6 18 16.5 34t27 28.5t39.5 20t53 7.5
q62 0 95 -30.5t33 -78.5q0 -44 -26.5 -76.5t-68.5 -64.5l-97 -75h205v-50z" />
    <glyph glyph-name="threequarters" unicode="&#xbe;" horiz-adv-x="824"
d="M155 546q38 0 56.5 14.5t18.5 37.5v4q0 25 -17.5 38.5t-47.5 13.5q-29 0 -49 -12t-34 -33l-43 34q17 25 47.5 43t80.5 18q57 0 93.5 -25t36.5 -70q0 -36 -23 -57t-55 -28v-3q34 -6 59 -28t25 -62q0 -49 -38.5 -78.5t-104.5 -29.5q-55 0 -86 20t-50 46l47 34
q14 -22 34 -36t55 -14q38 0 57.5 16t19.5 45v6q0 55 -77 55h-45v51h40zM148 0l486 698h67l-486 -698h-67zM687 0v72h-189v52l164 245h85v-249h56v-48h-56v-72h-60zM687 312h-4l-130 -192h134v192z" />
    <glyph glyph-name="questiondown" unicode="&#xbf;" horiz-adv-x="467"
d="M238 -194q-93 0 -147 51t-54 138q0 48 16.5 83.5t42.5 60.5t59 40t66 21v108h77v-164q-82 -4 -128.5 -40t-46.5 -99v-14q0 -51 32 -81.5t86 -30.5q58 0 92.5 33t46.5 84l74 -28q-9 -32 -26.5 -61.5t-44 -52t-62.5 -35.5t-83 -13zM262 399q-32 0 -46.5 16t-14.5 42v13
q0 26 14.5 42t46.5 16t46.5 -16t14.5 -42v-13q0 -26 -14.5 -42t-46.5 -16z" />
    <glyph glyph-name="Agrave" unicode="&#xc0;" horiz-adv-x="641"
d="M530 0l-70 206h-282l-70 -206h-85l244 698h107l244 -698h-88zM321 620h-5l-118 -340h241zM209 914l73 35l85 -170l-52 -24z" />
    <glyph glyph-name="Aacute" unicode="&#xc1;" horiz-adv-x="641"
d="M530 0l-70 206h-282l-70 -206h-85l244 698h107l244 -698h-88zM321 620h-5l-118 -340h241zM329 755l-52 24l85 170l73 -35z" />
    <glyph glyph-name="Acircumflex" unicode="&#xc2;" horiz-adv-x="641"
d="M530 0l-70 206h-282l-70 -206h-85l244 698h107l244 -698h-88zM321 620h-5l-118 -340h241zM372 935l111 -143l-44 -31l-117 117l-117 -117l-44 31l111 143h100z" />
    <glyph glyph-name="Atilde" unicode="&#xc3;" horiz-adv-x="641"
d="M530 0l-70 206h-282l-70 -206h-85l244 698h107l244 -698h-88zM321 620h-5l-118 -340h241zM395 782q-26 0 -45 9t-35 17q-24 13 -40.5 18.5t-29.5 5.5q-17 0 -30 -7t-28 -20l-33 40q14 20 37 36.5t58 16.5q26 0 45 -9t35 -17q24 -13 40.5 -18.5t29.5 -5.5q17 0 30 7t28 20
l33 -40q-14 -20 -37 -36.5t-58 -16.5z" />
    <glyph glyph-name="Adieresis" unicode="&#xc4;" horiz-adv-x="641"
d="M530 0l-70 206h-282l-70 -206h-85l244 698h107l244 -698h-88zM321 620h-5l-118 -340h241zM229 788q-26 0 -38 13t-12 34v12q0 21 12 34t38 13t38 -13t12 -34v-12q0 -21 -12 -34t-38 -13zM415 788q-26 0 -38 13t-12 34v12q0 21 12 34t38 13t38 -13t12 -34v-12
q0 -21 -12 -34t-38 -13z" />
    <glyph glyph-name="Aring" unicode="&#xc5;" horiz-adv-x="641"
d="M530 0l-70 206h-282l-70 -206h-85l244 698h107l244 -698h-88zM321 620h-5l-118 -340h241zM322 746q-24 0 -45.5 8.5t-37 24t-24.5 36.5t-9 46t9 46t24.5 36.5t37 24t45.5 8.5t45.5 -8.5t37 -24t24.5 -36.5t9 -46t-9 -46t-24.5 -36.5t-37 -24t-45.5 -8.5zM322 795
q27 0 42.5 14.5t15.5 40.5v22q0 26 -15.5 40.5t-42.5 14.5t-42.5 -14.5t-15.5 -40.5v-22q0 -26 15.5 -40.5t42.5 -14.5z" />
    <glyph glyph-name="AE" unicode="&#xc6;" horiz-adv-x="907"
d="M417 205h-225l-102 -205h-86l357 698h482v-74h-343v-234h323v-74h-323v-242h343v-74h-426v205zM404 624l-177 -345h190v345h-13z" />
    <glyph glyph-name="Ccedilla" unicode="&#xc7;" horiz-adv-x="621"
d="M339 635q-45 0 -80.5 -17t-60 -48.5t-37.5 -75t-13 -97.5v-104q0 -108 50 -169t141 -61q67 0 112 34.5t66 91.5l67 -42q-31 -69 -87.5 -111t-135.5 -47l-10 -50l3 -3q19 6 39 6q29 0 48.5 -17t19.5 -49q0 -21 -9 -37t-24.5 -26t-35.5 -15t-42 -5q-41 0 -64.5 13.5
t-34.5 27.5l38 41q9 -11 24 -19.5t37 -8.5q19 0 31.5 7.5t12.5 23.5q0 14 -13 24.5t-55 16.5l-28 4l13 66q-120 9 -186.5 99t-66.5 257q0 176 74 270.5t207 94.5q88 0 147.5 -40t92.5 -113l-68 -41q-21 54 -64 86.5t-108 32.5z" />
    <glyph glyph-name="Egrave" unicode="&#xc8;" horiz-adv-x="583"
d="M93 0v698h426v-74h-342v-234h322v-74h-322v-242h342v-74h-426zM191 914l73 35l85 -170l-52 -24z" />
    <glyph glyph-name="Eacute" unicode="&#xc9;" horiz-adv-x="583"
d="M93 0v698h426v-74h-342v-234h322v-74h-322v-242h342v-74h-426zM311 755l-52 24l85 170l73 -35z" />
    <glyph glyph-name="Ecircumflex" unicode="&#xca;" horiz-adv-x="583"
d="M93 0v698h426v-74h-342v-234h322v-74h-322v-242h342v-74h-426zM354 935l111 -143l-44 -31l-117 117l-117 -117l-44 31l111 143h100z" />
    <glyph glyph-name="Edieresis" unicode="&#xcb;" horiz-adv-x="583"
d="M93 0v698h426v-74h-342v-234h322v-74h-322v-242h342v-74h-426zM211 788q-26 0 -38 13t-12 34v12q0 21 12 34t38 13t38 -13t12 -34v-12q0 -21 -12 -34t-38 -13zM397 788q-26 0 -38 13t-12 34v12q0 21 12 34t38 13t38 -13t12 -34v-12q0 -21 -12 -34t-38 -13z" />
    <glyph glyph-name="Igrave" unicode="&#xcc;" horiz-adv-x="400"
d="M60 0v70h98v558h-98v70h280v-70h-98v-558h98v-70h-280zM88 914l73 35l85 -170l-52 -24z" />
    <glyph glyph-name="Iacute" unicode="&#xcd;" horiz-adv-x="400"
d="M60 0v70h98v558h-98v70h280v-70h-98v-558h98v-70h-280zM208 755l-52 24l85 170l73 -35z" />
    <glyph glyph-name="Icircumflex" unicode="&#xce;" horiz-adv-x="400"
d="M60 0v70h98v558h-98v70h280v-70h-98v-558h98v-70h-280zM251 935l111 -143l-44 -31l-117 117l-117 -117l-44 31l111 143h100z" />
    <glyph glyph-name="Idieresis" unicode="&#xcf;" horiz-adv-x="400"
d="M60 0v70h98v558h-98v70h280v-70h-98v-558h98v-70h-280zM108 788q-26 0 -38 13t-12 34v12q0 21 12 34t38 13t38 -13t12 -34v-12q0 -21 -12 -34t-38 -13zM294 788q-26 0 -38 13t-12 34v12q0 21 12 34t38 13t38 -13t12 -34v-12q0 -21 -12 -34t-38 -13z" />
    <glyph glyph-name="Eth" unicode="&#xd0;" horiz-adv-x="674"
d="M96 337h-79v64h79v297h234q65 0 118 -22t90.5 -65.5t57.5 -109t20 -152.5t-20 -152.5t-57.5 -109t-90.5 -65.5t-118 -22h-234v337zM330 74q43 0 79 14.5t62 42.5t40.5 68.5t14.5 92.5v114q0 52 -14.5 92.5t-40.5 68.5t-62 42.5t-79 14.5h-150v-223h137v-64h-137v-263h150
z" />
    <glyph glyph-name="Ntilde" unicode="&#xd1;" horiz-adv-x="707"
d="M262 426l-84 155h-3v-581h-82v698h97l255 -426l84 -155h3v581h82v-698h-97zM426 782q-26 0 -45 9t-35 17q-24 13 -40.5 18.5t-29.5 5.5q-17 0 -30 -7t-28 -20l-33 40q14 20 37 36.5t58 16.5q26 0 45 -9t35 -17q24 -13 40.5 -18.5t29.5 -5.5q17 0 30 7t28 20l33 -40
q-14 -20 -37 -36.5t-58 -16.5z" />
    <glyph glyph-name="Ograve" unicode="&#xd2;" horiz-adv-x="708"
d="M354 -12q-68 0 -122.5 23.5t-93 69t-59.5 113t-21 155.5t21 155t59.5 113t93 69.5t122.5 23.5q67 0 122 -23.5t93.5 -69.5t59.5 -113t21 -155t-21 -155.5t-59.5 -113t-93.5 -69t-122 -23.5zM354 63q45 0 83 16t65.5 46t42.5 72t15 94v116q0 52 -15 94t-42.5 72t-65.5 46
t-83 16t-83 -16t-65.5 -46t-42.5 -72t-15 -94v-116q0 -52 15 -94t42.5 -72t65.5 -46t83 -16zM241 914l73 35l85 -170l-52 -24z" />
    <glyph glyph-name="Oacute" unicode="&#xd3;" horiz-adv-x="708"
d="M354 -12q-68 0 -122.5 23.5t-93 69t-59.5 113t-21 155.5t21 155t59.5 113t93 69.5t122.5 23.5q67 0 122 -23.5t93.5 -69.5t59.5 -113t21 -155t-21 -155.5t-59.5 -113t-93.5 -69t-122 -23.5zM354 63q45 0 83 16t65.5 46t42.5 72t15 94v116q0 52 -15 94t-42.5 72t-65.5 46
t-83 16t-83 -16t-65.5 -46t-42.5 -72t-15 -94v-116q0 -52 15 -94t42.5 -72t65.5 -46t83 -16zM361 755l-52 24l85 170l73 -35z" />
    <glyph glyph-name="Ocircumflex" unicode="&#xd4;" horiz-adv-x="708"
d="M354 -12q-68 0 -122.5 23.5t-93 69t-59.5 113t-21 155.5t21 155t59.5 113t93 69.5t122.5 23.5q67 0 122 -23.5t93.5 -69.5t59.5 -113t21 -155t-21 -155.5t-59.5 -113t-93.5 -69t-122 -23.5zM354 63q45 0 83 16t65.5 46t42.5 72t15 94v116q0 52 -15 94t-42.5 72t-65.5 46
t-83 16t-83 -16t-65.5 -46t-42.5 -72t-15 -94v-116q0 -52 15 -94t42.5 -72t65.5 -46t83 -16zM404 935l111 -143l-44 -31l-117 117l-117 -117l-44 31l111 143h100z" />
    <glyph glyph-name="Otilde" unicode="&#xd5;" horiz-adv-x="708"
d="M354 -12q-68 0 -122.5 23.5t-93 69t-59.5 113t-21 155.5t21 155t59.5 113t93 69.5t122.5 23.5q67 0 122 -23.5t93.5 -69.5t59.5 -113t21 -155t-21 -155.5t-59.5 -113t-93.5 -69t-122 -23.5zM354 63q45 0 83 16t65.5 46t42.5 72t15 94v116q0 52 -15 94t-42.5 72t-65.5 46
t-83 16t-83 -16t-65.5 -46t-42.5 -72t-15 -94v-116q0 -52 15 -94t42.5 -72t65.5 -46t83 -16zM427 782q-26 0 -45 9t-35 17q-24 13 -40.5 18.5t-29.5 5.5q-17 0 -30 -7t-28 -20l-33 40q14 20 37 36.5t58 16.5q26 0 45 -9t35 -17q24 -13 40.5 -18.5t29.5 -5.5q17 0 30 7t28 20
l33 -40q-14 -20 -37 -36.5t-58 -16.5z" />
    <glyph glyph-name="Odieresis" unicode="&#xd6;" horiz-adv-x="708"
d="M354 -12q-68 0 -122.5 23.5t-93 69t-59.5 113t-21 155.5t21 155t59.5 113t93 69.5t122.5 23.5q67 0 122 -23.5t93.5 -69.5t59.5 -113t21 -155t-21 -155.5t-59.5 -113t-93.5 -69t-122 -23.5zM354 63q45 0 83 16t65.5 46t42.5 72t15 94v116q0 52 -15 94t-42.5 72t-65.5 46
t-83 16t-83 -16t-65.5 -46t-42.5 -72t-15 -94v-116q0 -52 15 -94t42.5 -72t65.5 -46t83 -16zM261 788q-26 0 -38 13t-12 34v12q0 21 12 34t38 13t38 -13t12 -34v-12q0 -21 -12 -34t-38 -13zM447 788q-26 0 -38 13t-12 34v12q0 21 12 34t38 13t38 -13t12 -34v-12
q0 -21 -12 -34t-38 -13z" />
    <glyph glyph-name="multiply" unicode="&#xd7;"
d="M300 256l-159 -163l-49 49l159 163l-159 163l49 49l159 -163l159 163l49 -49l-159 -163l159 -163l-49 -49z" />
    <glyph glyph-name="Oslash" unicode="&#xd8;" horiz-adv-x="708"
d="M354 -12q-102 0 -173 53l-60 -86l-57 37l68 97q-36 46 -55 110.5t-19 149.5q0 88 21 155t59.5 113t93 69.5t122.5 23.5q102 0 173 -53l60 86l57 -37l-68 -97q36 -46 55 -110.5t19 -149.5q0 -88 -21 -155.5t-59.5 -113t-93.5 -69t-122 -23.5zM148 291q0 -38 8.5 -71
t23.5 -60l302 432q-52 43 -128 43q-45 0 -83 -16t-65.5 -46t-42.5 -72t-15 -94v-116zM560 407q0 38 -8.5 71t-23.5 60l-302 -432q52 -43 128 -43q45 0 83 16t65.5 46t42.5 72t15 94v116z" />
    <glyph glyph-name="Ugrave" unicode="&#xd9;" horiz-adv-x="678"
d="M172 698v-432q0 -100 37 -151.5t130 -51.5t130 51.5t37 151.5v432h84v-412q0 -76 -13.5 -132t-43.5 -93t-78.5 -55t-118.5 -18t-117.5 18t-76.5 55t-41.5 93t-12.5 132v412h84zM224 914l73 35l85 -170l-52 -24z" />
    <glyph glyph-name="Uacute" unicode="&#xda;" horiz-adv-x="678"
d="M172 698v-432q0 -100 37 -151.5t130 -51.5t130 51.5t37 151.5v432h84v-412q0 -76 -13.5 -132t-43.5 -93t-78.5 -55t-118.5 -18t-117.5 18t-76.5 55t-41.5 93t-12.5 132v412h84zM344 755l-52 24l85 170l73 -35z" />
    <glyph glyph-name="Ucircumflex" unicode="&#xdb;" horiz-adv-x="678"
d="M172 698v-432q0 -100 37 -151.5t130 -51.5t130 51.5t37 151.5v432h84v-412q0 -76 -13.5 -132t-43.5 -93t-78.5 -55t-118.5 -18t-117.5 18t-76.5 55t-41.5 93t-12.5 132v412h84zM387 935l111 -143l-44 -31l-117 117l-117 -117l-44 31l111 143h100z" />
    <glyph glyph-name="Udieresis" unicode="&#xdc;" horiz-adv-x="678"
d="M172 698v-432q0 -100 37 -151.5t130 -51.5t130 51.5t37 151.5v432h84v-412q0 -76 -13.5 -132t-43.5 -93t-78.5 -55t-118.5 -18t-117.5 18t-76.5 55t-41.5 93t-12.5 132v412h84zM244 788q-26 0 -38 13t-12 34v12q0 21 12 34t38 13t38 -13t12 -34v-12q0 -21 -12 -34
t-38 -13zM430 788q-26 0 -38 13t-12 34v12q0 21 12 34t38 13t38 -13t12 -34v-12q0 -21 -12 -34t-38 -13z" />
    <glyph glyph-name="Yacute" unicode="&#xdd;" horiz-adv-x="593"
d="M253 0v276l-240 422h96l186 -336h3l186 336h96l-243 -419v-279h-84zM305 755l-52 24l85 170l73 -35z" />
    <glyph glyph-name="Thorn" unicode="&#xde;" horiz-adv-x="606"
d="M93 0v698h84v-144h194q94 0 144.5 -54t50.5 -146t-50.5 -146t-144.5 -54h-194v-154h-84zM177 229h194q50 0 77.5 26t27.5 74v50q0 48 -27.5 74t-77.5 26h-194v-250z" />
    <glyph glyph-name="germandbls" unicode="&#xdf;" horiz-adv-x="640"
d="M613 149q0 -75 -48 -118t-133 -43q-60 0 -103 22t-74 62l54 48q52 -64 129 -64q47 0 72.5 22t25.5 62q0 30 -14 51t-56 30l-31 7q-31 7 -57.5 17.5t-46 27.5t-31 42t-11.5 61q0 69 48 106.5t130 39.5v5q0 80 -33.5 118.5t-104.5 38.5t-103.5 -38.5t-32.5 -118.5v-527h-80
v446h-84v70h84v5q0 52 14.5 95t42 73t67.5 46.5t92 16.5q51 0 91.5 -16.5t68 -46.5t42 -73t14.5 -95v-61h-47q-63 0 -97.5 -18.5t-34.5 -61.5q0 -38 20.5 -55t58.5 -26l30 -7q74 -17 106 -51t32 -92z" />
    <glyph glyph-name="agrave" unicode="&#xe0;" horiz-adv-x="534"
d="M460 0q-45 0 -64.5 24t-24.5 60h-5q-17 -48 -56 -72t-93 -24q-82 0 -127.5 42t-45.5 114q0 73 53.5 112t166.5 39h102v51q0 55 -30 84t-92 29q-47 0 -78.5 -21t-52.5 -56l-48 45q21 42 67 71.5t116 29.5q94 0 146 -46t52 -128v-284h59v-70h-45zM230 56q30 0 55 7t43 20
t28 30t10 37v85h-106q-69 0 -100.5 -20t-31.5 -58v-21q0 -38 27.5 -59t74.5 -21zM140 744l73 35l85 -170l-52 -24z" />
    <glyph glyph-name="aacute" unicode="&#xe1;" horiz-adv-x="534"
d="M460 0q-45 0 -64.5 24t-24.5 60h-5q-17 -48 -56 -72t-93 -24q-82 0 -127.5 42t-45.5 114q0 73 53.5 112t166.5 39h102v51q0 55 -30 84t-92 29q-47 0 -78.5 -21t-52.5 -56l-48 45q21 42 67 71.5t116 29.5q94 0 146 -46t52 -128v-284h59v-70h-45zM230 56q30 0 55 7t43 20
t28 30t10 37v85h-106q-69 0 -100.5 -20t-31.5 -58v-21q0 -38 27.5 -59t74.5 -21zM260 585l-52 24l85 170l73 -35z" />
    <glyph glyph-name="acircumflex" unicode="&#xe2;" horiz-adv-x="534"
d="M460 0q-45 0 -64.5 24t-24.5 60h-5q-17 -48 -56 -72t-93 -24q-82 0 -127.5 42t-45.5 114q0 73 53.5 112t166.5 39h102v51q0 55 -30 84t-92 29q-47 0 -78.5 -21t-52.5 -56l-48 45q21 42 67 71.5t116 29.5q94 0 146 -46t52 -128v-284h59v-70h-45zM230 56q30 0 55 7t43 20
t28 30t10 37v85h-106q-69 0 -100.5 -20t-31.5 -58v-21q0 -38 27.5 -59t74.5 -21zM303 765l111 -143l-44 -31l-117 117l-117 -117l-44 31l111 143h100z" />
    <glyph glyph-name="atilde" unicode="&#xe3;" horiz-adv-x="534"
d="M460 0q-45 0 -64.5 24t-24.5 60h-5q-17 -48 -56 -72t-93 -24q-82 0 -127.5 42t-45.5 114q0 73 53.5 112t166.5 39h102v51q0 55 -30 84t-92 29q-47 0 -78.5 -21t-52.5 -56l-48 45q21 42 67 71.5t116 29.5q94 0 146 -46t52 -128v-284h59v-70h-45zM230 56q30 0 55 7t43 20
t28 30t10 37v85h-106q-69 0 -100.5 -20t-31.5 -58v-21q0 -38 27.5 -59t74.5 -21zM326 612q-26 0 -45 9t-35 17q-24 13 -40.5 18.5t-29.5 5.5q-17 0 -30 -7t-28 -20l-33 40q14 20 37 36.5t58 16.5q26 0 45 -9t35 -17q24 -13 40.5 -18.5t29.5 -5.5q17 0 30 7t28 20l33 -40
q-14 -20 -37 -36.5t-58 -16.5z" />
    <glyph glyph-name="adieresis" unicode="&#xe4;" horiz-adv-x="534"
d="M460 0q-45 0 -64.5 24t-24.5 60h-5q-17 -48 -56 -72t-93 -24q-82 0 -127.5 42t-45.5 114q0 73 53.5 112t166.5 39h102v51q0 55 -30 84t-92 29q-47 0 -78.5 -21t-52.5 -56l-48 45q21 42 67 71.5t116 29.5q94 0 146 -46t52 -128v-284h59v-70h-45zM230 56q30 0 55 7t43 20
t28 30t10 37v85h-106q-69 0 -100.5 -20t-31.5 -58v-21q0 -38 27.5 -59t74.5 -21zM160 618q-26 0 -37.5 12.5t-11.5 33.5v11q0 21 11.5 33.5t37.5 12.5t37.5 -12.5t11.5 -33.5v-11q0 -21 -11.5 -33.5t-37.5 -12.5zM346 618q-26 0 -37.5 12.5t-11.5 33.5v11q0 21 11.5 33.5
t37.5 12.5t37.5 -12.5t11.5 -33.5v-11q0 -21 -11.5 -33.5t-37.5 -12.5z" />
    <glyph glyph-name="aring" unicode="&#xe5;" horiz-adv-x="534"
d="M460 0q-45 0 -64.5 24t-24.5 60h-5q-17 -48 -56 -72t-93 -24q-82 0 -127.5 42t-45.5 114q0 73 53.5 112t166.5 39h102v51q0 55 -30 84t-92 29q-47 0 -78.5 -21t-52.5 -56l-48 45q21 42 67 71.5t116 29.5q94 0 146 -46t52 -128v-284h59v-70h-45zM230 56q30 0 55 7t43 20
t28 30t10 37v85h-106q-69 0 -100.5 -20t-31.5 -58v-21q0 -38 27.5 -59t74.5 -21zM253 576q-24 0 -45.5 8.5t-37 24t-24.5 36.5t-9 46t9 46t24.5 36.5t37 24t45.5 8.5t45.5 -8.5t37 -24t24.5 -36.5t9 -46t-9 -46t-24.5 -36.5t-37 -24t-45.5 -8.5zM253 625q27 0 42.5 14.5
t15.5 40.5v22q0 26 -15.5 40.5t-42.5 14.5t-42.5 -14.5t-15.5 -40.5v-22q0 -26 15.5 -40.5t42.5 -14.5z" />
    <glyph glyph-name="ae" unicode="&#xe6;" horiz-adv-x="864"
d="M260 238q-69 -2 -100.5 -22.5t-31.5 -58.5v-21q0 -38 27.5 -59t75.5 -21q29 0 53.5 7t42.5 20t28.5 30t10.5 37v88h-106zM731 298v11q0 69 -37.5 110.5t-99.5 41.5q-33 0 -60 -11.5t-46.5 -32.5t-30.5 -49.5t-11 -62.5v-7h285zM599 58q99 0 142 88l57 -40
q-25 -54 -76.5 -86t-118.5 -32q-41 0 -74.5 11.5t-58 29t-39.5 38t-19 37.5h-6q-3 -17 -17.5 -37t-38.5 -37.5t-58 -29.5t-77 -12q-78 0 -124.5 41.5t-46.5 112.5q0 75 55 115.5t165 40.5h102v48q0 55 -30 84t-89 29q-50 0 -81 -20t-53 -56l-48 44q20 41 66.5 71t117.5 30
q44 0 73.5 -12.5t48 -30t27.5 -37.5t13 -35h6q4 17 19 37t39 37.5t56.5 29t71.5 11.5q49 0 88.5 -19t67.5 -52.5t43 -79.5t15 -101v-38h-371v-24q0 -33 10.5 -61.5t30 -49.5t48 -33t64.5 -12z" />
    <glyph glyph-name="ccedilla" unicode="&#xe7;" horiz-adv-x="503"
d="M277 528q77 0 123.5 -33.5t69.5 -86.5l-67 -35q-14 40 -46 62t-80 22q-36 0 -63 -11.5t-45 -32t-27 -49t-9 -62.5v-88q0 -68 36.5 -111.5t107.5 -43.5q97 0 140 90l58 -39q-23 -51 -67 -83.5t-109 -37.5l-10 -50l3 -3q19 6 39 6q29 0 48.5 -17t19.5 -49q0 -21 -9 -37
t-24.5 -26t-35.5 -15t-42 -5q-41 0 -64.5 13.5t-34.5 27.5l38 41q9 -11 24 -19.5t37 -8.5q19 0 31.5 7.5t12.5 23.5q0 14 -13 24.5t-55 16.5l-28 4l13 66q-97 10 -149.5 82t-52.5 187q0 62 15.5 112t45 85t72.5 54t97 19z" />
    <glyph glyph-name="egrave" unicode="&#xe8;" horiz-adv-x="549"
d="M279 -12q-53 0 -95.5 19t-73 54.5t-47 85t-16.5 111.5q0 61 16.5 111t47 85.5t73 54.5t95.5 19q52 0 93 -19t70 -52.5t44.5 -79.5t15.5 -101v-38h-371v-24q0 -33 10.5 -61.5t30 -49.5t48 -33t64.5 -12q49 0 85.5 23t56.5 66l57 -41q-25 -53 -78 -85.5t-126 -32.5z
M279 461q-33 0 -60 -11.5t-46.5 -32.5t-30.5 -49.5t-11 -62.5v-7h285v11q0 69 -37.5 110.5t-99.5 41.5zM167 744l73 35l85 -170l-52 -24z" />
    <glyph glyph-name="eacute" unicode="&#xe9;" horiz-adv-x="549"
d="M279 -12q-53 0 -95.5 19t-73 54.5t-47 85t-16.5 111.5q0 61 16.5 111t47 85.5t73 54.5t95.5 19q52 0 93 -19t70 -52.5t44.5 -79.5t15.5 -101v-38h-371v-24q0 -33 10.5 -61.5t30 -49.5t48 -33t64.5 -12q49 0 85.5 23t56.5 66l57 -41q-25 -53 -78 -85.5t-126 -32.5z
M279 461q-33 0 -60 -11.5t-46.5 -32.5t-30.5 -49.5t-11 -62.5v-7h285v11q0 69 -37.5 110.5t-99.5 41.5zM287 585l-52 24l85 170l73 -35z" />
    <glyph glyph-name="ecircumflex" unicode="&#xea;" horiz-adv-x="549"
d="M279 -12q-53 0 -95.5 19t-73 54.5t-47 85t-16.5 111.5q0 61 16.5 111t47 85.5t73 54.5t95.5 19q52 0 93 -19t70 -52.5t44.5 -79.5t15.5 -101v-38h-371v-24q0 -33 10.5 -61.5t30 -49.5t48 -33t64.5 -12q49 0 85.5 23t56.5 66l57 -41q-25 -53 -78 -85.5t-126 -32.5z
M279 461q-33 0 -60 -11.5t-46.5 -32.5t-30.5 -49.5t-11 -62.5v-7h285v11q0 69 -37.5 110.5t-99.5 41.5zM330 765l111 -143l-44 -31l-117 117l-117 -117l-44 31l111 143h100z" />
    <glyph glyph-name="edieresis" unicode="&#xeb;" horiz-adv-x="549"
d="M279 -12q-53 0 -95.5 19t-73 54.5t-47 85t-16.5 111.5q0 61 16.5 111t47 85.5t73 54.5t95.5 19q52 0 93 -19t70 -52.5t44.5 -79.5t15.5 -101v-38h-371v-24q0 -33 10.5 -61.5t30 -49.5t48 -33t64.5 -12q49 0 85.5 23t56.5 66l57 -41q-25 -53 -78 -85.5t-126 -32.5z
M279 461q-33 0 -60 -11.5t-46.5 -32.5t-30.5 -49.5t-11 -62.5v-7h285v11q0 69 -37.5 110.5t-99.5 41.5zM187 618q-26 0 -37.5 12.5t-11.5 33.5v11q0 21 11.5 33.5t37.5 12.5t37.5 -12.5t11.5 -33.5v-11q0 -21 -11.5 -33.5t-37.5 -12.5zM373 618q-26 0 -37.5 12.5t-11.5 33.5
v11q0 21 11.5 33.5t37.5 12.5t37.5 -12.5t11.5 -33.5v-11q0 -21 -11.5 -33.5t-37.5 -12.5z" />
    <glyph glyph-name="igrave" unicode="&#xec;" horiz-adv-x="250"
d="M85 0v516h80v-516h-80zM13 744l73 35l85 -170l-52 -24z" />
    <glyph glyph-name="iacute" unicode="&#xed;" horiz-adv-x="250"
d="M85 0v516h80v-516h-80zM133 585l-52 24l85 170l73 -35z" />
    <glyph glyph-name="icircumflex" unicode="&#xee;" horiz-adv-x="250"
d="M85 0v516h80v-516h-80zM176 765l111 -143l-44 -31l-117 117l-117 -117l-44 31l111 143h100z" />
    <glyph glyph-name="idieresis" unicode="&#xef;" horiz-adv-x="250"
d="M85 0v516h80v-516h-80zM33 618q-26 0 -37.5 12.5t-11.5 33.5v11q0 21 11.5 33.5t37.5 12.5t37.5 -12.5t11.5 -33.5v-11q0 -21 -11.5 -33.5t-37.5 -12.5zM219 618q-26 0 -37.5 12.5t-11.5 33.5v11q0 21 11.5 33.5t37.5 12.5t37.5 -12.5t11.5 -33.5v-11q0 -21 -11.5 -33.5
t-37.5 -12.5z" />
    <glyph glyph-name="eth" unicode="&#xf0;" horiz-adv-x="555"
d="M418 712l-78 -56q31 -31 61 -70t53 -87t37 -105t14 -123q0 -70 -17 -123t-47.5 -88.5t-72.5 -53.5t-92 -18q-53 0 -95.5 19t-72 53t-45.5 81.5t-16 104.5t16 104.5t45.5 81.5t72 53t95.5 19q49 0 82 -26t48 -72l4 2q-11 57 -45.5 109.5t-82.5 97.5l-79 -56l-31 41l70 50
q-32 26 -65 48t-66 42h123q15 -9 32 -21t34 -27l85 61zM276 57q65 0 104 42t39 114v66q0 72 -39 114t-104 42t-104 -42t-39 -114v-66q0 -72 39 -114t104 -42z" />
    <glyph glyph-name="ntilde" unicode="&#xf1;" horiz-adv-x="568"
d="M85 0v516h80v-84h4q19 44 53.5 70t92.5 26q80 0 126.5 -51.5t46.5 -145.5v-331h-80v317q0 139 -117 139q-24 0 -46.5 -6t-40.5 -18t-28.5 -30.5t-10.5 -43.5v-358h-80zM362 612q-26 0 -45 9t-35 17q-24 13 -40.5 18.5t-29.5 5.5q-17 0 -30 -7t-28 -20l-33 40
q14 20 37 36.5t58 16.5q26 0 45 -9t35 -17q24 -13 40.5 -18.5t29.5 -5.5q17 0 30 7t28 20l33 -40q-14 -20 -37 -36.5t-58 -16.5z" />
    <glyph glyph-name="ograve" unicode="&#xf2;" horiz-adv-x="560"
d="M280 -12q-52 0 -95 19t-73.5 54.5t-47.5 85t-17 111.5q0 61 17 111t47.5 85.5t73.5 54.5t95 19t94.5 -19t73.5 -54.5t48 -85.5t17 -111q0 -62 -17 -111.5t-48 -85t-73.5 -54.5t-94.5 -19zM280 59q65 0 106 40t41 122v74q0 82 -41 122t-106 40t-106 -40t-41 -122v-74
q0 -82 41 -122t106 -40zM168 744l73 35l85 -170l-52 -24z" />
    <glyph glyph-name="oacute" unicode="&#xf3;" horiz-adv-x="560"
d="M280 -12q-52 0 -95 19t-73.5 54.5t-47.5 85t-17 111.5q0 61 17 111t47.5 85.5t73.5 54.5t95 19t94.5 -19t73.5 -54.5t48 -85.5t17 -111q0 -62 -17 -111.5t-48 -85t-73.5 -54.5t-94.5 -19zM280 59q65 0 106 40t41 122v74q0 82 -41 122t-106 40t-106 -40t-41 -122v-74
q0 -82 41 -122t106 -40zM288 585l-52 24l85 170l73 -35z" />
    <glyph glyph-name="ocircumflex" unicode="&#xf4;" horiz-adv-x="560"
d="M280 -12q-52 0 -95 19t-73.5 54.5t-47.5 85t-17 111.5q0 61 17 111t47.5 85.5t73.5 54.5t95 19t94.5 -19t73.5 -54.5t48 -85.5t17 -111q0 -62 -17 -111.5t-48 -85t-73.5 -54.5t-94.5 -19zM280 59q65 0 106 40t41 122v74q0 82 -41 122t-106 40t-106 -40t-41 -122v-74
q0 -82 41 -122t106 -40zM331 765l111 -143l-44 -31l-117 117l-117 -117l-44 31l111 143h100z" />
    <glyph glyph-name="otilde" unicode="&#xf5;" horiz-adv-x="560"
d="M280 -12q-52 0 -95 19t-73.5 54.5t-47.5 85t-17 111.5q0 61 17 111t47.5 85.5t73.5 54.5t95 19t94.5 -19t73.5 -54.5t48 -85.5t17 -111q0 -62 -17 -111.5t-48 -85t-73.5 -54.5t-94.5 -19zM280 59q65 0 106 40t41 122v74q0 82 -41 122t-106 40t-106 -40t-41 -122v-74
q0 -82 41 -122t106 -40zM354 612q-26 0 -45 9t-35 17q-24 13 -40.5 18.5t-29.5 5.5q-17 0 -30 -7t-28 -20l-33 40q14 20 37 36.5t58 16.5q26 0 45 -9t35 -17q24 -13 40.5 -18.5t29.5 -5.5q17 0 30 7t28 20l33 -40q-14 -20 -37 -36.5t-58 -16.5z" />
    <glyph glyph-name="odieresis" unicode="&#xf6;" horiz-adv-x="560"
d="M280 -12q-52 0 -95 19t-73.5 54.5t-47.5 85t-17 111.5q0 61 17 111t47.5 85.5t73.5 54.5t95 19t94.5 -19t73.5 -54.5t48 -85.5t17 -111q0 -62 -17 -111.5t-48 -85t-73.5 -54.5t-94.5 -19zM280 59q65 0 106 40t41 122v74q0 82 -41 122t-106 40t-106 -40t-41 -122v-74
q0 -82 41 -122t106 -40zM188 618q-26 0 -37.5 12.5t-11.5 33.5v11q0 21 11.5 33.5t37.5 12.5t37.5 -12.5t11.5 -33.5v-11q0 -21 -11.5 -33.5t-37.5 -12.5zM374 618q-26 0 -37.5 12.5t-11.5 33.5v11q0 21 11.5 33.5t37.5 12.5t37.5 -12.5t11.5 -33.5v-11q0 -21 -11.5 -33.5
t-37.5 -12.5z" />
    <glyph glyph-name="divide" unicode="&#xf7;"
d="M67 271v68h466v-68h-466zM300 52q-35 0 -48.5 14t-13.5 34v22q0 20 13.5 34t48.5 14t48.5 -14t13.5 -34v-22q0 -20 -13.5 -34t-48.5 -14zM300 440q-35 0 -48.5 14t-13.5 34v22q0 20 13.5 34t48.5 14t48.5 -14t13.5 -34v-22q0 -20 -13.5 -34t-48.5 -14z" />
    <glyph glyph-name="oslash" unicode="&#xf8;" horiz-adv-x="568"
d="M35 -6l67 84q-51 71 -51 180q0 61 17 111t47.5 85.5t73.5 54.5t95 19q42 0 77.5 -13t64.5 -36l62 77l45 -34l-67 -85q24 -34 37.5 -79.5t13.5 -99.5q0 -62 -17 -111.5t-48 -85t-73.5 -54.5t-94.5 -19q-83 0 -142 48l-62 -76zM284 59q65 0 106 40t41 122v74q0 24 -4 44
t-11 37l-230 -284q37 -33 98 -33zM137 221q0 -48 15 -82l230 285q-39 33 -98 33q-65 0 -106 -40t-41 -122v-74z" />
    <glyph glyph-name="ugrave" unicode="&#xf9;" horiz-adv-x="568"
d="M403 84h-4q-8 -18 -19.5 -35.5t-28.5 -31t-41 -21.5t-56 -8q-80 0 -127 51.5t-47 145.5v331h80v-317q0 -139 118 -139q24 0 46.5 6t40 18t28 30.5t10.5 44.5v357h80v-516h-80v84zM170 744l73 35l85 -170l-52 -24z" />
    <glyph glyph-name="uacute" unicode="&#xfa;" horiz-adv-x="568"
d="M403 84h-4q-8 -18 -19.5 -35.5t-28.5 -31t-41 -21.5t-56 -8q-80 0 -127 51.5t-47 145.5v331h80v-317q0 -139 118 -139q24 0 46.5 6t40 18t28 30.5t10.5 44.5v357h80v-516h-80v84zM290 585l-52 24l85 170l73 -35z" />
    <glyph glyph-name="ucircumflex" unicode="&#xfb;" horiz-adv-x="568"
d="M403 84h-4q-8 -18 -19.5 -35.5t-28.5 -31t-41 -21.5t-56 -8q-80 0 -127 51.5t-47 145.5v331h80v-317q0 -139 118 -139q24 0 46.5 6t40 18t28 30.5t10.5 44.5v357h80v-516h-80v84zM333 765l111 -143l-44 -31l-117 117l-117 -117l-44 31l111 143h100z" />
    <glyph glyph-name="udieresis" unicode="&#xfc;" horiz-adv-x="568"
d="M403 84h-4q-8 -18 -19.5 -35.5t-28.5 -31t-41 -21.5t-56 -8q-80 0 -127 51.5t-47 145.5v331h80v-317q0 -139 118 -139q24 0 46.5 6t40 18t28 30.5t10.5 44.5v357h80v-516h-80v84zM190 618q-26 0 -37.5 12.5t-11.5 33.5v11q0 21 11.5 33.5t37.5 12.5t37.5 -12.5
t11.5 -33.5v-11q0 -21 -11.5 -33.5t-37.5 -12.5zM376 618q-26 0 -37.5 12.5t-11.5 33.5v11q0 21 11.5 33.5t37.5 12.5t37.5 -12.5t11.5 -33.5v-11q0 -21 -11.5 -33.5t-37.5 -12.5z" />
    <glyph glyph-name="yacute" unicode="&#xfd;" horiz-adv-x="499"
d="M403 516h79l-231 -636q-9 -23 -18 -38.5t-22 -24.5t-32.5 -13t-47.5 -4h-41v70h81l39 110l-193 536h80l124 -351l24 -84h5l28 84zM258 585l-52 24l85 170l73 -35z" />
    <glyph glyph-name="thorn" unicode="&#xfe;" horiz-adv-x="580"
d="M85 740h80v-308h4q20 49 58.5 72.5t92.5 23.5q48 0 87 -19t66.5 -54t42 -85t14.5 -112t-14.5 -112t-42 -85t-66.5 -54t-87 -19q-105 0 -151 96h-4v-284h-80v940zM298 60q68 0 107 42.5t39 111.5v88q0 69 -39 111.5t-107 42.5q-27 0 -51.5 -7.5t-42.5 -20.5t-28.5 -31.5
t-10.5 -39.5v-192q0 -25 10.5 -44.5t28.5 -33t42.5 -20.5t51.5 -7z" />
    <glyph glyph-name="ydieresis" unicode="&#xff;" horiz-adv-x="499"
d="M403 516h79l-231 -636q-9 -23 -18 -38.5t-22 -24.5t-32.5 -13t-47.5 -4h-41v70h81l39 110l-193 536h80l124 -351l24 -84h5l28 84zM158 618q-26 0 -37.5 12.5t-11.5 33.5v11q0 21 11.5 33.5t37.5 12.5t37.5 -12.5t11.5 -33.5v-11q0 -21 -11.5 -33.5t-37.5 -12.5zM344 618
q-26 0 -37.5 12.5t-11.5 33.5v11q0 21 11.5 33.5t37.5 12.5t37.5 -12.5t11.5 -33.5v-11q0 -21 -11.5 -33.5t-37.5 -12.5z" />
    <glyph glyph-name="Amacron" unicode="&#x100;" horiz-adv-x="641"
d="M530 0l-70 206h-282l-70 -206h-85l244 698h107l244 -698h-88zM321 620h-5l-118 -340h241zM182 875h280v-68h-280v68z" />
    <glyph glyph-name="amacron" unicode="&#x101;" horiz-adv-x="534"
d="M460 0q-45 0 -64.5 24t-24.5 60h-5q-17 -48 -56 -72t-93 -24q-82 0 -127.5 42t-45.5 114q0 73 53.5 112t166.5 39h102v51q0 55 -30 84t-92 29q-47 0 -78.5 -21t-52.5 -56l-48 45q21 42 67 71.5t116 29.5q94 0 146 -46t52 -128v-284h59v-70h-45zM230 56q30 0 55 7t43 20
t28 30t10 37v85h-106q-69 0 -100.5 -20t-31.5 -58v-21q0 -38 27.5 -59t74.5 -21zM113 705h280v-68h-280v68z" />
    <glyph glyph-name="Abreve" unicode="&#x102;" horiz-adv-x="641"
d="M530 0l-70 206h-282l-70 -206h-85l244 698h107l244 -698h-88zM321 620h-5l-118 -340h241zM322 766q-40 0 -66.5 12t-43 30t-26 40t-16.5 43l45 22l21 -33q13 -22 30.5 -36.5t55.5 -14.5q19 0 32.5 4t23 10.5t16.5 16t14 20.5l21 33l45 -22q-7 -21 -16.5 -43t-26 -40
t-43 -30t-66.5 -12z" />
    <glyph glyph-name="abreve" unicode="&#x103;" horiz-adv-x="534"
d="M460 0q-45 0 -64.5 24t-24.5 60h-5q-17 -48 -56 -72t-93 -24q-82 0 -127.5 42t-45.5 114q0 73 53.5 112t166.5 39h102v51q0 55 -30 84t-92 29q-47 0 -78.5 -21t-52.5 -56l-48 45q21 42 67 71.5t116 29.5q94 0 146 -46t52 -128v-284h59v-70h-45zM230 56q30 0 55 7t43 20
t28 30t10 37v85h-106q-69 0 -100.5 -20t-31.5 -58v-21q0 -38 27.5 -59t74.5 -21zM253 596q-40 0 -66.5 12t-43 30t-26 40t-16.5 43l45 22l21 -33q13 -22 30.5 -36.5t55.5 -14.5q19 0 32.5 4t23 10.5t16.5 16t14 20.5l21 33l45 -22q-7 -21 -16.5 -43t-26 -40t-43 -30
t-66.5 -12z" />
    <glyph glyph-name="Aogonek" unicode="&#x104;" horiz-adv-x="641"
d="M267 698h107l244 -698q-32 -29 -51 -49t-29.5 -33.5t-14 -23t-3.5 -17.5q0 -17 8.5 -23.5t22.5 -6.5q29 0 48 24l40 -39q-9 -16 -31 -27.5t-57 -11.5q-39 0 -67 18t-28 58q0 19 8 36t22 32t32.5 29.5t38.5 29.5l-1 4h-26l-70 206h-282l-70 -206h-85zM321 620h-5
l-118 -340h241z" />
    <glyph glyph-name="aogonek" unicode="&#x105;" horiz-adv-x="534"
d="M505 0q-32 -29 -51 -49t-29.5 -33.5t-14 -23t-3.5 -17.5q0 -17 8.5 -23.5t22.5 -6.5q29 0 48 24l40 -39q-9 -16 -31 -27.5t-57 -11.5q-39 0 -67 18t-28 58q0 19 8 36t22 32.5t32.5 30.5t39.5 30l-1 3q-35 5 -52 28t-21 55h-5q-17 -48 -56 -72t-93 -24q-82 0 -127.5 42
t-45.5 114q0 73 53.5 112t166.5 39h102v51q0 55 -30 84t-92 29q-47 0 -78.5 -21t-52.5 -56l-48 45q21 42 67 71.5t116 29.5q94 0 146 -46t52 -128v-284h59v-70zM260 235q-69 0 -100.5 -20t-31.5 -58v-21q0 -38 27.5 -59t74.5 -21q30 0 55 7t43 20t28 30t10 37v85h-106z" />
    <glyph glyph-name="Cacute" unicode="&#x106;" horiz-adv-x="621"
d="M339 -12q-133 0 -207 90.5t-74 266.5t74 270.5t207 94.5q88 0 147.5 -40t92.5 -113l-68 -41q-21 54 -64 86.5t-108 32.5q-45 0 -80.5 -17t-60 -48.5t-37.5 -75t-13 -97.5v-104q0 -108 50 -169t141 -61q67 0 112 34.5t66 91.5l67 -42q-33 -74 -95 -116.5t-150 -42.5z
M345 755l-52 24l85 170l73 -35z" />
    <glyph glyph-name="cacute" unicode="&#x107;" horiz-adv-x="503"
d="M277 -12q-54 0 -97 19t-72.5 54t-45 85t-15.5 112t15.5 112t45 85t72.5 54t97 19q77 0 123.5 -33.5t69.5 -87.5l-67 -34q-14 40 -46 62t-80 22q-36 0 -63 -11.5t-45 -32t-27 -49t-9 -62.5v-88q0 -68 36.5 -111.5t107.5 -43.5q97 0 140 90l58 -39q-25 -56 -74.5 -89
t-123.5 -33zM284 585l-52 24l85 170l73 -35z" />
    <glyph glyph-name="Ccircumflex" unicode="&#x108;" horiz-adv-x="621"
d="M339 -12q-133 0 -207 90.5t-74 266.5t74 270.5t207 94.5q88 0 147.5 -40t92.5 -113l-68 -41q-21 54 -64 86.5t-108 32.5q-45 0 -80.5 -17t-60 -48.5t-37.5 -75t-13 -97.5v-104q0 -108 50 -169t141 -61q67 0 112 34.5t66 91.5l67 -42q-33 -74 -95 -116.5t-150 -42.5z
M388 935l111 -143l-44 -31l-117 117l-117 -117l-44 31l111 143h100z" />
    <glyph glyph-name="ccircumflex" unicode="&#x109;" horiz-adv-x="503"
d="M277 -12q-54 0 -97 19t-72.5 54t-45 85t-15.5 112t15.5 112t45 85t72.5 54t97 19q77 0 123.5 -33.5t69.5 -87.5l-67 -34q-14 40 -46 62t-80 22q-36 0 -63 -11.5t-45 -32t-27 -49t-9 -62.5v-88q0 -68 36.5 -111.5t107.5 -43.5q97 0 140 90l58 -39q-25 -56 -74.5 -89
t-123.5 -33zM327 765l111 -143l-44 -31l-117 117l-117 -117l-44 31l111 143h100z" />
    <glyph glyph-name="Cdotaccent" unicode="&#x10a;" horiz-adv-x="621"
d="M339 -12q-133 0 -207 90.5t-74 266.5t74 270.5t207 94.5q88 0 147.5 -40t92.5 -113l-68 -41q-21 54 -64 86.5t-108 32.5q-45 0 -80.5 -17t-60 -48.5t-37.5 -75t-13 -97.5v-104q0 -108 50 -169t141 -61q67 0 112 34.5t66 91.5l67 -42q-33 -74 -95 -116.5t-150 -42.5z
M338 780q-29 0 -42.5 14.5t-13.5 38.5v14q0 24 13.5 38.5t42.5 14.5t42.5 -14.5t13.5 -38.5v-14q0 -24 -13.5 -38.5t-42.5 -14.5z" />
    <glyph glyph-name="cdotaccent" unicode="&#x10b;" horiz-adv-x="503"
d="M277 -12q-54 0 -97 19t-72.5 54t-45 85t-15.5 112t15.5 112t45 85t72.5 54t97 19q77 0 123.5 -33.5t69.5 -87.5l-67 -34q-14 40 -46 62t-80 22q-36 0 -63 -11.5t-45 -32t-27 -49t-9 -62.5v-88q0 -68 36.5 -111.5t107.5 -43.5q97 0 140 90l58 -39q-25 -56 -74.5 -89
t-123.5 -33zM277 616q-26 0 -38.5 12.5t-12.5 33.5v11q0 21 12.5 33.5t38.5 12.5t38.5 -12.5t12.5 -33.5v-11q0 -21 -12.5 -33.5t-38.5 -12.5z" />
    <glyph glyph-name="Ccaron" unicode="&#x10c;" horiz-adv-x="621"
d="M339 -12q-133 0 -207 90.5t-74 266.5t74 270.5t207 94.5q88 0 147.5 -40t92.5 -113l-68 -41q-21 54 -64 86.5t-108 32.5q-45 0 -80.5 -17t-60 -48.5t-37.5 -75t-13 -97.5v-104q0 -108 50 -169t141 -61q67 0 112 34.5t66 91.5l67 -42q-33 -74 -95 -116.5t-150 -42.5z
M288 769l-111 143l44 31l117 -117l117 117l44 -31l-111 -143h-100z" />
    <glyph glyph-name="ccaron" unicode="&#x10d;" horiz-adv-x="503"
d="M277 -12q-54 0 -97 19t-72.5 54t-45 85t-15.5 112t15.5 112t45 85t72.5 54t97 19q77 0 123.5 -33.5t69.5 -87.5l-67 -34q-14 40 -46 62t-80 22q-36 0 -63 -11.5t-45 -32t-27 -49t-9 -62.5v-88q0 -68 36.5 -111.5t107.5 -43.5q97 0 140 90l58 -39q-25 -56 -74.5 -89
t-123.5 -33zM227 599l-111 143l44 31l117 -117l117 117l44 -31l-111 -143h-100z" />
    <glyph glyph-name="Dcaron" unicode="&#x10e;" horiz-adv-x="671"
d="M93 698h234q65 0 118 -22t90.5 -65.5t57.5 -109t20 -152.5t-20 -152.5t-57.5 -109t-90.5 -65.5t-118 -22h-234v698zM327 74q43 0 79 14.5t62 42.5t40.5 68.5t14.5 92.5v114q0 52 -14.5 92.5t-40.5 68.5t-62 42.5t-79 14.5h-150v-550h150zM257 769l-111 143l44 31
l117 -117l117 117l44 -31l-111 -143h-100z" />
    <glyph glyph-name="dcaron" unicode="&#x10f;" horiz-adv-x="603"
d="M604 555h-53l12 185h93zM415 84h-4q-47 -96 -151 -96q-48 0 -87 19t-66.5 54t-42 85t-14.5 112t14.5 112t42 85t66.5 54t87 19q54 0 92.5 -23.5t58.5 -72.5h4v308h80v-740h-80v84zM282 60q27 0 51.5 7t42.5 20.5t28.5 33t10.5 44.5v192q0 21 -10.5 39.5t-28.5 31.5
t-42.5 20.5t-51.5 7.5q-68 0 -107 -42.5t-39 -111.5v-88q0 -69 39 -111.5t107 -42.5z" />
    <glyph glyph-name="Dcroat" unicode="&#x110;" horiz-adv-x="674"
d="M96 337h-79v64h79v297h234q65 0 118 -22t90.5 -65.5t57.5 -109t20 -152.5t-20 -152.5t-57.5 -109t-90.5 -65.5t-118 -22h-234v337zM330 74q43 0 79 14.5t62 42.5t40.5 68.5t14.5 92.5v114q0 52 -14.5 92.5t-40.5 68.5t-62 42.5t-79 14.5h-150v-223h137v-64h-137v-263h150
z" />
    <glyph glyph-name="dcroat" unicode="&#x111;" horiz-adv-x="583"
d="M415 84h-4q-47 -96 -151 -96q-48 0 -87 19t-66.5 54t-42 85t-14.5 112t14.5 112t42 85t66.5 54t87 19q54 0 92.5 -23.5t58.5 -72.5h4v176h-150v62h150v70h80v-70h64v-62h-64v-608h-80v84zM282 60q27 0 51.5 7t42.5 20.5t28.5 33t10.5 44.5v192q0 21 -10.5 39.5
t-28.5 31.5t-42.5 20.5t-51.5 7.5q-68 0 -107 -42.5t-39 -111.5v-88q0 -69 39 -111.5t107 -42.5z" />
    <glyph glyph-name="Emacron" unicode="&#x112;" horiz-adv-x="583"
d="M93 0v698h426v-74h-342v-234h322v-74h-322v-242h342v-74h-426zM164 875h280v-68h-280v68z" />
    <glyph glyph-name="emacron" unicode="&#x113;" horiz-adv-x="549"
d="M279 -12q-53 0 -95.5 19t-73 54.5t-47 85t-16.5 111.5q0 61 16.5 111t47 85.5t73 54.5t95.5 19q52 0 93 -19t70 -52.5t44.5 -79.5t15.5 -101v-38h-371v-24q0 -33 10.5 -61.5t30 -49.5t48 -33t64.5 -12q49 0 85.5 23t56.5 66l57 -41q-25 -53 -78 -85.5t-126 -32.5z
M279 461q-33 0 -60 -11.5t-46.5 -32.5t-30.5 -49.5t-11 -62.5v-7h285v11q0 69 -37.5 110.5t-99.5 41.5zM140 705h280v-68h-280v68z" />
    <glyph glyph-name="Ebreve" unicode="&#x114;" horiz-adv-x="583"
d="M93 0v698h426v-74h-342v-234h322v-74h-322v-242h342v-74h-426zM304 766q-40 0 -66.5 12t-43 30t-26 40t-16.5 43l45 22l21 -33q13 -22 30.5 -36.5t55.5 -14.5q19 0 32.5 4t23 10.5t16.5 16t14 20.5l21 33l45 -22q-7 -21 -16.5 -43t-26 -40t-43 -30t-66.5 -12z" />
    <glyph glyph-name="ebreve" unicode="&#x115;" horiz-adv-x="549"
d="M279 -12q-53 0 -95.5 19t-73 54.5t-47 85t-16.5 111.5q0 61 16.5 111t47 85.5t73 54.5t95.5 19q52 0 93 -19t70 -52.5t44.5 -79.5t15.5 -101v-38h-371v-24q0 -33 10.5 -61.5t30 -49.5t48 -33t64.5 -12q49 0 85.5 23t56.5 66l57 -41q-25 -53 -78 -85.5t-126 -32.5z
M279 461q-33 0 -60 -11.5t-46.5 -32.5t-30.5 -49.5t-11 -62.5v-7h285v11q0 69 -37.5 110.5t-99.5 41.5zM280 596q-40 0 -66.5 12t-43 30t-26 40t-16.5 43l45 22l21 -33q13 -22 30.5 -36.5t55.5 -14.5q19 0 32.5 4t23 10.5t16.5 16t14 20.5l21 33l45 -22q-7 -21 -16.5 -43
t-26 -40t-43 -30t-66.5 -12z" />
    <glyph glyph-name="Edotaccent" unicode="&#x116;" horiz-adv-x="583"
d="M93 0v698h426v-74h-342v-234h322v-74h-322v-242h342v-74h-426zM304 780q-29 0 -42.5 14.5t-13.5 38.5v14q0 24 13.5 38.5t42.5 14.5t42.5 -14.5t13.5 -38.5v-14q0 -24 -13.5 -38.5t-42.5 -14.5z" />
    <glyph glyph-name="edotaccent" unicode="&#x117;" horiz-adv-x="549"
d="M279 -12q-53 0 -95.5 19t-73 54.5t-47 85t-16.5 111.5q0 61 16.5 111t47 85.5t73 54.5t95.5 19q52 0 93 -19t70 -52.5t44.5 -79.5t15.5 -101v-38h-371v-24q0 -33 10.5 -61.5t30 -49.5t48 -33t64.5 -12q49 0 85.5 23t56.5 66l57 -41q-25 -53 -78 -85.5t-126 -32.5z
M279 461q-33 0 -60 -11.5t-46.5 -32.5t-30.5 -49.5t-11 -62.5v-7h285v11q0 69 -37.5 110.5t-99.5 41.5zM280 616q-26 0 -38.5 12.5t-12.5 33.5v11q0 21 12.5 33.5t38.5 12.5t38.5 -12.5t12.5 -33.5v-11q0 -21 -12.5 -33.5t-38.5 -12.5z" />
    <glyph glyph-name="Eogonek" unicode="&#x118;" horiz-adv-x="583"
d="M93 698h426v-74h-342v-234h322v-74h-322v-242h342v-74q-32 -29 -51 -49t-29.5 -33.5t-14 -23t-3.5 -17.5q0 -17 8.5 -23.5t22.5 -6.5q29 0 48 24l40 -39q-9 -16 -31 -27.5t-57 -11.5q-39 0 -67 18t-28 58q0 38 29.5 68t71.5 58l-1 5h-364v698z" />
    <glyph glyph-name="eogonek" unicode="&#x119;" horiz-adv-x="549"
d="M356 -207q-39 0 -66.5 18t-27.5 59q0 22 9 41t24 35t33 29t36 25l-4 5q-13 -7 -32.5 -12t-48.5 -5q-53 0 -95.5 19t-73 54.5t-47 85t-16.5 111.5q0 61 16.5 111t47 85.5t73 54.5t95.5 19q52 0 93 -19t70 -52.5t44.5 -79.5t15.5 -101v-38h-371v-24q0 -33 10.5 -61.5
t30 -49.5t48 -33t64.5 -12q49 0 85.5 23t56.5 66l57 -41q-8 -17 -15.5 -28.5t-18.5 -24.5q-15 -19 -36 -40t-40.5 -43.5t-33 -46t-13.5 -45.5q0 -17 8.5 -24t22.5 -7q29 0 48 24l39 -39q-9 -16 -31 -27.5t-57 -11.5zM416 298v11q0 69 -37.5 110.5t-99.5 41.5
q-33 0 -60 -11.5t-46.5 -32.5t-30.5 -49.5t-11 -62.5v-7h285z" />
    <glyph glyph-name="Ecaron" unicode="&#x11a;" horiz-adv-x="583"
d="M93 0v698h426v-74h-342v-234h322v-74h-322v-242h342v-74h-426zM254 769l-111 143l44 31l117 -117l117 117l44 -31l-111 -143h-100z" />
    <glyph glyph-name="ecaron" unicode="&#x11b;" horiz-adv-x="549"
d="M279 -12q-53 0 -95.5 19t-73 54.5t-47 85t-16.5 111.5q0 61 16.5 111t47 85.5t73 54.5t95.5 19q52 0 93 -19t70 -52.5t44.5 -79.5t15.5 -101v-38h-371v-24q0 -33 10.5 -61.5t30 -49.5t48 -33t64.5 -12q49 0 85.5 23t56.5 66l57 -41q-25 -53 -78 -85.5t-126 -32.5z
M279 461q-33 0 -60 -11.5t-46.5 -32.5t-30.5 -49.5t-11 -62.5v-7h285v11q0 69 -37.5 110.5t-99.5 41.5zM230 599l-111 143l44 31l117 -117l117 117l44 -31l-111 -143h-100z" />
    <glyph glyph-name="Gcircumflex" unicode="&#x11c;" horiz-adv-x="695"
d="M545 102h-3q-13 -49 -63.5 -81.5t-130.5 -32.5q-64 0 -117.5 23.5t-91.5 69t-59.5 113t-21.5 155.5q0 87 21 154.5t60 113t94 69.5t122 24q94 0 157 -42t97 -111l-69 -42q-24 56 -71.5 88t-113.5 32q-46 0 -84 -16.5t-65.5 -46.5t-42.5 -72t-15 -94v-113q0 -52 15 -94.5
t42.5 -72.5t67.5 -46.5t90 -16.5q36 0 68.5 9.5t57 28.5t38.5 47.5t14 67.5v69h-154v74h236v-359h-78v102zM405 935l111 -143l-44 -31l-117 117l-117 -117l-44 31l111 143h100z" />
    <glyph glyph-name="gcircumflex" unicode="&#x11d;" horiz-adv-x="531"
d="M520 -57q0 -80 -62.5 -117.5t-187.5 -37.5q-121 0 -174 33t-53 94q0 42 22 65.5t60 34.5v11q-46 22 -46 72q0 39 25 59.5t64 30.5v4q-46 22 -71.5 63t-25.5 95q0 39 14 72t39.5 56.5t61 36.5t79.5 13q43 0 78 -12h161v-64h-80q17 -20 27 -45t10 -57q0 -39 -14 -72
t-39.5 -56.5t-61.5 -36.5t-80 -13q-25 0 -50 5q-26 -7 -47 -20.5t-21 -37.5q0 -23 22 -31t57 -8h110q96 0 139.5 -36.5t43.5 -100.5zM266 236q51 0 81 24.5t30 75.5v28q0 51 -30 75.5t-81 24.5t-81 -24.5t-30 -75.5v-28q0 -51 30 -75.5t81 -24.5zM445 -63q0 31 -23.5 49.5
t-83.5 18.5h-172q-48 -22 -48 -70q0 -34 25.5 -58t86.5 -24h74q67 0 104 21t37 63zM317 765l111 -143l-44 -31l-117 117l-117 -117l-44 31l111 143h100z" />
    <glyph glyph-name="Gbreve" unicode="&#x11e;" horiz-adv-x="695"
d="M545 102h-3q-13 -49 -63.5 -81.5t-130.5 -32.5q-64 0 -117.5 23.5t-91.5 69t-59.5 113t-21.5 155.5q0 87 21 154.5t60 113t94 69.5t122 24q94 0 157 -42t97 -111l-69 -42q-24 56 -71.5 88t-113.5 32q-46 0 -84 -16.5t-65.5 -46.5t-42.5 -72t-15 -94v-113q0 -52 15 -94.5
t42.5 -72.5t67.5 -46.5t90 -16.5q36 0 68.5 9.5t57 28.5t38.5 47.5t14 67.5v69h-154v74h236v-359h-78v102zM355 766q-40 0 -66.5 12t-43 30t-26 40t-16.5 43l45 22l21 -33q13 -22 30.5 -36.5t55.5 -14.5q19 0 32.5 4t23 10.5t16.5 16t14 20.5l21 33l45 -22q-7 -21 -16.5 -43
t-26 -40t-43 -30t-66.5 -12z" />
    <glyph glyph-name="gbreve" unicode="&#x11f;" horiz-adv-x="531"
d="M520 -57q0 -80 -62.5 -117.5t-187.5 -37.5q-121 0 -174 33t-53 94q0 42 22 65.5t60 34.5v11q-46 22 -46 72q0 39 25 59.5t64 30.5v4q-46 22 -71.5 63t-25.5 95q0 39 14 72t39.5 56.5t61 36.5t79.5 13q43 0 78 -12h161v-64h-80q17 -20 27 -45t10 -57q0 -39 -14 -72
t-39.5 -56.5t-61.5 -36.5t-80 -13q-25 0 -50 5q-26 -7 -47 -20.5t-21 -37.5q0 -23 22 -31t57 -8h110q96 0 139.5 -36.5t43.5 -100.5zM266 236q51 0 81 24.5t30 75.5v28q0 51 -30 75.5t-81 24.5t-81 -24.5t-30 -75.5v-28q0 -51 30 -75.5t81 -24.5zM445 -63q0 31 -23.5 49.5
t-83.5 18.5h-172q-48 -22 -48 -70q0 -34 25.5 -58t86.5 -24h74q67 0 104 21t37 63zM265 596q-40 0 -66.5 12t-43 30t-26 40t-16.5 43l45 22l21 -33q13 -22 30.5 -36.5t55.5 -14.5q19 0 32.5 4t23 10.5t16.5 16t14 20.5l21 33l45 -22q-7 -21 -16.5 -43t-26 -40t-43 -30
t-66.5 -12z" />
    <glyph glyph-name="Gdotaccent" unicode="&#x120;" horiz-adv-x="695"
d="M545 102h-3q-13 -49 -63.5 -81.5t-130.5 -32.5q-64 0 -117.5 23.5t-91.5 69t-59.5 113t-21.5 155.5q0 87 21 154.5t60 113t94 69.5t122 24q94 0 157 -42t97 -111l-69 -42q-24 56 -71.5 88t-113.5 32q-46 0 -84 -16.5t-65.5 -46.5t-42.5 -72t-15 -94v-113q0 -52 15 -94.5
t42.5 -72.5t67.5 -46.5t90 -16.5q36 0 68.5 9.5t57 28.5t38.5 47.5t14 67.5v69h-154v74h236v-359h-78v102zM355 780q-29 0 -42.5 14.5t-13.5 38.5v14q0 24 13.5 38.5t42.5 14.5t42.5 -14.5t13.5 -38.5v-14q0 -24 -13.5 -38.5t-42.5 -14.5z" />
    <glyph glyph-name="gdotaccent" unicode="&#x121;" horiz-adv-x="531"
d="M520 -57q0 -80 -62.5 -117.5t-187.5 -37.5q-121 0 -174 33t-53 94q0 42 22 65.5t60 34.5v11q-46 22 -46 72q0 39 25 59.5t64 30.5v4q-46 22 -71.5 63t-25.5 95q0 39 14 72t39.5 56.5t61 36.5t79.5 13q43 0 78 -12h161v-64h-80q17 -20 27 -45t10 -57q0 -39 -14 -72
t-39.5 -56.5t-61.5 -36.5t-80 -13q-25 0 -50 5q-26 -7 -47 -20.5t-21 -37.5q0 -23 22 -31t57 -8h110q96 0 139.5 -36.5t43.5 -100.5zM266 236q51 0 81 24.5t30 75.5v28q0 51 -30 75.5t-81 24.5t-81 -24.5t-30 -75.5v-28q0 -51 30 -75.5t81 -24.5zM445 -63q0 31 -23.5 49.5
t-83.5 18.5h-172q-48 -22 -48 -70q0 -34 25.5 -58t86.5 -24h74q67 0 104 21t37 63zM267 616q-26 0 -38.5 12.5t-12.5 33.5v11q0 21 12.5 33.5t38.5 12.5t38.5 -12.5t12.5 -33.5v-11q0 -21 -12.5 -33.5t-38.5 -12.5z" />
    <glyph glyph-name="Gcommaaccent" unicode="&#x122;" horiz-adv-x="695"
d="M545 102h-3q-13 -49 -63.5 -81.5t-130.5 -32.5q-64 0 -117.5 23.5t-91.5 69t-59.5 113t-21.5 155.5q0 87 21 154.5t60 113t94 69.5t122 24q94 0 157 -42t97 -111l-69 -42q-24 56 -71.5 88t-113.5 32q-46 0 -84 -16.5t-65.5 -46.5t-42.5 -72t-15 -94v-113q0 -52 15 -94.5
t42.5 -72.5t67.5 -46.5t90 -16.5q36 0 68.5 9.5t57 28.5t38.5 47.5t14 67.5v69h-154v74h236v-359h-78v102zM348 -66q25 0 38 -12.5t13 -34.5v-11q0 -35 -18 -66.5t-42 -54.5h-58q20 21 32 38t19 40q-17 4 -26 15.5t-9 28.5v10q0 22 13 34.5t38 12.5z" />
    <glyph glyph-name="gcommaaccent" unicode="&#x123;" horiz-adv-x="531"
d="M520 -57q0 -80 -62.5 -117.5t-187.5 -37.5q-121 0 -174 33t-53 94q0 42 22 65.5t60 34.5v11q-46 22 -46 72q0 39 25 59.5t64 30.5v4q-46 22 -71.5 63t-25.5 95q0 39 14 72t39.5 56.5t61 36.5t79.5 13q43 0 78 -12h161v-64h-80q17 -20 27 -45t10 -57q0 -39 -14 -72
t-39.5 -56.5t-61.5 -36.5t-80 -13q-25 0 -50 5q-26 -7 -47 -20.5t-21 -37.5q0 -23 22 -31t57 -8h110q96 0 139.5 -36.5t43.5 -100.5zM266 236q51 0 81 24.5t30 75.5v28q0 51 -30 75.5t-81 24.5t-81 -24.5t-30 -75.5v-28q0 -51 30 -75.5t81 -24.5zM445 -63q0 31 -23.5 49.5
t-83.5 18.5h-172q-48 -22 -48 -70q0 -34 25.5 -58t86.5 -24h74q67 0 104 21t37 63zM268 595q-25 0 -38 12.5t-13 34.5v11q0 35 18 66.5t42 54.5h58q-20 -21 -32 -38t-19 -40q17 -4 26 -15.5t9 -28.5v-10q0 -22 -13 -34.5t-38 -12.5z" />
    <glyph glyph-name="Hcircumflex" unicode="&#x124;" horiz-adv-x="707"
d="M530 316h-353v-316h-84v698h84v-308h353v308h84v-698h-84v316zM404 935l111 -143l-44 -31l-117 117l-117 -117l-44 31l111 143h100z" />
    <glyph glyph-name="hcircumflex" unicode="&#x125;" horiz-adv-x="568"
d="M85 740h80v-308h4q19 44 53.5 70t92.5 26q80 0 126.5 -51.5t46.5 -145.5v-331h-80v317q0 139 -117 139q-24 0 -46.5 -6t-40.5 -18t-28.5 -30.5t-10.5 -43.5v-358h-80v740zM178 923l111 -143l-44 -31l-117 117l-117 -117l-44 31l111 143h100z" />
    <glyph glyph-name="Hbar" unicode="&#x126;" horiz-adv-x="713"
d="M533 316h-353v-316h-84v518h-69v64h69v116h84v-116h353v116h84v-116h69v-64h-69v-518h-84v316zM533 390v128h-353v-128h353z" />
    <glyph glyph-name="hbar" unicode="&#x127;" horiz-adv-x="568"
d="M85 0v608h-64v62h64v70h80v-70h150v-62h-150v-176h4q19 44 53.5 70t92.5 26q80 0 126.5 -51.5t46.5 -145.5v-331h-80v317q0 139 -117 139q-24 0 -46.5 -6t-40.5 -18t-28.5 -30.5t-10.5 -43.5v-358h-80z" />
    <glyph glyph-name="Itilde" unicode="&#x128;" horiz-adv-x="400"
d="M60 0v70h98v558h-98v70h280v-70h-98v-558h98v-70h-280zM274 782q-26 0 -45 9t-35 17q-24 13 -40.5 18.5t-29.5 5.5q-17 0 -30 -7t-28 -20l-33 40q14 20 37 36.5t58 16.5q26 0 45 -9t35 -17q24 -13 40.5 -18.5t29.5 -5.5q17 0 30 7t28 20l33 -40q-14 -20 -37 -36.5
t-58 -16.5z" />
    <glyph glyph-name="itilde" unicode="&#x129;" horiz-adv-x="250"
d="M85 0v516h80v-516h-80zM199 612q-26 0 -45 9t-35 17q-24 13 -40.5 18.5t-29.5 5.5q-17 0 -30 -7t-28 -20l-33 40q14 20 37 36.5t58 16.5q26 0 45 -9t35 -17q24 -13 40.5 -18.5t29.5 -5.5q17 0 30 7t28 20l33 -40q-14 -20 -37 -36.5t-58 -16.5z" />
    <glyph glyph-name="Imacron" unicode="&#x12a;" horiz-adv-x="400"
d="M60 0v70h98v558h-98v70h280v-70h-98v-558h98v-70h-280zM61 875h280v-68h-280v68z" />
    <glyph glyph-name="imacron" unicode="&#x12b;" horiz-adv-x="250"
d="M85 0v516h80v-516h-80zM-14 705h280v-68h-280v68z" />
    <glyph glyph-name="Ibreve" unicode="&#x12c;" horiz-adv-x="400"
d="M60 0v70h98v558h-98v70h280v-70h-98v-558h98v-70h-280zM201 766q-40 0 -66.5 12t-43 30t-26 40t-16.5 43l45 22l21 -33q13 -22 30.5 -36.5t55.5 -14.5q19 0 32.5 4t23 10.5t16.5 16t14 20.5l21 33l45 -22q-7 -21 -16.5 -43t-26 -40t-43 -30t-66.5 -12z" />
    <glyph glyph-name="ibreve" unicode="&#x12d;" horiz-adv-x="250"
d="M85 0v516h80v-516h-80zM126 596q-40 0 -66.5 12t-43 30t-26 40t-16.5 43l45 22l21 -33q13 -22 30.5 -36.5t55.5 -14.5q19 0 32.5 4t23 10.5t16.5 16t14 20.5l21 33l45 -22q-7 -21 -16.5 -43t-26 -40t-43 -30t-66.5 -12z" />
    <glyph glyph-name="Iogonek" unicode="&#x12e;" horiz-adv-x="400"
d="M60 70h98v558h-98v70h280v-70h-98v-558h98v-70q-32 -29 -51 -49t-29.5 -33.5t-14 -23t-3.5 -17.5q0 -17 8.5 -23.5t22.5 -6.5q29 0 48 24l40 -39q-9 -16 -31 -27.5t-57 -11.5q-39 0 -67 18t-28 58q0 38 26.5 66t74.5 60l-1 5h-218v70z" />
    <glyph glyph-name="iogonek" unicode="&#x12f;" horiz-adv-x="250"
d="M85 516h80v-516q-32 -29 -51 -49t-29.5 -33.5t-14 -23t-3.5 -17.5q0 -17 8.5 -23.5t22.5 -6.5q29 0 48 24l40 -39q-9 -16 -31 -27.5t-57 -11.5q-39 0 -67 18t-28 58q0 19 8.5 36t22.5 32t32.5 29.5t38.5 29.5l-2 4h-18v516zM125 637q-26 0 -37.5 12.5t-11.5 32.5v13
q0 20 11.5 32.5t37.5 12.5t37.5 -12.5t11.5 -32.5v-13q0 -20 -11.5 -32.5t-37.5 -12.5z" />
    <glyph glyph-name="Idotaccent" unicode="&#x130;" horiz-adv-x="400"
d="M60 0v70h98v558h-98v70h280v-70h-98v-558h98v-70h-280zM201 780q-29 0 -42.5 14.5t-13.5 38.5v14q0 24 13.5 38.5t42.5 14.5t42.5 -14.5t13.5 -38.5v-14q0 -24 -13.5 -38.5t-42.5 -14.5z" />
    <glyph glyph-name="dotlessi" unicode="&#x131;" horiz-adv-x="250"
d="M85 0v516h80v-516h-80z" />
    <glyph glyph-name="IJ" unicode="&#x132;" horiz-adv-x="645"
d="M557 698v-473q0 -111 -62.5 -174t-174.5 -63q-50 0 -89 12.5t-67 35t-46 52.5t-25 66l76 18q6 -23 17.5 -43t30 -34.5t45 -23t61.5 -8.5q70 0 110 35t40 110v415h-152v75h236zM88 698h84v-408h-84v408z" />
    <glyph glyph-name="ij" unicode="&#x133;" horiz-adv-x="496"
d="M125 637q-26 0 -37.5 12.5t-11.5 32.5v13q0 20 11.5 32.5t37.5 12.5t37.5 -12.5t11.5 -32.5v-13q0 -20 -11.5 -32.5t-37.5 -12.5zM85 516h80v-516h-80v516zM331 516h80v-596q0 -54 -27 -87t-85 -33h-52v70h84v646zM371 637q-26 0 -37.5 12.5t-11.5 32.5v13
q0 20 11.5 32.5t37.5 12.5t37.5 -12.5t11.5 -32.5v-13q0 -20 -11.5 -32.5t-37.5 -12.5z" />
    <glyph glyph-name="Jcircumflex" unicode="&#x134;" horiz-adv-x="510"
d="M422 698v-517q0 -44 -14.5 -80t-41 -61t-63.5 -38.5t-81 -13.5q-81 0 -130.5 43.5t-63.5 115.5l76 18q10 -45 38 -73.5t82 -28.5t84 33t30 100v428h-240v74h324zM314 935l111 -143l-44 -31l-117 117l-117 -117l-44 31l111 143h100z" />
    <glyph glyph-name="jcircumflex" unicode="&#x135;" horiz-adv-x="250"
d="M1 -130h84v646h80v-596q0 -54 -27 -87t-85 -33h-52v70zM176 765l111 -143l-44 -31l-117 117l-117 -117l-44 31l111 143h100z" />
    <glyph glyph-name="Kcommaaccent" unicode="&#x136;" horiz-adv-x="634"
d="M276 343l-99 -110v-233h-84v698h84v-371h3l100 121l211 250h103l-260 -299l278 -399h-104zM336 -66q25 0 38 -12.5t13 -34.5v-11q0 -35 -18 -66.5t-42 -54.5h-58q20 21 32 38t19 40q-17 4 -26 15.5t-9 28.5v10q0 22 13 34.5t38 12.5z" />
    <glyph glyph-name="kcommaaccent" unicode="&#x137;" horiz-adv-x="527"
d="M85 740h80v-469h4l79 88l146 157h97l-191 -204l210 -312h-97l-171 263l-77 -79v-184h-80v740zM292 -66q25 0 38 -12.5t13 -34.5v-11q0 -35 -18 -66.5t-42 -54.5h-58q20 21 32 38t19 40q-17 4 -26 15.5t-9 28.5v10q0 22 13 34.5t38 12.5z" />
    <glyph glyph-name="kgreenlandic" unicode="&#x138;" horiz-adv-x="527"
d="M242 263l-77 -79v-184h-80v516h80v-243h4l80 88l147 155h98l-194 -202l210 -314h-97z" />
    <glyph glyph-name="Lacute" unicode="&#x139;" horiz-adv-x="501"
d="M93 0v698h84v-624h297v-74h-381zM143 755l-52 24l85 170l73 -35z" />
    <glyph glyph-name="lacute" unicode="&#x13a;" horiz-adv-x="272"
d="M170 0q-42 0 -63.5 23.5t-21.5 59.5v657h80v-670h76v-70h-71zM133 785l-52 24l85 170l73 -35z" />
    <glyph glyph-name="Lcommaaccent" unicode="&#x13b;" horiz-adv-x="501"
d="M93 0v698h84v-624h297v-74h-381zM298 -66q25 0 38 -12.5t13 -34.5v-11q0 -35 -18 -66.5t-42 -54.5h-58q20 21 32 38t19 40q-17 4 -26 15.5t-9 28.5v10q0 22 13 34.5t38 12.5z" />
    <glyph glyph-name="lcommaaccent" unicode="&#x13c;" horiz-adv-x="272"
d="M170 0q-42 0 -63.5 23.5t-21.5 59.5v657h80v-670h76v-70h-71zM164 -66q25 0 38 -12.5t13 -34.5v-11q0 -35 -18 -66.5t-42 -54.5h-58q20 21 32 38t19 40q-17 4 -26 15.5t-9 28.5v10q0 22 13 34.5t38 12.5z" />
    <glyph glyph-name="Lcaron" unicode="&#x13d;" horiz-adv-x="501"
d="M93 0v698h84v-624h297v-74h-381zM309 555h-53l12 185h93z" />
    <glyph glyph-name="lcaron" unicode="&#x13e;" horiz-adv-x="274"
d="M274 555h-53l12 185h93zM170 0q-42 0 -63.5 23.5t-21.5 59.5v657h80v-670h76v-70h-71z" />
    <glyph glyph-name="Ldot" unicode="&#x13f;" horiz-adv-x="501"
d="M93 0v698h84v-624h297v-74h-381zM385 293q-26 0 -38.5 12.5t-12.5 33.5v11q0 21 12.5 33.5t38.5 12.5t38.5 -12.5t12.5 -33.5v-11q0 -21 -12.5 -33.5t-38.5 -12.5z" />
    <glyph glyph-name="ldot" unicode="&#x140;" horiz-adv-x="358"
d="M170 0q-42 0 -63.5 23.5t-21.5 59.5v657h80v-670h76v-70h-71zM304 254q-26 0 -38.5 12.5t-12.5 33.5v11q0 21 12.5 33.5t38.5 12.5t38.5 -12.5t12.5 -33.5v-11q0 -21 -12.5 -33.5t-38.5 -12.5z" />
    <glyph glyph-name="Lslash" unicode="&#x141;" horiz-adv-x="508"
d="M477 0h-381v271l-103 -34v67l103 35v359h84v-331l181 61v-71l-181 -59v-223h297v-75z" />
    <glyph glyph-name="lslash" unicode="&#x142;" horiz-adv-x="278"
d="M244 0h-71q-42 0 -63.5 23.5t-21.5 59.5v242l-70 -23v68l70 23v347h80v-320l103 34v-68l-103 -34v-282h76v-70z" />
    <glyph glyph-name="Nacute" unicode="&#x143;" horiz-adv-x="707"
d="M262 426l-84 155h-3v-581h-82v698h97l255 -426l84 -155h3v581h82v-698h-97zM360 755l-52 24l85 170l73 -35z" />
    <glyph glyph-name="nacute" unicode="&#x144;" horiz-adv-x="568"
d="M85 0v516h80v-84h4q19 44 53.5 70t92.5 26q80 0 126.5 -51.5t46.5 -145.5v-331h-80v317q0 139 -117 139q-24 0 -46.5 -6t-40.5 -18t-28.5 -30.5t-10.5 -43.5v-358h-80zM296 585l-52 24l85 170l73 -35z" />
    <glyph glyph-name="Ncommaaccent" unicode="&#x145;" horiz-adv-x="707"
d="M262 426l-84 155h-3v-581h-82v698h97l255 -426l84 -155h3v581h82v-698h-97zM353 -66q25 0 38 -12.5t13 -34.5v-11q0 -35 -18 -66.5t-42 -54.5h-58q20 21 32 38t19 40q-17 4 -26 15.5t-9 28.5v10q0 22 13 34.5t38 12.5z" />
    <glyph glyph-name="ncommaaccent" unicode="&#x146;" horiz-adv-x="568"
d="M85 0v516h80v-84h4q19 44 53.5 70t92.5 26q80 0 126.5 -51.5t46.5 -145.5v-331h-80v317q0 139 -117 139q-24 0 -46.5 -6t-40.5 -18t-28.5 -30.5t-10.5 -43.5v-358h-80zM287 -66q25 0 38 -12.5t13 -34.5v-11q0 -35 -18 -66.5t-42 -54.5h-58q20 21 32 38t19 40
q-17 4 -26 15.5t-9 28.5v10q0 22 13 34.5t38 12.5z" />
    <glyph glyph-name="Ncaron" unicode="&#x147;" horiz-adv-x="707"
d="M262 426l-84 155h-3v-581h-82v698h97l255 -426l84 -155h3v581h82v-698h-97zM303 769l-111 143l44 31l117 -117l117 117l44 -31l-111 -143h-100z" />
    <glyph glyph-name="ncaron" unicode="&#x148;" horiz-adv-x="568"
d="M85 0v516h80v-84h4q19 44 53.5 70t92.5 26q80 0 126.5 -51.5t46.5 -145.5v-331h-80v317q0 139 -117 139q-24 0 -46.5 -6t-40.5 -18t-28.5 -30.5t-10.5 -43.5v-358h-80zM239 599l-111 143l44 31l117 -117l117 117l44 -31l-111 -143h-100z" />
    <glyph glyph-name="napostrophe" unicode="&#x149;" horiz-adv-x="811"
d="M141 750q32 0 46.5 -16.5t14.5 -42.5v-14q0 -41 -24 -90.5t-67 -86.5h-67q30 32 48.5 60.5t26.5 63.5q-20 5 -29.5 19t-9.5 34v14q0 26 14.5 42.5t46.5 16.5zM328 0v516h80v-84h4q19 44 53.5 70t92.5 26q80 0 126.5 -51.5t46.5 -145.5v-331h-80v317q0 139 -117 139
q-24 0 -46.5 -6t-40.5 -18t-28.5 -30.5t-10.5 -43.5v-358h-80z" />
    <glyph glyph-name="Eng" unicode="&#x14a;" horiz-adv-x="707"
d="M93 0v698h97l255 -426l84 -155h3v581h82v-773q0 -56 -28 -90.5t-86 -34.5h-54v74h86v126h-15l-255 426l-84 155h-3v-581h-82z" />
    <glyph glyph-name="eng" unicode="&#x14b;" horiz-adv-x="568"
d="M324 -130h84v447q0 139 -117 139q-24 0 -46.5 -6t-40.5 -18t-28.5 -30.5t-10.5 -43.5v-358h-80v516h80v-84h4q19 44 53.5 70t92.5 26q80 0 126.5 -51.5t46.5 -145.5v-413q0 -54 -27 -86t-84 -32h-53v70z" />
    <glyph glyph-name="Omacron" unicode="&#x14c;" horiz-adv-x="708"
d="M354 -12q-68 0 -122.5 23.5t-93 69t-59.5 113t-21 155.5t21 155t59.5 113t93 69.5t122.5 23.5q67 0 122 -23.5t93.5 -69.5t59.5 -113t21 -155t-21 -155.5t-59.5 -113t-93.5 -69t-122 -23.5zM354 63q45 0 83 16t65.5 46t42.5 72t15 94v116q0 52 -15 94t-42.5 72t-65.5 46
t-83 16t-83 -16t-65.5 -46t-42.5 -72t-15 -94v-116q0 -52 15 -94t42.5 -72t65.5 -46t83 -16zM214 875h280v-68h-280v68z" />
    <glyph glyph-name="omacron" unicode="&#x14d;" horiz-adv-x="560"
d="M280 -12q-52 0 -95 19t-73.5 54.5t-47.5 85t-17 111.5q0 61 17 111t47.5 85.5t73.5 54.5t95 19t94.5 -19t73.5 -54.5t48 -85.5t17 -111q0 -62 -17 -111.5t-48 -85t-73.5 -54.5t-94.5 -19zM280 59q65 0 106 40t41 122v74q0 82 -41 122t-106 40t-106 -40t-41 -122v-74
q0 -82 41 -122t106 -40zM141 705h280v-68h-280v68z" />
    <glyph glyph-name="Obreve" unicode="&#x14e;" horiz-adv-x="708"
d="M354 -12q-68 0 -122.5 23.5t-93 69t-59.5 113t-21 155.5t21 155t59.5 113t93 69.5t122.5 23.5q67 0 122 -23.5t93.5 -69.5t59.5 -113t21 -155t-21 -155.5t-59.5 -113t-93.5 -69t-122 -23.5zM354 63q45 0 83 16t65.5 46t42.5 72t15 94v116q0 52 -15 94t-42.5 72t-65.5 46
t-83 16t-83 -16t-65.5 -46t-42.5 -72t-15 -94v-116q0 -52 15 -94t42.5 -72t65.5 -46t83 -16zM354 766q-40 0 -66.5 12t-43 30t-26 40t-16.5 43l45 22l21 -33q13 -22 30.5 -36.5t55.5 -14.5q19 0 32.5 4t23 10.5t16.5 16t14 20.5l21 33l45 -22q-7 -21 -16.5 -43t-26 -40
t-43 -30t-66.5 -12z" />
    <glyph glyph-name="obreve" unicode="&#x14f;" horiz-adv-x="560"
d="M280 -12q-52 0 -95 19t-73.5 54.5t-47.5 85t-17 111.5q0 61 17 111t47.5 85.5t73.5 54.5t95 19t94.5 -19t73.5 -54.5t48 -85.5t17 -111q0 -62 -17 -111.5t-48 -85t-73.5 -54.5t-94.5 -19zM280 59q65 0 106 40t41 122v74q0 82 -41 122t-106 40t-106 -40t-41 -122v-74
q0 -82 41 -122t106 -40zM281 596q-40 0 -66.5 12t-43 30t-26 40t-16.5 43l45 22l21 -33q13 -22 30.5 -36.5t55.5 -14.5q19 0 32.5 4t23 10.5t16.5 16t14 20.5l21 33l45 -22q-7 -21 -16.5 -43t-26 -40t-43 -30t-66.5 -12z" />
    <glyph glyph-name="Ohungarumlaut" unicode="&#x150;" horiz-adv-x="708"
d="M354 -12q-68 0 -122.5 23.5t-93 69t-59.5 113t-21 155.5t21 155t59.5 113t93 69.5t122.5 23.5q67 0 122 -23.5t93.5 -69.5t59.5 -113t21 -155t-21 -155.5t-59.5 -113t-93.5 -69t-122 -23.5zM354 63q45 0 83 16t65.5 46t42.5 72t15 94v116q0 52 -15 94t-42.5 72t-65.5 46
t-83 16t-83 -16t-65.5 -46t-42.5 -72t-15 -94v-116q0 -52 15 -94t42.5 -72t65.5 -46t83 -16zM281 756l-48 22l85 170l69 -33zM441 756l-48 22l85 170l69 -33z" />
    <glyph glyph-name="ohungarumlaut" unicode="&#x151;" horiz-adv-x="560"
d="M280 -12q-52 0 -95 19t-73.5 54.5t-47.5 85t-17 111.5q0 61 17 111t47.5 85.5t73.5 54.5t95 19t94.5 -19t73.5 -54.5t48 -85.5t17 -111q0 -62 -17 -111.5t-48 -85t-73.5 -54.5t-94.5 -19zM280 59q65 0 106 40t41 122v74q0 82 -41 122t-106 40t-106 -40t-41 -122v-74
q0 -82 41 -122t106 -40zM208 586l-48 22l85 170l69 -33zM368 586l-48 22l85 170l69 -33z" />
    <glyph glyph-name="OE" unicode="&#x152;" horiz-adv-x="985"
d="M495 0q-28 -5 -63.5 -8.5t-64.5 -3.5q-72 0 -129.5 23.5t-97.5 69t-61 113t-21 155.5t21 155.5t61 113t97.5 69t129.5 23.5q29 0 64.5 -3.5t63.5 -8.5h426v-74h-343v-234h323v-74h-323v-242h343v-74h-426zM377 63q28 0 59 4.5t58 13.5v536q-27 9 -58 13.5t-59 4.5
q-59 0 -102 -16t-71 -46t-42 -72t-14 -94v-116q0 -52 14 -94t42 -72t71 -46t102 -16z" />
    <glyph glyph-name="oe" unicode="&#x153;" horiz-adv-x="931"
d="M280 59q65 0 106 40t41 122v74q0 82 -41 122t-106 40t-106 -40t-41 -122v-74q0 -82 41 -122t106 -40zM798 298v11q0 69 -37.5 110.5t-99.5 41.5q-33 0 -60 -11.5t-46.5 -32.5t-30.5 -49.5t-11 -62.5v-7h285zM667 -12q-38 0 -68.5 9t-54.5 25t-42 37t-29 44h-5
q-23 -50 -73 -82.5t-115 -32.5q-52 0 -95 19t-73.5 54.5t-47.5 85t-17 111.5q0 61 17 111t47.5 85.5t73.5 54.5t95 19q66 0 115 -29.5t73 -85.5h6q22 53 70 84t117 31q51 0 92 -18.5t70.5 -52t45 -80t15.5 -101.5v-38h-371v-24q0 -33 10.5 -61.5t30 -49.5t48 -33t64.5 -12
q50 0 86 23t57 66l56 -41q-25 -53 -75.5 -85.5t-122.5 -32.5z" />
    <glyph glyph-name="Racute" unicode="&#x154;" horiz-adv-x="640"
d="M177 0h-84v698h278q92 0 143.5 -51t51.5 -147q0 -77 -35.5 -126.5t-104.5 -65.5l160 -308h-95l-151 300h-163v-300zM371 372q50 0 77.5 26t27.5 74v52q0 48 -27.5 74t-77.5 26h-194v-252h194zM314 755l-52 24l85 170l73 -35z" />
    <glyph glyph-name="racute" unicode="&#x155;" horiz-adv-x="367"
d="M85 0v516h80v-95h5q14 37 50 66t99 29h31v-80h-47q-65 0 -101.5 -24.5t-36.5 -61.5v-350h-80zM227 585l-52 24l85 170l73 -35z" />
    <glyph glyph-name="Rcommaaccent" unicode="&#x156;" horiz-adv-x="640"
d="M177 0h-84v698h278q92 0 143.5 -51t51.5 -147q0 -77 -35.5 -126.5t-104.5 -65.5l160 -308h-95l-151 300h-163v-300zM371 372q50 0 77.5 26t27.5 74v52q0 48 -27.5 74t-77.5 26h-194v-252h194zM324 -66q25 0 38 -12.5t13 -34.5v-11q0 -35 -18 -66.5t-42 -54.5h-58
q20 21 32 38t19 40q-17 4 -26 15.5t-9 28.5v10q0 22 13 34.5t38 12.5z" />
    <glyph glyph-name="rcommaaccent" unicode="&#x157;" horiz-adv-x="367"
d="M85 0v516h80v-95h5q14 37 50 66t99 29h31v-80h-47q-65 0 -101.5 -24.5t-36.5 -61.5v-350h-80zM127 -66q25 0 38 -12.5t13 -34.5v-11q0 -35 -18 -66.5t-42 -54.5h-58q20 21 32 38t19 40q-17 4 -26 15.5t-9 28.5v10q0 22 13 34.5t38 12.5z" />
    <glyph glyph-name="Rcaron" unicode="&#x158;" horiz-adv-x="640"
d="M177 0h-84v698h278q92 0 143.5 -51t51.5 -147q0 -77 -35.5 -126.5t-104.5 -65.5l160 -308h-95l-151 300h-163v-300zM371 372q50 0 77.5 26t27.5 74v52q0 48 -27.5 74t-77.5 26h-194v-252h194zM257 769l-111 143l44 31l117 -117l117 117l44 -31l-111 -143h-100z" />
    <glyph glyph-name="rcaron" unicode="&#x159;" horiz-adv-x="367"
d="M85 0v516h80v-95h5q14 37 50 66t99 29h31v-80h-47q-65 0 -101.5 -24.5t-36.5 -61.5v-350h-80zM170 599l-111 143l44 31l117 -117l117 117l44 -31l-111 -143h-100z" />
    <glyph glyph-name="Sacute" unicode="&#x15a;" horiz-adv-x="581"
d="M289 -12q-85 0 -145 32.5t-102 89.5l62 52q37 -49 82 -74.5t106 -25.5q75 0 114.5 36t39.5 96q0 50 -30 77t-99 43l-57 13q-96 22 -146.5 66.5t-50.5 125.5q0 46 17 82t47.5 60t73 36.5t93.5 12.5q79 0 135.5 -29t95.5 -85l-63 -46q-29 40 -70 63t-102 23
q-67 0 -105.5 -28.5t-38.5 -85.5q0 -50 32.5 -75.5t98.5 -40.5l57 -13q103 -23 149 -70t46 -125q0 -48 -16.5 -87t-47.5 -66t-75.5 -42t-100.5 -15zM296 755l-52 24l85 170l73 -35z" />
    <glyph glyph-name="sacute" unicode="&#x15b;" horiz-adv-x="487"
d="M240 -12q-72 0 -120.5 27.5t-83.5 73.5l57 46q30 -38 67 -58.5t86 -20.5q51 0 79.5 22t28.5 62q0 30 -19.5 51.5t-70.5 29.5l-41 6q-36 5 -66 15.5t-52.5 28t-35 43.5t-12.5 62q0 38 14 66.5t38.5 47.5t58.5 28.5t73 9.5q63 0 105.5 -22t74.5 -61l-53 -48
q-17 24 -50 43.5t-83 19.5t-75.5 -21.5t-25.5 -58.5q0 -38 25.5 -55t73.5 -25l40 -6q86 -13 122 -49.5t36 -95.5q0 -75 -51 -118t-140 -43zM246 585l-52 24l85 170l73 -35z" />
    <glyph glyph-name="Scircumflex" unicode="&#x15c;" horiz-adv-x="581"
d="M289 -12q-85 0 -145 32.5t-102 89.5l62 52q37 -49 82 -74.5t106 -25.5q75 0 114.5 36t39.5 96q0 50 -30 77t-99 43l-57 13q-96 22 -146.5 66.5t-50.5 125.5q0 46 17 82t47.5 60t73 36.5t93.5 12.5q79 0 135.5 -29t95.5 -85l-63 -46q-29 40 -70 63t-102 23
q-67 0 -105.5 -28.5t-38.5 -85.5q0 -50 32.5 -75.5t98.5 -40.5l57 -13q103 -23 149 -70t46 -125q0 -48 -16.5 -87t-47.5 -66t-75.5 -42t-100.5 -15zM339 935l111 -143l-44 -31l-117 117l-117 -117l-44 31l111 143h100z" />
    <glyph glyph-name="scircumflex" unicode="&#x15d;" horiz-adv-x="487"
d="M240 -12q-72 0 -120.5 27.5t-83.5 73.5l57 46q30 -38 67 -58.5t86 -20.5q51 0 79.5 22t28.5 62q0 30 -19.5 51.5t-70.5 29.5l-41 6q-36 5 -66 15.5t-52.5 28t-35 43.5t-12.5 62q0 38 14 66.5t38.5 47.5t58.5 28.5t73 9.5q63 0 105.5 -22t74.5 -61l-53 -48
q-17 24 -50 43.5t-83 19.5t-75.5 -21.5t-25.5 -58.5q0 -38 25.5 -55t73.5 -25l40 -6q86 -13 122 -49.5t36 -95.5q0 -75 -51 -118t-140 -43zM289 765l111 -143l-44 -31l-117 117l-117 -117l-44 31l111 143h100z" />
    <glyph glyph-name="Scedilla" unicode="&#x15e;" horiz-adv-x="581"
d="M290 636q-67 0 -105.5 -28.5t-38.5 -85.5q0 -50 32.5 -75.5t98.5 -40.5l57 -13q103 -23 149 -70t46 -125q0 -46 -15 -83.5t-43 -64.5t-69 -42.5t-92 -18.5l-10 -50l3 -3q19 6 39 6q29 0 48.5 -17t19.5 -49q0 -21 -9 -37t-24.5 -26t-35.5 -15t-42 -5q-41 0 -64.5 13.5
t-34.5 27.5l38 41q9 -11 24 -19.5t37 -8.5q19 0 31.5 7.5t12.5 23.5q0 14 -13 24.5t-55 16.5l-28 4l13 66q-73 5 -126.5 37t-91.5 84l62 52q37 -49 82 -74.5t106 -25.5q75 0 114.5 36t39.5 96q0 50 -30 77t-99 43l-57 13q-96 22 -146.5 66.5t-50.5 125.5q0 46 17 82t47.5 60
t73 36.5t93.5 12.5q79 0 135.5 -29t95.5 -85l-63 -46q-29 40 -70 63t-102 23z" />
    <glyph glyph-name="scedilla" unicode="&#x15f;" horiz-adv-x="487"
d="M252 -207q-41 0 -64.5 13.5t-34.5 27.5l38 41q9 -11 24 -19.5t37 -8.5q19 0 31.5 7.5t12.5 23.5q0 14 -13 24.5t-55 16.5l-28 4l13 66q-60 5 -103 31.5t-74 68.5l57 46q30 -38 67 -58.5t86 -20.5q51 0 79.5 22t28.5 62q0 30 -19.5 51.5t-70.5 29.5l-41 6q-36 5 -66 15.5
t-52.5 28t-35 43.5t-12.5 62q0 38 14 66.5t38.5 47.5t58.5 28.5t73 9.5q63 0 105.5 -22t74.5 -61l-53 -48q-17 24 -50 43.5t-83 19.5t-75.5 -21.5t-25.5 -58.5q0 -38 25.5 -55t73.5 -25l40 -6q86 -13 122 -49.5t36 -95.5q0 -70 -45 -112.5t-123 -47.5l-10 -50l3 -3
q19 6 39 6q29 0 48.5 -17t19.5 -49q0 -21 -9 -37t-24.5 -26t-35.5 -15t-42 -5z" />
    <glyph glyph-name="Scaron" unicode="&#x160;" horiz-adv-x="581"
d="M289 -12q-85 0 -145 32.5t-102 89.5l62 52q37 -49 82 -74.5t106 -25.5q75 0 114.5 36t39.5 96q0 50 -30 77t-99 43l-57 13q-96 22 -146.5 66.5t-50.5 125.5q0 46 17 82t47.5 60t73 36.5t93.5 12.5q79 0 135.5 -29t95.5 -85l-63 -46q-29 40 -70 63t-102 23
q-67 0 -105.5 -28.5t-38.5 -85.5q0 -50 32.5 -75.5t98.5 -40.5l57 -13q103 -23 149 -70t46 -125q0 -48 -16.5 -87t-47.5 -66t-75.5 -42t-100.5 -15zM239 769l-111 143l44 31l117 -117l117 117l44 -31l-111 -143h-100z" />
    <glyph glyph-name="scaron" unicode="&#x161;" horiz-adv-x="487"
d="M240 -12q-72 0 -120.5 27.5t-83.5 73.5l57 46q30 -38 67 -58.5t86 -20.5q51 0 79.5 22t28.5 62q0 30 -19.5 51.5t-70.5 29.5l-41 6q-36 5 -66 15.5t-52.5 28t-35 43.5t-12.5 62q0 38 14 66.5t38.5 47.5t58.5 28.5t73 9.5q63 0 105.5 -22t74.5 -61l-53 -48
q-17 24 -50 43.5t-83 19.5t-75.5 -21.5t-25.5 -58.5q0 -38 25.5 -55t73.5 -25l40 -6q86 -13 122 -49.5t36 -95.5q0 -75 -51 -118t-140 -43zM189 599l-111 143l44 31l117 -117l117 117l44 -31l-111 -143h-100z" />
    <glyph glyph-name="uni0162" unicode="&#x162;" horiz-adv-x="572"
d="M298 -207q-41 0 -64.5 13.5t-34.5 27.5l38 41q9 -11 24 -19.5t37 -8.5q19 0 31.5 7.5t12.5 23.5q0 14 -13 24.5t-55 16.5l-28 4l15 77h-17v624h-222v74h528v-74h-222v-624h-17l-12 -61l3 -3q19 6 39 6q29 0 48.5 -17t19.5 -49q0 -21 -9 -37t-24.5 -26t-35.5 -15t-42 -5z
" />
    <glyph glyph-name="uni0163" unicode="&#x163;" horiz-adv-x="351"
d="M225 -207q-41 0 -64.5 13.5t-34.5 27.5l38 41q9 -11 24 -19.5t37 -8.5q19 0 31.5 7.5t12.5 23.5q0 14 -13 24.5t-55 16.5l-28 4l15 77q-36 4 -55 27t-19 58v361h-85v70h48q26 0 35.5 10.5t9.5 36.5v96h72v-143h113v-70h-113v-376h105v-70h-61l-12 -61l3 -3q19 6 39 6
q29 0 48.5 -17t19.5 -49q0 -21 -9 -37t-24.5 -26t-35.5 -15t-42 -5z" />
    <glyph glyph-name="Tcaron" unicode="&#x164;" horiz-adv-x="572"
d="M328 624v-624h-84v624h-222v74h528v-74h-222zM237 769l-111 143l44 31l117 -117l117 117l44 -31l-111 -143h-100z" />
    <glyph glyph-name="tcaron" unicode="&#x165;" horiz-adv-x="351"
d="M199 0q-42 0 -63.5 23.5t-21.5 61.5v361h-85v70h48q26 0 35.5 10.5t9.5 36.5v96h72v-143h113v-70h-113v-376h105v-70h-100zM317 566h-53l12 185h93z" />
    <glyph glyph-name="Tbar" unicode="&#x166;" horiz-adv-x="582"
d="M333 338v-338h-84v338h-165v64h165v222h-222v74h528v-74h-222v-222h164v-64h-164z" />
    <glyph glyph-name="tbar" unicode="&#x167;" horiz-adv-x="357"
d="M302 0h-100q-42 0 -63.5 23t-21.5 61v164h-64v62h64v136h-85v70h48q26 0 35.5 10.5t9.5 36.5v96h72v-143h113v-70h-113v-136h91v-62h-91v-178h105v-70z" />
    <glyph glyph-name="Utilde" unicode="&#x168;" horiz-adv-x="678"
d="M172 698v-432q0 -100 37 -151.5t130 -51.5t130 51.5t37 151.5v432h84v-412q0 -76 -13.5 -132t-43.5 -93t-78.5 -55t-118.5 -18t-117.5 18t-76.5 55t-41.5 93t-12.5 132v412h84zM410 782q-26 0 -45 9t-35 17q-24 13 -40.5 18.5t-29.5 5.5q-17 0 -30 -7t-28 -20l-33 40
q14 20 37 36.5t58 16.5q26 0 45 -9t35 -17q24 -13 40.5 -18.5t29.5 -5.5q17 0 30 7t28 20l33 -40q-14 -20 -37 -36.5t-58 -16.5z" />
    <glyph glyph-name="utilde" unicode="&#x169;" horiz-adv-x="568"
d="M403 84h-4q-8 -18 -19.5 -35.5t-28.5 -31t-41 -21.5t-56 -8q-80 0 -127 51.5t-47 145.5v331h80v-317q0 -139 118 -139q24 0 46.5 6t40 18t28 30.5t10.5 44.5v357h80v-516h-80v84zM356 612q-26 0 -45 9t-35 17q-24 13 -40.5 18.5t-29.5 5.5q-17 0 -30 -7t-28 -20l-33 40
q14 20 37 36.5t58 16.5q26 0 45 -9t35 -17q24 -13 40.5 -18.5t29.5 -5.5q17 0 30 7t28 20l33 -40q-14 -20 -37 -36.5t-58 -16.5z" />
    <glyph glyph-name="Umacron" unicode="&#x16a;" horiz-adv-x="678"
d="M172 698v-432q0 -100 37 -151.5t130 -51.5t130 51.5t37 151.5v432h84v-412q0 -76 -13.5 -132t-43.5 -93t-78.5 -55t-118.5 -18t-117.5 18t-76.5 55t-41.5 93t-12.5 132v412h84zM197 875h280v-68h-280v68z" />
    <glyph glyph-name="umacron" unicode="&#x16b;" horiz-adv-x="568"
d="M403 84h-4q-8 -18 -19.5 -35.5t-28.5 -31t-41 -21.5t-56 -8q-80 0 -127 51.5t-47 145.5v331h80v-317q0 -139 118 -139q24 0 46.5 6t40 18t28 30.5t10.5 44.5v357h80v-516h-80v84zM143 705h280v-68h-280v68z" />
    <glyph glyph-name="Ubreve" unicode="&#x16c;" horiz-adv-x="678"
d="M172 698v-432q0 -100 37 -151.5t130 -51.5t130 51.5t37 151.5v432h84v-412q0 -76 -13.5 -132t-43.5 -93t-78.5 -55t-118.5 -18t-117.5 18t-76.5 55t-41.5 93t-12.5 132v412h84zM337 766q-40 0 -66.5 12t-43 30t-26 40t-16.5 43l45 22l21 -33q13 -22 30.5 -36.5
t55.5 -14.5q19 0 32.5 4t23 10.5t16.5 16t14 20.5l21 33l45 -22q-7 -21 -16.5 -43t-26 -40t-43 -30t-66.5 -12z" />
    <glyph glyph-name="ubreve" unicode="&#x16d;" horiz-adv-x="568"
d="M403 84h-4q-8 -18 -19.5 -35.5t-28.5 -31t-41 -21.5t-56 -8q-80 0 -127 51.5t-47 145.5v331h80v-317q0 -139 118 -139q24 0 46.5 6t40 18t28 30.5t10.5 44.5v357h80v-516h-80v84zM283 596q-40 0 -66.5 12t-43 30t-26 40t-16.5 43l45 22l21 -33q13 -22 30.5 -36.5
t55.5 -14.5q19 0 32.5 4t23 10.5t16.5 16t14 20.5l21 33l45 -22q-7 -21 -16.5 -43t-26 -40t-43 -30t-66.5 -12z" />
    <glyph glyph-name="Uring" unicode="&#x16e;" horiz-adv-x="678"
d="M172 698v-432q0 -100 37 -151.5t130 -51.5t130 51.5t37 151.5v432h84v-412q0 -76 -13.5 -132t-43.5 -93t-78.5 -55t-118.5 -18t-117.5 18t-76.5 55t-41.5 93t-12.5 132v412h84zM337 746q-24 0 -45.5 8.5t-37 24t-24.5 36.5t-9 46t9 46t24.5 36.5t37 24t45.5 8.5
t45.5 -8.5t37 -24t24.5 -36.5t9 -46t-9 -46t-24.5 -36.5t-37 -24t-45.5 -8.5zM337 795q27 0 42.5 14.5t15.5 40.5v22q0 26 -15.5 40.5t-42.5 14.5t-42.5 -14.5t-15.5 -40.5v-22q0 -26 15.5 -40.5t42.5 -14.5z" />
    <glyph glyph-name="uring" unicode="&#x16f;" horiz-adv-x="568"
d="M403 84h-4q-8 -18 -19.5 -35.5t-28.5 -31t-41 -21.5t-56 -8q-80 0 -127 51.5t-47 145.5v331h80v-317q0 -139 118 -139q24 0 46.5 6t40 18t28 30.5t10.5 44.5v357h80v-516h-80v84zM283 576q-24 0 -45.5 8.5t-37 24t-24.5 36.5t-9 46t9 46t24.5 36.5t37 24t45.5 8.5
t45.5 -8.5t37 -24t24.5 -36.5t9 -46t-9 -46t-24.5 -36.5t-37 -24t-45.5 -8.5zM283 625q27 0 42.5 14.5t15.5 40.5v22q0 26 -15.5 40.5t-42.5 14.5t-42.5 -14.5t-15.5 -40.5v-22q0 -26 15.5 -40.5t42.5 -14.5z" />
    <glyph glyph-name="Uhungarumlaut" unicode="&#x170;" horiz-adv-x="678"
d="M172 698v-432q0 -100 37 -151.5t130 -51.5t130 51.5t37 151.5v432h84v-412q0 -76 -13.5 -132t-43.5 -93t-78.5 -55t-118.5 -18t-117.5 18t-76.5 55t-41.5 93t-12.5 132v412h84zM264 756l-48 22l85 170l69 -33zM424 756l-48 22l85 170l69 -33z" />
    <glyph glyph-name="uhungarumlaut" unicode="&#x171;" horiz-adv-x="568"
d="M403 84h-4q-8 -18 -19.5 -35.5t-28.5 -31t-41 -21.5t-56 -8q-80 0 -127 51.5t-47 145.5v331h80v-317q0 -139 118 -139q24 0 46.5 6t40 18t28 30.5t10.5 44.5v357h80v-516h-80v84zM210 586l-48 22l85 170l69 -33zM370 586l-48 22l85 170l69 -33z" />
    <glyph glyph-name="Uogonek" unicode="&#x172;" horiz-adv-x="678"
d="M172 698v-432q0 -100 37 -151.5t130 -51.5t130 51.5t37 151.5v432h84v-412q0 -50 -5 -90t-18 -75t-35.5 -67t-56.5 -66q-25 -24 -41.5 -41t-26.5 -29t-14 -21.5t-4 -19.5q0 -17 8.5 -23.5t22.5 -6.5q29 0 48 24l40 -39q-9 -16 -31 -27.5t-57 -11.5q-38 0 -66.5 18
t-28.5 56q0 21 9 38t24.5 32.5t37 30.5t45.5 32l-4 5q-23 -10 -48.5 -13.5t-52.5 -3.5q-70 0 -117.5 18t-76.5 55t-41.5 93t-12.5 132v412h84z" />
    <glyph glyph-name="uogonek" unicode="&#x173;" horiz-adv-x="568"
d="M483 0q-32 -29 -51 -49t-29.5 -33.5t-14 -23t-3.5 -17.5q0 -17 8.5 -23.5t22.5 -6.5q29 0 48 24l40 -39q-9 -16 -31 -27.5t-57 -11.5q-39 0 -67 18t-28 58q0 38 29.5 68.5t71.5 59.5l-1 3h-18v84h-4q-8 -18 -19.5 -35.5t-28.5 -31t-41 -21.5t-56 -8q-80 0 -127 51.5
t-47 145.5v331h80v-317q0 -139 118 -139q24 0 46.5 6t40 18t28 30.5t10.5 44.5v357h80v-516z" />
    <glyph glyph-name="Wcircumflex" unicode="&#x174;" horiz-adv-x="891"
d="M190 0l-170 698h89l75 -336l58 -261h2l65 261l88 336h96l85 -336l65 -260h3l60 260l79 336h86l-179 -698h-93l-91 348l-64 256h-2l-66 -256l-93 -348h-93zM496 935l111 -143l-44 -31l-117 117l-117 -117l-44 31l111 143h100z" />
    <glyph glyph-name="wcircumflex" unicode="&#x175;" horiz-adv-x="768"
d="M31 516h78l55 -223l55 -226h2l63 226l65 223h71l67 -223l64 -226h2l53 226l56 223h75l-137 -516h-99l-72 248l-45 157h-2l-44 -157l-72 -248h-97zM434 765l111 -143l-44 -31l-117 117l-117 -117l-44 31l111 143h100z" />
    <glyph glyph-name="Ycircumflex" unicode="&#x176;" horiz-adv-x="593"
d="M253 0v276l-240 422h96l186 -336h3l186 336h96l-243 -419v-279h-84zM348 935l111 -143l-44 -31l-117 117l-117 -117l-44 31l111 143h100z" />
    <glyph glyph-name="ycircumflex" unicode="&#x177;" horiz-adv-x="499"
d="M403 516h79l-231 -636q-9 -23 -18 -38.5t-22 -24.5t-32.5 -13t-47.5 -4h-41v70h81l39 110l-193 536h80l124 -351l24 -84h5l28 84zM301 765l111 -143l-44 -31l-117 117l-117 -117l-44 31l111 143h100z" />
    <glyph glyph-name="Ydieresis" unicode="&#x178;" horiz-adv-x="593"
d="M253 0v276l-240 422h96l186 -336h3l186 336h96l-243 -419v-279h-84zM205 788q-26 0 -38 13t-12 34v12q0 21 12 34t38 13t38 -13t12 -34v-12q0 -21 -12 -34t-38 -13zM391 788q-26 0 -38 13t-12 34v12q0 21 12 34t38 13t38 -13t12 -34v-12q0 -21 -12 -34t-38 -13z" />
    <glyph glyph-name="Zacute" unicode="&#x179;" horiz-adv-x="580"
d="M544 0h-508v76l403 548h-382v74h473v-76l-404 -548h418v-74zM305 755l-52 24l85 170l73 -35z" />
    <glyph glyph-name="zacute" unicode="&#x17a;" horiz-adv-x="464"
d="M33 0v67l293 379h-284v70h381v-60l-299 -386h307v-70h-398zM240 585l-52 24l85 170l73 -35z" />
    <glyph glyph-name="Zdotaccent" unicode="&#x17b;" horiz-adv-x="580"
d="M544 0h-508v76l403 548h-382v74h473v-76l-404 -548h418v-74zM298 780q-29 0 -42.5 14.5t-13.5 38.5v14q0 24 13.5 38.5t42.5 14.5t42.5 -14.5t13.5 -38.5v-14q0 -24 -13.5 -38.5t-42.5 -14.5z" />
    <glyph glyph-name="zdotaccent" unicode="&#x17c;" horiz-adv-x="464"
d="M33 0v67l293 379h-284v70h381v-60l-299 -386h307v-70h-398zM233 616q-26 0 -38.5 12.5t-12.5 33.5v11q0 21 12.5 33.5t38.5 12.5t38.5 -12.5t12.5 -33.5v-11q0 -21 -12.5 -33.5t-38.5 -12.5z" />
    <glyph glyph-name="Zcaron" unicode="&#x17d;" horiz-adv-x="580"
d="M544 0h-508v76l403 548h-382v74h473v-76l-404 -548h418v-74zM248 769l-111 143l44 31l117 -117l117 117l44 -31l-111 -143h-100z" />
    <glyph glyph-name="zcaron" unicode="&#x17e;" horiz-adv-x="464"
d="M33 0v67l293 379h-284v70h381v-60l-299 -386h307v-70h-398zM183 599l-111 143l44 31l117 -117l117 117l44 -31l-111 -143h-100z" />
    <glyph glyph-name="uni017F" unicode="&#x17f;" horiz-adv-x="278"
d="M113 446h-84v70h84v104q0 54 28 87t85 33h78v-70h-111v-670h-80v446z" />
    <glyph glyph-name="uni018F" unicode="&#x18f;" horiz-adv-x="708"
d="M58 371h503v30q0 55 -14.5 98.5t-41 73.5t-63.5 46t-83 16q-68 0 -121 -37t-79 -100l-70 34q15 38 41 70.5t61 56.5t77.5 37.5t91.5 13.5q70 0 124 -25t91 -71.5t56 -113.5t19 -151q0 -85 -20.5 -152t-59 -113.5t-93.5 -71t-124 -24.5q-138 0 -216.5 90.5t-78.5 270.5v22
zM353 63q43 0 81 16.5t66.5 47.5t44.5 74t16 96v5h-416v-5q0 -53 16 -96t44.5 -74t66 -47.5t81.5 -16.5z" />
    <glyph glyph-name="florin" unicode="&#x192;" horiz-adv-x="485"
d="M4 -64h145l37 365h-143l8 73h142l21 206q5 53 36.5 85.5t89.5 32.5h121l-8 -70h-153l-26 -254h169l-7 -73h-169l-32 -317q-5 -52 -36 -85t-90 -33h-112z" />
    <glyph glyph-name="Ohorn" unicode="&#x1a0;" horiz-adv-x="708"
d="M656 810v-100q0 -27 -12.5 -45t-50.5 -18h-53q60 -53 85 -128t25 -170q0 -88 -21 -155.5t-59.5 -113t-93.5 -69t-122 -23.5q-68 0 -122.5 23.5t-93 69t-59.5 113t-21 155.5t21 155t59.5 113t93 69.5t122.5 23.5q48 0 90 -12h141v112h71zM354 63q45 0 83 16t65.5 46
t42.5 72t15 94v116q0 52 -15 94t-42.5 72t-65.5 46t-83 16t-83 -16t-65.5 -46t-42.5 -72t-15 -94v-116q0 -52 15 -94t42.5 -72t65.5 -46t83 -16z" />
    <glyph glyph-name="ohorn" unicode="&#x1a1;" horiz-adv-x="560"
d="M519 628v-98q0 -27 -12.5 -45t-49.5 -18h-21q44 -45 60.5 -97t16.5 -112q0 -62 -17 -111.5t-48 -85t-73.5 -54.5t-94.5 -19t-95 19t-73.5 54.5t-47.5 85t-17 111.5q0 61 17 111t47.5 85.5t73.5 54.5t95 19q41 0 76 -12h92v112h71zM280 59q65 0 106 40t41 122v74
q0 82 -41 122t-106 40t-106 -40t-41 -122v-74q0 -82 41 -122t106 -40z" />
    <glyph glyph-name="Uhorn" unicode="&#x1af;" horiz-adv-x="678"
d="M172 698v-432q0 -100 37 -151.5t130 -51.5t130 51.5t37 151.5v432h91v112h71v-102q0 -26 -12.5 -44.5t-50.5 -18.5h-15v-359q0 -76 -13.5 -132t-43.5 -93t-78.5 -55t-118.5 -18t-117.5 18t-76.5 55t-41.5 93t-12.5 132v412h84z" />
    <glyph glyph-name="uhorn" unicode="&#x1b0;" horiz-adv-x="568"
d="M566 526q0 -26 -12.5 -44.5t-50.5 -18.5h-20v-463h-80v84h-4q-8 -18 -19.5 -35.5t-28.5 -31t-41 -21.5t-56 -8q-80 0 -127 51.5t-47 145.5v331h80v-317q0 -139 118 -139q24 0 46.5 6t40 18t28 30.5t10.5 44.5v357h92v112h71v-102z" />
    <glyph glyph-name="uni01CD" unicode="&#x1cd;" horiz-adv-x="641"
d="M530 0l-70 206h-282l-70 -206h-85l244 698h107l244 -698h-88zM321 620h-5l-118 -340h241zM272 769l-111 143l44 31l117 -117l117 117l44 -31l-111 -143h-100z" />
    <glyph glyph-name="uni01CE" unicode="&#x1ce;" horiz-adv-x="534"
d="M460 0q-45 0 -64.5 24t-24.5 60h-5q-17 -48 -56 -72t-93 -24q-82 0 -127.5 42t-45.5 114q0 73 53.5 112t166.5 39h102v51q0 55 -30 84t-92 29q-47 0 -78.5 -21t-52.5 -56l-48 45q21 42 67 71.5t116 29.5q94 0 146 -46t52 -128v-284h59v-70h-45zM230 56q30 0 55 7t43 20
t28 30t10 37v85h-106q-69 0 -100.5 -20t-31.5 -58v-21q0 -38 27.5 -59t74.5 -21zM203 599l-111 143l44 31l117 -117l117 117l44 -31l-111 -143h-100z" />
    <glyph glyph-name="uni01CF" unicode="&#x1cf;" horiz-adv-x="400"
d="M60 0v70h98v558h-98v70h280v-70h-98v-558h98v-70h-280zM151 769l-111 143l44 31l117 -117l117 117l44 -31l-111 -143h-100z" />
    <glyph glyph-name="uni01D0" unicode="&#x1d0;" horiz-adv-x="250"
d="M85 0v516h80v-516h-80zM76 599l-111 143l44 31l117 -117l117 117l44 -31l-111 -143h-100z" />
    <glyph glyph-name="uni01D1" unicode="&#x1d1;" horiz-adv-x="708"
d="M354 -12q-68 0 -122.5 23.5t-93 69t-59.5 113t-21 155.5t21 155t59.5 113t93 69.5t122.5 23.5q67 0 122 -23.5t93.5 -69.5t59.5 -113t21 -155t-21 -155.5t-59.5 -113t-93.5 -69t-122 -23.5zM354 63q45 0 83 16t65.5 46t42.5 72t15 94v116q0 52 -15 94t-42.5 72t-65.5 46
t-83 16t-83 -16t-65.5 -46t-42.5 -72t-15 -94v-116q0 -52 15 -94t42.5 -72t65.5 -46t83 -16zM304 769l-111 143l44 31l117 -117l117 117l44 -31l-111 -143h-100z" />
    <glyph glyph-name="uni01D2" unicode="&#x1d2;" horiz-adv-x="560"
d="M280 -12q-52 0 -95 19t-73.5 54.5t-47.5 85t-17 111.5q0 61 17 111t47.5 85.5t73.5 54.5t95 19t94.5 -19t73.5 -54.5t48 -85.5t17 -111q0 -62 -17 -111.5t-48 -85t-73.5 -54.5t-94.5 -19zM280 59q65 0 106 40t41 122v74q0 82 -41 122t-106 40t-106 -40t-41 -122v-74
q0 -82 41 -122t106 -40zM231 599l-111 143l44 31l117 -117l117 117l44 -31l-111 -143h-100z" />
    <glyph glyph-name="uni01D3" unicode="&#x1d3;" horiz-adv-x="678"
d="M172 698v-432q0 -100 37 -151.5t130 -51.5t130 51.5t37 151.5v432h84v-412q0 -76 -13.5 -132t-43.5 -93t-78.5 -55t-118.5 -18t-117.5 18t-76.5 55t-41.5 93t-12.5 132v412h84zM287 769l-111 143l44 31l117 -117l117 117l44 -31l-111 -143h-100z" />
    <glyph glyph-name="uni01D4" unicode="&#x1d4;" horiz-adv-x="568"
d="M403 84h-4q-8 -18 -19.5 -35.5t-28.5 -31t-41 -21.5t-56 -8q-80 0 -127 51.5t-47 145.5v331h80v-317q0 -139 118 -139q24 0 46.5 6t40 18t28 30.5t10.5 44.5v357h80v-516h-80v84zM233 599l-111 143l44 31l117 -117l117 117l44 -31l-111 -143h-100z" />
    <glyph glyph-name="uni01D5" unicode="&#x1d5;" horiz-adv-x="678"
d="M172 698v-432q0 -100 37 -151.5t130 -51.5t130 51.5t37 151.5v432h84v-412q0 -76 -13.5 -132t-43.5 -93t-78.5 -55t-118.5 -18t-117.5 18t-76.5 55t-41.5 93t-12.5 132v412h84zM197 987h280v-68h-280v68zM238 767q-26 0 -38 13t-12 34v12q0 21 12 34t38 13t38 -13t12 -34
v-12q0 -21 -12 -34t-38 -13zM436 767q-26 0 -38 13t-12 34v12q0 21 12 34t38 13t38 -13t12 -34v-12q0 -21 -12 -34t-38 -13z" />
    <glyph glyph-name="uni01D6" unicode="&#x1d6;" horiz-adv-x="568"
d="M403 84h-4q-8 -18 -19.5 -35.5t-28.5 -31t-41 -21.5t-56 -8q-80 0 -127 51.5t-47 145.5v331h80v-317q0 -139 118 -139q24 0 46.5 6t40 18t28 30.5t10.5 44.5v357h80v-516h-80v84zM142 817h280v-68h-280v68zM183 597q-26 0 -37.5 12.5t-11.5 33.5v11q0 21 11.5 33.5
t37.5 12.5t37.5 -12.5t11.5 -33.5v-11q0 -21 -11.5 -33.5t-37.5 -12.5zM381 597q-26 0 -37.5 12.5t-11.5 33.5v11q0 21 11.5 33.5t37.5 12.5t37.5 -12.5t11.5 -33.5v-11q0 -21 -11.5 -33.5t-37.5 -12.5z" />
    <glyph glyph-name="uni01D7" unicode="&#x1d7;" horiz-adv-x="678"
d="M172 698v-432q0 -100 37 -151.5t130 -51.5t130 51.5t37 151.5v432h84v-412q0 -76 -13.5 -132t-43.5 -93t-78.5 -55t-118.5 -18t-117.5 18t-76.5 55t-41.5 93t-12.5 132v412h84zM349 868l-49 23l85 170l70 -34zM238 767q-26 0 -38 13t-12 34v12q0 21 12 34t38 13t38 -13
t12 -34v-12q0 -21 -12 -34t-38 -13zM436 767q-26 0 -38 13t-12 34v12q0 21 12 34t38 13t38 -13t12 -34v-12q0 -21 -12 -34t-38 -13z" />
    <glyph glyph-name="uni01D8" unicode="&#x1d8;" horiz-adv-x="568"
d="M403 84h-4q-8 -18 -19.5 -35.5t-28.5 -31t-41 -21.5t-56 -8q-80 0 -127 51.5t-47 145.5v331h80v-317q0 -139 118 -139q24 0 46.5 6t40 18t28 30.5t10.5 44.5v357h80v-516h-80v84zM294 698l-49 23l85 170l70 -34zM183 597q-26 0 -37.5 12.5t-11.5 33.5v11q0 21 11.5 33.5
t37.5 12.5t37.5 -12.5t11.5 -33.5v-11q0 -21 -11.5 -33.5t-37.5 -12.5zM381 597q-26 0 -37.5 12.5t-11.5 33.5v11q0 21 11.5 33.5t37.5 12.5t37.5 -12.5t11.5 -33.5v-11q0 -21 -11.5 -33.5t-37.5 -12.5z" />
    <glyph glyph-name="uni01D9" unicode="&#x1d9;" horiz-adv-x="678"
d="M172 698v-432q0 -100 37 -151.5t130 -51.5t130 51.5t37 151.5v432h84v-412q0 -76 -13.5 -132t-43.5 -93t-78.5 -55t-118.5 -18t-117.5 18t-76.5 55t-41.5 93t-12.5 132v412h84zM287 895l-110 134l41 30l119 -112l119 112l41 -30l-110 -134h-100zM238 767q-26 0 -38 13
t-12 34v12q0 21 12 34t38 13t38 -13t12 -34v-12q0 -21 -12 -34t-38 -13zM436 767q-26 0 -38 13t-12 34v12q0 21 12 34t38 13t38 -13t12 -34v-12q0 -21 -12 -34t-38 -13z" />
    <glyph glyph-name="uni01DA" unicode="&#x1da;" horiz-adv-x="568"
d="M403 84h-4q-8 -18 -19.5 -35.5t-28.5 -31t-41 -21.5t-56 -8q-80 0 -127 51.5t-47 145.5v331h80v-317q0 -139 118 -139q24 0 46.5 6t40 18t28 30.5t10.5 44.5v357h80v-516h-80v84zM232 725l-110 134l41 30l119 -112l119 112l41 -30l-110 -134h-100zM183 597
q-26 0 -37.5 12.5t-11.5 33.5v11q0 21 11.5 33.5t37.5 12.5t37.5 -12.5t11.5 -33.5v-11q0 -21 -11.5 -33.5t-37.5 -12.5zM381 597q-26 0 -37.5 12.5t-11.5 33.5v11q0 21 11.5 33.5t37.5 12.5t37.5 -12.5t11.5 -33.5v-11q0 -21 -11.5 -33.5t-37.5 -12.5z" />
    <glyph glyph-name="uni01DB" unicode="&#x1db;" horiz-adv-x="678"
d="M172 698v-432q0 -100 37 -151.5t130 -51.5t130 51.5t37 151.5v432h84v-412q0 -76 -13.5 -132t-43.5 -93t-78.5 -55t-118.5 -18t-117.5 18t-76.5 55t-41.5 93t-12.5 132v412h84zM219 1027l70 34l85 -170l-49 -23zM238 767q-26 0 -38 13t-12 34v12q0 21 12 34t38 13t38 -13
t12 -34v-12q0 -21 -12 -34t-38 -13zM436 767q-26 0 -38 13t-12 34v12q0 21 12 34t38 13t38 -13t12 -34v-12q0 -21 -12 -34t-38 -13z" />
    <glyph glyph-name="uni01DC" unicode="&#x1dc;" horiz-adv-x="568"
d="M403 84h-4q-8 -18 -19.5 -35.5t-28.5 -31t-41 -21.5t-56 -8q-80 0 -127 51.5t-47 145.5v331h80v-317q0 -139 118 -139q24 0 46.5 6t40 18t28 30.5t10.5 44.5v357h80v-516h-80v84zM164 857l70 34l85 -170l-49 -23zM183 597q-26 0 -37.5 12.5t-11.5 33.5v11q0 21 11.5 33.5
t37.5 12.5t37.5 -12.5t11.5 -33.5v-11q0 -21 -11.5 -33.5t-37.5 -12.5zM381 597q-26 0 -37.5 12.5t-11.5 33.5v11q0 21 11.5 33.5t37.5 12.5t37.5 -12.5t11.5 -33.5v-11q0 -21 -11.5 -33.5t-37.5 -12.5z" />
    <glyph glyph-name="Aringacute" unicode="&#x1fa;" horiz-adv-x="641"
d="M530 0l-70 206h-282l-70 -206h-85l244 698h107l244 -698h-88zM321 620h-5l-118 -340h241zM336 987l-47 19l73 113l70 -25zM322 736q-24 0 -45.5 8.5t-37 24t-24.5 36.5t-9 46t9 46t24.5 36.5t37 24t45.5 8.5t45.5 -8.5t37 -24t24.5 -36.5t9 -46t-9 -46t-24.5 -36.5
t-37 -24t-45.5 -8.5zM322 785q27 0 42.5 14.5t15.5 40.5v22q0 26 -15.5 40.5t-42.5 14.5t-42.5 -14.5t-15.5 -40.5v-22q0 -26 15.5 -40.5t42.5 -14.5z" />
    <glyph glyph-name="aringacute" unicode="&#x1fb;" horiz-adv-x="534"
d="M460 0q-45 0 -64.5 24t-24.5 60h-5q-17 -48 -56 -72t-93 -24q-82 0 -127.5 42t-45.5 114q0 73 53.5 112t166.5 39h102v51q0 55 -30 84t-92 29q-47 0 -78.5 -21t-52.5 -56l-48 45q21 42 67 71.5t116 29.5q94 0 146 -46t52 -128v-284h59v-70h-45zM230 56q30 0 55 7t43 20
t28 30t10 37v85h-106q-69 0 -100.5 -20t-31.5 -58v-21q0 -38 27.5 -59t74.5 -21zM264 814l-41 26l75 116l60 -37zM253 566q-24 0 -45.5 8.5t-37 24t-24.5 36.5t-9 46t9 46t24.5 36.5t37 24t45.5 8.5t45.5 -8.5t37 -24t24.5 -36.5t9 -46t-9 -46t-24.5 -36.5t-37 -24
t-45.5 -8.5zM253 615q27 0 42.5 14.5t15.5 40.5v22q0 26 -15.5 40.5t-42.5 14.5t-42.5 -14.5t-15.5 -40.5v-22q0 -26 15.5 -40.5t42.5 -14.5z" />
    <glyph glyph-name="AEacute" unicode="&#x1fc;" horiz-adv-x="907"
d="M417 205h-225l-102 -205h-86l357 698h482v-74h-343v-234h323v-74h-323v-242h343v-74h-426v205zM404 624l-177 -345h190v345h-13zM598 755l-52 24l85 170l73 -35z" />
    <glyph glyph-name="aeacute" unicode="&#x1fd;" horiz-adv-x="864"
d="M260 238q-69 -2 -100.5 -22.5t-31.5 -58.5v-21q0 -38 27.5 -59t75.5 -21q29 0 53.5 7t42.5 20t28.5 30t10.5 37v88h-106zM731 298v11q0 69 -37.5 110.5t-99.5 41.5q-33 0 -60 -11.5t-46.5 -32.5t-30.5 -49.5t-11 -62.5v-7h285zM599 58q99 0 142 88l57 -40
q-25 -54 -76.5 -86t-118.5 -32q-41 0 -74.5 11.5t-58 29t-39.5 38t-19 37.5h-6q-3 -17 -17.5 -37t-38.5 -37.5t-58 -29.5t-77 -12q-78 0 -124.5 41.5t-46.5 112.5q0 75 55 115.5t165 40.5h102v48q0 55 -30 84t-89 29q-50 0 -81 -20t-53 -56l-48 44q20 41 66.5 71t117.5 30
q44 0 73.5 -12.5t48 -30t27.5 -37.5t13 -35h6q4 17 19 37t39 37.5t56.5 29t71.5 11.5q49 0 88.5 -19t67.5 -52.5t43 -79.5t15 -101v-38h-371v-24q0 -33 10.5 -61.5t30 -49.5t48 -33t64.5 -12zM421 585l-52 24l85 170l73 -35z" />
    <glyph glyph-name="Oslashacute" unicode="&#x1fe;" horiz-adv-x="708"
d="M354 -12q-102 0 -173 53l-60 -86l-57 37l68 97q-36 46 -55 110.5t-19 149.5q0 88 21 155t59.5 113t93 69.5t122.5 23.5q102 0 173 -53l60 86l57 -37l-68 -97q36 -46 55 -110.5t19 -149.5q0 -88 -21 -155.5t-59.5 -113t-93.5 -69t-122 -23.5zM148 291q0 -38 8.5 -71
t23.5 -60l302 432q-52 43 -128 43q-45 0 -83 -16t-65.5 -46t-42.5 -72t-15 -94v-116zM560 407q0 38 -8.5 71t-23.5 60l-302 -432q52 -43 128 -43q45 0 83 16t65.5 46t42.5 72t15 94v116zM361 755l-52 24l85 170l73 -35z" />
    <glyph glyph-name="oslashacute" unicode="&#x1ff;" horiz-adv-x="568"
d="M35 -6l67 84q-51 71 -51 180q0 61 17 111t47.5 85.5t73.5 54.5t95 19q42 0 77.5 -13t64.5 -36l62 77l45 -34l-67 -85q24 -34 37.5 -79.5t13.5 -99.5q0 -62 -17 -111.5t-48 -85t-73.5 -54.5t-94.5 -19q-83 0 -142 48l-62 -76zM284 59q65 0 106 40t41 122v74q0 24 -4 44
t-11 37l-230 -284q37 -33 98 -33zM137 221q0 -48 15 -82l230 285q-39 33 -98 33q-65 0 -106 -40t-41 -122v-74zM292 585l-52 24l85 170l73 -35z" />
    <glyph glyph-name="Scommaaccent" unicode="&#x218;" horiz-adv-x="581"
d="M289 -12q-85 0 -145 32.5t-102 89.5l62 52q37 -49 82 -74.5t106 -25.5q75 0 114.5 36t39.5 96q0 50 -30 77t-99 43l-57 13q-96 22 -146.5 66.5t-50.5 125.5q0 46 17 82t47.5 60t73 36.5t93.5 12.5q79 0 135.5 -29t95.5 -85l-63 -46q-29 40 -70 63t-102 23
q-67 0 -105.5 -28.5t-38.5 -85.5q0 -50 32.5 -75.5t98.5 -40.5l57 -13q103 -23 149 -70t46 -125q0 -48 -16.5 -87t-47.5 -66t-75.5 -42t-100.5 -15zM287 -66q25 0 38 -12.5t13 -34.5v-11q0 -35 -18 -66.5t-42 -54.5h-58q20 21 32 38t19 40q-17 4 -26 15.5t-9 28.5v10
q0 22 13 34.5t38 12.5z" />
    <glyph glyph-name="scommaaccent" unicode="&#x219;" horiz-adv-x="487"
d="M240 -12q-72 0 -120.5 27.5t-83.5 73.5l57 46q30 -38 67 -58.5t86 -20.5q51 0 79.5 22t28.5 62q0 30 -19.5 51.5t-70.5 29.5l-41 6q-36 5 -66 15.5t-52.5 28t-35 43.5t-12.5 62q0 38 14 66.5t38.5 47.5t58.5 28.5t73 9.5q63 0 105.5 -22t74.5 -61l-53 -48
q-17 24 -50 43.5t-83 19.5t-75.5 -21.5t-25.5 -58.5q0 -38 25.5 -55t73.5 -25l40 -6q86 -13 122 -49.5t36 -95.5q0 -75 -51 -118t-140 -43zM240 -66q25 0 38 -12.5t13 -34.5v-11q0 -35 -18 -66.5t-42 -54.5h-58q20 21 32 38t19 40q-17 4 -26 15.5t-9 28.5v10q0 22 13 34.5
t38 12.5z" />
    <glyph glyph-name="uni021A" unicode="&#x21a;" horiz-adv-x="572"
d="M328 624v-624h-84v624h-222v74h528v-74h-222zM286 -66q25 0 38 -12.5t13 -34.5v-11q0 -35 -18 -66.5t-42 -54.5h-58q20 21 32 38t19 40q-17 4 -26 15.5t-9 28.5v10q0 22 13 34.5t38 12.5z" />
    <glyph glyph-name="uni021B" unicode="&#x21b;" horiz-adv-x="351"
d="M199 0q-42 0 -63.5 23.5t-21.5 61.5v361h-85v70h48q26 0 35.5 10.5t9.5 36.5v96h72v-143h113v-70h-113v-376h105v-70h-100zM213 -66q25 0 38 -12.5t13 -34.5v-11q0 -35 -18 -66.5t-42 -54.5h-58q20 21 32 38t19 40q-17 4 -26 15.5t-9 28.5v10q0 22 13 34.5t38 12.5z" />
    <glyph glyph-name="uni0237" unicode="&#x237;" horiz-adv-x="250"
d="M1 -130h84v646h80v-596q0 -54 -27 -87t-85 -33h-52v70z" />
    <glyph glyph-name="uni0259" unicode="&#x259;" horiz-adv-x="549"
d="M418 278v24q0 33 -10.5 61.5t-30 49.5t-48 33t-64.5 12q-49 0 -85.5 -23t-56.5 -66l-57 41q25 53 78 85.5t126 32.5q52 0 95 -19t73.5 -54.5t47 -85.5t16.5 -111q0 -62 -16.5 -111.5t-47 -85t-73.5 -54.5t-95 -19t-93 19t-70 52.5t-44.5 79.5t-15.5 101v38h371zM133 207
q0 -69 37.5 -110.5t99.5 -41.5q33 0 60 11.5t46.5 32.5t30.5 49.5t11 62.5v7h-285v-11z" />
    <glyph glyph-name="uni02BB" unicode="&#x2bb;"
d="M301 595q-25 0 -38 12.5t-13 34.5v11q0 35 18 66.5t42 54.5h58q-20 -21 -32 -38t-19 -40q17 -4 26 -15.5t9 -28.5v-10q0 -22 -13 -34.5t-38 -12.5z" />
    <glyph glyph-name="uni02BC" unicode="&#x2bc;"
d="M353 555h-53l12 185h93z" />
    <glyph glyph-name="circumflex" unicode="&#x2c6;"
d="M350 765l111 -143l-44 -31l-117 117l-117 -117l-44 31l111 143h100z" />
    <glyph glyph-name="caron" unicode="&#x2c7;"
d="M250 599l-111 143l44 31l117 -117l117 117l44 -31l-111 -143h-100z" />
    <glyph glyph-name="breve" unicode="&#x2d8;"
d="M300 596q-40 0 -66.5 12t-43 30t-26 40t-16.5 43l45 22l21 -33q13 -22 30.5 -36.5t55.5 -14.5q19 0 32.5 4t23 10.5t16.5 16t14 20.5l21 33l45 -22q-7 -21 -16.5 -43t-26 -40t-43 -30t-66.5 -12z" />
    <glyph glyph-name="dotaccent" unicode="&#x2d9;"
d="M300 616q-26 0 -38.5 12.5t-12.5 33.5v11q0 21 12.5 33.5t38.5 12.5t38.5 -12.5t12.5 -33.5v-11q0 -21 -12.5 -33.5t-38.5 -12.5z" />
    <glyph glyph-name="ring" unicode="&#x2da;"
d="M300 576q-24 0 -45.5 8.5t-37 24t-24.5 36.5t-9 46t9 46t24.5 36.5t37 24t45.5 8.5t45.5 -8.5t37 -24t24.5 -36.5t9 -46t-9 -46t-24.5 -36.5t-37 -24t-45.5 -8.5zM300 625q27 0 42.5 14.5t15.5 40.5v22q0 26 -15.5 40.5t-42.5 14.5t-42.5 -14.5t-15.5 -40.5v-22
q0 -26 15.5 -40.5t42.5 -14.5z" />
    <glyph glyph-name="ogonek" unicode="&#x2db;"
d="M261 -207q-39 0 -67 18t-28 58t29 70.5t76 64.5l-5 18h54l8 -22q-32 -29 -51 -49t-29.5 -33.5t-14 -23t-3.5 -17.5q0 -17 8.5 -23.5t22.5 -6.5q29 0 48 24l40 -39q-9 -16 -31 -27.5t-57 -11.5z" />
    <glyph glyph-name="tilde" unicode="&#x2dc;"
d="M373 612q-26 0 -45 9t-35 17q-24 13 -40.5 18.5t-29.5 5.5q-17 0 -30 -7t-28 -20l-33 40q14 20 37 36.5t58 16.5q26 0 45 -9t35 -17q24 -13 40.5 -18.5t29.5 -5.5q17 0 30 7t28 20l33 -40q-14 -20 -37 -36.5t-58 -16.5z" />
    <glyph glyph-name="hungarumlaut" unicode="&#x2dd;"
d="M227 586l-48 22l85 170l69 -33zM387 586l-48 22l85 170l69 -33z" />
    <glyph glyph-name="uni0300" unicode="&#x300;" horiz-adv-x="0"
d="M-112 744l73 35l85 -170l-52 -24z" />
    <glyph glyph-name="uni0301" unicode="&#x301;" horiz-adv-x="0"
d="M8 585l-52 24l85 170l73 -35z" />
    <glyph glyph-name="uni0302" unicode="&#x302;" horiz-adv-x="0"
d="M51 765l111 -143l-44 -31l-117 117l-117 -117l-44 31l111 143h100z" />
    <glyph glyph-name="uni0303" unicode="&#x303;" horiz-adv-x="0"
d="M74 612q-26 0 -45 9t-35 17q-24 13 -40.5 18.5t-29.5 5.5q-17 0 -30 -7t-28 -20l-33 40q14 20 37 36.5t58 16.5q26 0 45 -9t35 -17q24 -13 40.5 -18.5t29.5 -5.5q17 0 30 7t28 20l33 -40q-14 -20 -37 -36.5t-58 -16.5z" />
    <glyph glyph-name="uni0304" unicode="&#x304;" horiz-adv-x="0"
d="M-139 705h280v-68h-280v68z" />
    <glyph glyph-name="uni0306" unicode="&#x306;" horiz-adv-x="0"
d="M1 596q-40 0 -66.5 12t-43 30t-26 40t-16.5 43l45 22l21 -33q13 -22 30.5 -36.5t55.5 -14.5q19 0 32.5 4t23 10.5t16.5 16t14 20.5l21 33l45 -22q-7 -21 -16.5 -43t-26 -40t-43 -30t-66.5 -12z" />
    <glyph glyph-name="uni0307" unicode="&#x307;" horiz-adv-x="0"
d="M1 616q-26 0 -38.5 12.5t-12.5 33.5v11q0 21 12.5 33.5t38.5 12.5t38.5 -12.5t12.5 -33.5v-11q0 -21 -12.5 -33.5t-38.5 -12.5z" />
    <glyph glyph-name="uni0308" unicode="&#x308;" horiz-adv-x="0"
d="M-92 618q-26 0 -37.5 12.5t-11.5 33.5v11q0 21 11.5 33.5t37.5 12.5t37.5 -12.5t11.5 -33.5v-11q0 -21 -11.5 -33.5t-37.5 -12.5zM94 618q-26 0 -37.5 12.5t-11.5 33.5v11q0 21 11.5 33.5t37.5 12.5t37.5 -12.5t11.5 -33.5v-11q0 -21 -11.5 -33.5t-37.5 -12.5z" />
    <glyph glyph-name="uni0309" unicode="&#x309;" horiz-adv-x="0"
d="M-84 765h109q38 0 54 -16t16 -39q0 -22 -13 -48t-36 -55l-24 -30l-46 23l58 104h-118v61z" />
    <glyph glyph-name="uni030A" unicode="&#x30a;" horiz-adv-x="0"
d="M1 576q-24 0 -45.5 8.5t-37 24t-24.5 36.5t-9 46t9 46t24.5 36.5t37 24t45.5 8.5t45.5 -8.5t37 -24t24.5 -36.5t9 -46t-9 -46t-24.5 -36.5t-37 -24t-45.5 -8.5zM1 625q27 0 42.5 14.5t15.5 40.5v22q0 26 -15.5 40.5t-42.5 14.5t-42.5 -14.5t-15.5 -40.5v-22
q0 -26 15.5 -40.5t42.5 -14.5z" />
    <glyph glyph-name="uni030B" unicode="&#x30b;" horiz-adv-x="0"
d="M-72 586l-48 22l85 170l69 -33zM88 586l-48 22l85 170l69 -33z" />
    <glyph glyph-name="uni030C" unicode="&#x30c;" horiz-adv-x="0"
d="M-49 599l-111 143l44 31l117 -117l117 117l44 -31l-111 -143h-100z" />
    <glyph glyph-name="uni0312" unicode="&#x312;" horiz-adv-x="0"
d="M2 595q-25 0 -38 12.5t-13 34.5v11q0 35 18 66.5t42 54.5h58q-20 -21 -32 -38t-19 -40q17 -4 26 -15.5t9 -28.5v-10q0 -22 -13 -34.5t-38 -12.5z" />
    <glyph glyph-name="uni0315" unicode="&#x315;" horiz-adv-x="0"
d="M54 555h-53l12 185h93z" />
    <glyph glyph-name="uni031B" unicode="&#x31b;" horiz-adv-x="0"
d="M77 526q0 -26 -12.5 -44.5t-50.5 -18.5h-91v53h83v112h71v-102z" />
    <glyph glyph-name="uni0323" unicode="&#x323;" horiz-adv-x="0"
d="M0 -169q-26 0 -38.5 12.5t-12.5 33.5v11q0 21 12.5 33.5t38.5 12.5t38.5 -12.5t12.5 -33.5v-11q0 -21 -12.5 -33.5t-38.5 -12.5z" />
    <glyph glyph-name="uni0326" unicode="&#x326;" horiz-adv-x="0"
d="M0 -66q25 0 38 -12.5t13 -34.5v-11q0 -35 -18 -66.5t-42 -54.5h-58q20 21 32 38t19 40q-17 4 -26 15.5t-9 28.5v10q0 22 13 34.5t38 12.5z" />
    <glyph glyph-name="uni0327" unicode="&#x327;" horiz-adv-x="0"
d="M13 -207q-41 0 -64.5 13.5t-34.5 27.5l38 41q9 -11 24 -19.5t37 -8.5q19 0 31.5 7.5t12.5 23.5q0 14 -13 24.5t-55 16.5l-28 4l19 97h50l-16 -81l3 -3q19 6 39 6q29 0 48.5 -17t19.5 -49q0 -21 -9 -37t-24.5 -26t-35.5 -15t-42 -5z" />
    <glyph glyph-name="uni0328" unicode="&#x328;" horiz-adv-x="0"
d="M-66 -207q-39 0 -67 18t-28 58t29 70.5t76 64.5l-5 18h54l8 -22q-32 -29 -51 -49t-29.5 -33.5t-14 -23t-3.5 -17.5q0 -17 8.5 -23.5t22.5 -6.5q29 0 48 24l40 -39q-9 -16 -31 -27.5t-57 -11.5z" />
    <glyph glyph-name="uni037E" unicode="&#x37e;" horiz-adv-x="292"
d="M146 117q32 0 46.5 -16.5t14.5 -42.5v-14q0 -41 -24 -90.5t-67 -86.5h-67q30 32 48.5 60.5t26.5 63.5q-20 5 -29.5 19t-9.5 34v14q0 26 14.5 42.5t46.5 16.5zM146 399q-32 0 -46.5 16t-14.5 42v13q0 26 14.5 42t46.5 16t46.5 -16t14.5 -42v-13q0 -26 -14.5 -42t-46.5 -16
z" />
    <glyph glyph-name="tonos" unicode="&#x384;"
d="M336 585l-57 7l29 188l80 -11z" />
    <glyph glyph-name="dieresistonos" unicode="&#x385;"
d="M183 618q-23 0 -34 12.5t-11 33.5v11q0 21 11 33.5t34 12.5t34 -12.5t11 -33.5v-11q0 -21 -11 -33.5t-34 -12.5zM305 585l-49 7l29 188l72 -11zM417 618q-23 0 -34 12.5t-11 33.5v11q0 21 11 33.5t34 12.5t34 -12.5t11 -33.5v-11q0 -21 -11 -33.5t-34 -12.5z" />
    <glyph glyph-name="Alphatonos" unicode="&#x386;" horiz-adv-x="641"
d="M530 0l-70 206h-282l-70 -206h-85l244 698h107l244 -698h-88zM321 620h-5l-118 -340h241zM91 585l-57 7l29 188l80 -11z" />
    <glyph glyph-name="anoteleia" unicode="&#x387;" horiz-adv-x="292"
d="M146 399q-32 0 -46.5 16t-14.5 42v13q0 26 14.5 42t46.5 16t46.5 -16t14.5 -42v-13q0 -26 -14.5 -42t-46.5 -16z" />
    <glyph glyph-name="Epsilontonos" unicode="&#x388;" horiz-adv-x="609"
d="M119 0v698h426v-74h-342v-234h322v-74h-322v-242h342v-74h-426zM33 585l-57 7l29 188l80 -11z" />
    <glyph glyph-name="Etatonos" unicode="&#x389;" horiz-adv-x="733"
d="M556 316h-353v-316h-84v698h84v-308h353v308h84v-698h-84v316zM33 585l-57 7l29 188l80 -11z" />
    <glyph glyph-name="Iotatonos" unicode="&#x38a;" horiz-adv-x="459"
d="M119 0v70h98v558h-98v70h280v-70h-98v-558h98v-70h-280zM33 585l-57 7l29 188l80 -11z" />
    <glyph glyph-name="Omicrontonos" unicode="&#x38c;" horiz-adv-x="712"
d="M358 -12q-68 0 -122.5 23.5t-93 69t-59.5 113t-21 155.5t21 155t59.5 113t93 69.5t122.5 23.5q67 0 122 -23.5t93.5 -69.5t59.5 -113t21 -155t-21 -155.5t-59.5 -113t-93.5 -69t-122 -23.5zM358 63q45 0 83 16t65.5 46t42.5 72t15 94v116q0 52 -15 94t-42.5 72t-65.5 46
t-83 16t-83 -16t-65.5 -46t-42.5 -72t-15 -94v-116q0 -52 15 -94t42.5 -72t65.5 -46t83 -16zM33 585l-57 7l29 188l80 -11z" />
    <glyph glyph-name="Upsilontonos" unicode="&#x38e;" horiz-adv-x="677"
d="M337 0v276l-240 422h96l186 -336h3l186 336h96l-243 -419v-279h-84zM33 585l-57 7l29 188l80 -11z" />
    <glyph glyph-name="Omegatonos" unicode="&#x38f;" horiz-adv-x="716"
d="M58 74h159v10q-31 17 -59 44t-49.5 64t-34 83.5t-12.5 102.5q0 61 17.5 121t53.5 106.5t92 75.5t133 29t133 -29t92 -75.5t53.5 -106.5t17.5 -121q0 -56 -12.5 -102.5t-34 -83.5t-49.5 -64t-59 -44v-10h159v-74h-230v111q24 9 48 31.5t43.5 53.5t32 68.5t12.5 76.5v90
q0 36 -14 72.5t-40.5 66t-64.5 47.5t-87 18t-87 -18t-64.5 -47.5t-40.5 -66t-14 -72.5v-90q0 -39 12 -76.5t31.5 -68.5t44 -53.5t48.5 -31.5v-111h-230v74zM33 585l-57 7l29 188l80 -11z" />
    <glyph glyph-name="iotadieresistonos" unicode="&#x390;" horiz-adv-x="295"
d="M270 0h-100q-42 0 -63.5 23.5t-21.5 61.5v431h80v-446h105v-70zM21 618q-23 0 -34 12.5t-11 33.5v11q0 21 11 33.5t34 12.5t34 -12.5t11 -33.5v-11q0 -21 -11 -33.5t-34 -12.5zM143 585l-49 7l29 188l72 -11zM255 618q-23 0 -34 12.5t-11 33.5v11q0 21 11 33.5t34 12.5
t34 -12.5t11 -33.5v-11q0 -21 -11 -33.5t-34 -12.5z" />
    <glyph glyph-name="Alpha" unicode="&#x391;" horiz-adv-x="641"
d="M530 0l-70 206h-282l-70 -206h-85l244 698h107l244 -698h-88zM321 620h-5l-118 -340h241z" />
    <glyph glyph-name="Beta" unicode="&#x392;" horiz-adv-x="653"
d="M93 698h287q87 0 136.5 -49t49.5 -131q0 -39 -11 -66t-28 -44.5t-37 -26t-37 -11.5v-6q19 -1 42.5 -10t44.5 -28.5t35.5 -50t14.5 -73.5t-13.5 -80t-37.5 -64t-57 -42.5t-72 -15.5h-317v698zM177 74h207q54 0 85 27.5t31 80.5v34q0 53 -31 80.5t-85 27.5h-207v-250z
M177 396h193q50 0 78 25t28 72v34q0 47 -28 72t-78 25h-193v-228z" />
    <glyph glyph-name="Gamma" unicode="&#x393;" horiz-adv-x="499"
d="M93 698h380v-74h-296v-624h-84v698z" />
    <glyph glyph-name="uni0394" unicode="&#x394;" horiz-adv-x="643"
d="M44 75l224 623h107l224 -623v-75h-555v75zM322 620h-5l-188 -546h381z" />
    <glyph glyph-name="Epsilon" unicode="&#x395;" horiz-adv-x="583"
d="M93 0v698h426v-74h-342v-234h322v-74h-322v-242h342v-74h-426z" />
    <glyph glyph-name="Zeta" unicode="&#x396;" horiz-adv-x="580"
d="M544 0h-508v76l403 548h-382v74h473v-76l-404 -548h418v-74z" />
    <glyph glyph-name="Eta" unicode="&#x397;" horiz-adv-x="707"
d="M530 316h-353v-316h-84v698h84v-308h353v308h84v-698h-84v316z" />
    <glyph glyph-name="Theta" unicode="&#x398;" horiz-adv-x="708"
d="M354 -12q-68 0 -122.5 23.5t-93 69t-59.5 113t-21 155.5t21 155t59.5 113t93 69.5t122.5 23.5q67 0 122 -23.5t93.5 -69.5t59.5 -113t21 -155t-21 -155.5t-59.5 -113t-93.5 -69t-122 -23.5zM354 63q45 0 83 16t65.5 46t42.5 72t15 94v116q0 52 -15 94t-42.5 72t-65.5 46
t-83 16t-83 -16t-65.5 -46t-42.5 -72t-15 -94v-116q0 -52 15 -94t42.5 -72t65.5 -46t83 -16zM203 316v74h302v-74h-302z" />
    <glyph glyph-name="Iota" unicode="&#x399;" horiz-adv-x="400"
d="M60 0v70h98v558h-98v70h280v-70h-98v-558h98v-70h-280z" />
    <glyph glyph-name="Kappa" unicode="&#x39a;" horiz-adv-x="634"
d="M276 343l-99 -110v-233h-84v698h84v-371h3l100 121l211 250h103l-260 -299l278 -399h-104z" />
    <glyph glyph-name="Lambda" unicode="&#x39b;" horiz-adv-x="629"
d="M368 698l238 -698h-88l-115 352l-88 268h-5l-87 -268l-115 -352h-85l238 698h107z" />
    <glyph glyph-name="Mu" unicode="&#x39c;" horiz-adv-x="812"
d="M637 588h-5l-59 -117l-167 -304l-167 304l-59 117h-5v-588h-82v698h112l200 -376h5l201 376h108v-698h-82v588z" />
    <glyph glyph-name="Nu" unicode="&#x39d;" horiz-adv-x="707"
d="M262 426l-84 155h-3v-581h-82v698h97l255 -426l84 -155h3v581h82v-698h-97z" />
    <glyph glyph-name="Xi" unicode="&#x39e;" horiz-adv-x="584"
d="M64 698h456v-74h-456v74zM104 390h376v-74h-376v74zM64 74h456v-74h-456v74z" />
    <glyph glyph-name="Omicron" unicode="&#x39f;" horiz-adv-x="708"
d="M354 -12q-68 0 -122.5 23.5t-93 69t-59.5 113t-21 155.5t21 155t59.5 113t93 69.5t122.5 23.5q67 0 122 -23.5t93.5 -69.5t59.5 -113t21 -155t-21 -155.5t-59.5 -113t-93.5 -69t-122 -23.5zM354 63q45 0 83 16t65.5 46t42.5 72t15 94v116q0 52 -15 94t-42.5 72t-65.5 46
t-83 16t-83 -16t-65.5 -46t-42.5 -72t-15 -94v-116q0 -52 15 -94t42.5 -72t65.5 -46t83 -16z" />
    <glyph glyph-name="Pi" unicode="&#x3a0;" horiz-adv-x="693"
d="M93 698h507v-698h-84v624h-339v-624h-84v698z" />
    <glyph glyph-name="Rho" unicode="&#x3a1;" horiz-adv-x="606"
d="M93 0v698h278q94 0 144.5 -53.5t50.5 -146.5t-50.5 -146.5t-144.5 -53.5h-194v-298h-84zM177 372h194q50 0 77.5 26t27.5 74v52q0 48 -27.5 74t-77.5 26h-194v-252z" />
    <glyph glyph-name="Sigma" unicode="&#x3a3;" horiz-adv-x="569"
d="M40 0v76l248 276l-240 270v76h461v-74h-361l240 -270l-252 -280h373v-74h-469z" />
    <glyph glyph-name="Tau" unicode="&#x3a4;" horiz-adv-x="572"
d="M328 624v-624h-84v624h-222v74h528v-74h-222z" />
    <glyph glyph-name="Upsilon" unicode="&#x3a5;" horiz-adv-x="593"
d="M253 0v276l-240 422h96l186 -336h3l186 336h96l-243 -419v-279h-84z" />
    <glyph glyph-name="Phi" unicode="&#x3a6;" horiz-adv-x="852"
d="M384 31h-18q-76 0 -134 24.5t-97.5 68t-60 102.5t-20.5 128t20.5 128t60 102.5t97.5 68t134 24.5h18v48h84v-48h18q76 0 134 -24.5t97.5 -68t60 -102.5t20.5 -128t-20.5 -128t-60 -102.5t-97.5 -68t-134 -24.5h-18v-60h-84v60zM386 607h-20q-51 0 -92 -17t-70 -47
t-44.5 -70.5t-15.5 -87.5v-62q0 -47 15.5 -87.5t44.5 -70.5t70 -47t92 -17h20v506zM486 101q51 0 92 17t70 47t44.5 70.5t15.5 87.5v62q0 47 -15.5 87.5t-44.5 70.5t-70 47t-92 17h-20v-506h20z" />
    <glyph glyph-name="Chi" unicode="&#x3a7;" horiz-adv-x="613"
d="M589 0h-101l-183 293h-2l-183 -293h-96l228 355l-222 343h101l175 -278h2l179 278h96l-224 -340z" />
    <glyph glyph-name="Psi" unicode="&#x3a8;" horiz-adv-x="790"
d="M353 203q-63 0 -115.5 16t-90 48.5t-58.5 82.5t-21 118v230h84v-230q0 -55 15.5 -92t43 -60t64 -33t78.5 -10v425h84v-425q42 0 78.5 10t64 33t43 60t15.5 92v230h84v-230q0 -68 -21 -118t-58.5 -82.5t-90 -48.5t-115.5 -16v-203h-84v203z" />
    <glyph glyph-name="uni03A9" unicode="&#x3a9;" horiz-adv-x="716"
d="M58 74h159v10q-31 17 -59 44t-49.5 64t-34 83.5t-12.5 102.5q0 61 17.5 121t53.5 106.5t92 75.5t133 29t133 -29t92 -75.5t53.5 -106.5t17.5 -121q0 -56 -12.5 -102.5t-34 -83.5t-49.5 -64t-59 -44v-10h159v-74h-230v111q24 9 48 31.5t43.5 53.5t32 68.5t12.5 76.5v90
q0 36 -14 72.5t-40.5 66t-64.5 47.5t-87 18t-87 -18t-64.5 -47.5t-40.5 -66t-14 -72.5v-90q0 -39 12 -76.5t31.5 -68.5t44 -53.5t48.5 -31.5v-111h-230v74z" />
    <glyph glyph-name="Iotadieresis" unicode="&#x3aa;" horiz-adv-x="400"
d="M60 0v70h98v558h-98v70h280v-70h-98v-558h98v-70h-280zM108 788q-26 0 -38 13t-12 34v12q0 21 12 34t38 13t38 -13t12 -34v-12q0 -21 -12 -34t-38 -13zM294 788q-26 0 -38 13t-12 34v12q0 21 12 34t38 13t38 -13t12 -34v-12q0 -21 -12 -34t-38 -13z" />
    <glyph glyph-name="Upsilondieresis" unicode="&#x3ab;" horiz-adv-x="593"
d="M253 0v276l-240 422h96l186 -336h3l186 336h96l-243 -419v-279h-84zM205 788q-26 0 -38 13t-12 34v12q0 21 12 34t38 13t38 -13t12 -34v-12q0 -21 -12 -34t-38 -13zM391 788q-26 0 -38 13t-12 34v12q0 21 12 34t38 13t38 -13t12 -34v-12q0 -21 -12 -34t-38 -13z" />
    <glyph glyph-name="alphatonos" unicode="&#x3ac;" horiz-adv-x="644"
d="M608 0h-45q-41 0 -62.5 19t-29.5 64l-17 101h-4q-20 -97 -66 -146.5t-127 -49.5q-47 0 -85 19.5t-65 54.5t-42 85t-15 111t15 111t42 85t65 54.5t85 19.5q80 0 127 -48t68 -148h4l29 111l27 73h88l-109 -256l63 -190h54v-70zM257 59q22 0 40.5 5t33.5 18t28 35t25 56
l31 85l-31 85q-12 34 -25 56t-28 35t-33.5 18t-40.5 5q-24 0 -45.5 -10.5t-38.5 -30.5t-27 -51t-10 -71v-72q0 -41 10 -71.5t27 -50.5t38.5 -30.5t45.5 -10.5zM293 585l-57 7l29 188l80 -11z" />
    <glyph glyph-name="epsilontonos" unicode="&#x3ad;" horiz-adv-x="518"
d="M490 99q-63 -111 -224 -111q-105 0 -155.5 41t-50.5 108q0 54 32 85.5t95 42.5v4q-54 6 -85 34t-31 76q0 32 14 59t40.5 47t64 31.5t85.5 11.5q75 0 129 -27t81 -74l-58 -46q-20 36 -58.5 56t-94.5 20q-32 0 -54 -6t-36 -16t-20.5 -23t-6.5 -26v-12q0 -32 26 -53t72 -21
h122v-67h-122q-109 0 -109 -80v-12q0 -39 31 -60.5t94 -21.5q118 0 162 81zM299 585l-57 7l29 188l80 -11z" />
    <glyph glyph-name="etatonos" unicode="&#x3ae;" horiz-adv-x="573"
d="M90 0v446h-59v70h54q42 0 63.5 -23.5t21.5 -60.5h4q19 44 53.5 70t92.5 26q80 0 126.5 -51.5t46.5 -145.5v-531h-80v517q0 139 -117 139q-24 0 -46.5 -6t-40.5 -18t-28.5 -30.5t-10.5 -43.5v-358h-80zM320 585l-57 7l29 188l80 -11z" />
    <glyph glyph-name="iotatonos" unicode="&#x3af;" horiz-adv-x="295"
d="M270 0h-100q-42 0 -63.5 23.5t-21.5 61.5v431h80v-446h105v-70zM157 585l-57 7l29 188l80 -11z" />
    <glyph glyph-name="upsilondieresistonos" unicode="&#x3b0;" horiz-adv-x="568"
d="M160 234q0 -91 29 -133t95 -42t95 42t29 133v282h80v-270q0 -134 -51 -196t-153 -62t-153 62t-51 196v270h80v-282zM173 618q-23 0 -34 12.5t-11 33.5v11q0 21 11 33.5t34 12.5t34 -12.5t11 -33.5v-11q0 -21 -11 -33.5t-34 -12.5zM295 585l-49 7l29 188l72 -11zM407 618
q-23 0 -34 12.5t-11 33.5v11q0 21 11 33.5t34 12.5t34 -12.5t11 -33.5v-11q0 -21 -11 -33.5t-34 -12.5z" />
    <glyph glyph-name="alpha" unicode="&#x3b1;" horiz-adv-x="644"
d="M608 0h-45q-41 0 -62.5 19t-29.5 64l-17 101h-4q-20 -97 -66 -146.5t-127 -49.5q-47 0 -85 19.5t-65 54.5t-42 85t-15 111t15 111t42 85t65 54.5t85 19.5q80 0 127 -48t68 -148h4l29 111l27 73h88l-109 -256l63 -190h54v-70zM257 59q22 0 40.5 5t33.5 18t28 35t25 56
l31 85l-31 85q-12 34 -25 56t-28 35t-33.5 18t-40.5 5q-24 0 -45.5 -10.5t-38.5 -30.5t-27 -51t-10 -71v-72q0 -41 10 -71.5t27 -50.5t38.5 -30.5t45.5 -10.5z" />
    <glyph glyph-name="beta" unicode="&#x3b2;" horiz-adv-x="584"
d="M85 521q0 105 53.5 168t157.5 63q45 0 81.5 -12.5t62.5 -35.5t40 -56t14 -74q0 -38 -12 -67.5t-31 -50t-43 -33t-48 -16.5v-4q30 -4 60.5 -15.5t55 -34t39.5 -57.5t15 -85q0 -47 -14.5 -88t-42.5 -71t-67.5 -47t-89.5 -17t-87.5 18t-59.5 54h-4v-260h-80v721zM246 438h47
q60 0 87.5 31t27.5 82v24q0 48 -28.5 76.5t-88.5 28.5q-64 0 -95 -36t-31 -117v-390q0 -18 10.5 -32.5t28.5 -24.5t42 -15t50 -5q70 0 109 36.5t39 105.5v24q0 69 -39 105.5t-107 36.5h-52v70z" />
    <glyph glyph-name="gamma" unicode="&#x3b3;" horiz-adv-x="502"
d="M216 0l-152 446h-54v70h45q33 0 54 -12.5t32 -46.5l66 -198l47 -165h5l53 165l95 257h77l-188 -516v-200h-80v200z" />
    <glyph glyph-name="delta" unicode="&#x3b4;" horiz-adv-x="560"
d="M259 670l-70 5v-4l143 -114q51 -41 85.5 -77t56 -72t30.5 -72.5t9 -76.5q0 -63 -17 -113t-48 -85.5t-73.5 -54t-94.5 -18.5t-95 19t-73.5 53.5t-47.5 82.5t-17 107q0 65 17.5 115t47 83.5t68.5 50.5t82 17v5l-145 126v93h342v-70h-200zM427 241q0 37 -5 67t-18.5 58
t-38.5 56.5t-64 64.5q-36 -5 -66.5 -20.5t-53 -41.5t-35.5 -63t-13 -85v-54q0 -83 41 -123.5t106 -40.5q32 0 59 10t46.5 30.5t30.5 51t11 72.5v18z" />
    <glyph glyph-name="epsilon" unicode="&#x3b5;" horiz-adv-x="518"
d="M490 99q-63 -111 -224 -111q-105 0 -155.5 41t-50.5 108q0 54 32 85.5t95 42.5v4q-54 6 -85 34t-31 76q0 32 14 59t40.5 47t64 31.5t85.5 11.5q75 0 129 -27t81 -74l-58 -46q-20 36 -58.5 56t-94.5 20q-32 0 -54 -6t-36 -16t-20.5 -23t-6.5 -26v-12q0 -32 26 -53t72 -21
h122v-67h-122q-109 0 -109 -80v-12q0 -39 31 -60.5t94 -21.5q118 0 162 81z" />
    <glyph glyph-name="zeta" unicode="&#x3b6;" horiz-adv-x="428"
d="M64 740h352v-60l-176 -221q-32 -40 -52.5 -72.5t-32.5 -60.5t-17 -51.5t-5 -45.5v-14q0 -54 29.5 -86t98.5 -50l72 -19q35 -9 51 -28.5t16 -45.5q0 -13 -5 -33l-30 -112l-76 19l34 127l-72 18q-57 14 -96 32.5t-63 44t-34.5 59.5t-10.5 81q0 26 5 52t18.5 56.5t37.5 67.5
t62 85l149 187v5l-62 -5h-193v70z" />
    <glyph glyph-name="eta" unicode="&#x3b7;" horiz-adv-x="573"
d="M90 0v446h-59v70h54q42 0 63.5 -23.5t21.5 -60.5h4q19 44 53.5 70t92.5 26q80 0 126.5 -51.5t46.5 -145.5v-531h-80v517q0 139 -117 139q-24 0 -46.5 -6t-40.5 -18t-28.5 -30.5t-10.5 -43.5v-358h-80z" />
    <glyph glyph-name="theta" unicode="&#x3b8;" horiz-adv-x="562"
d="M281 752q53 0 95 -19t71 -64t44 -118t15 -181t-15 -181t-44 -118t-71 -64t-95 -19t-95 19t-71 64t-44 118t-15 181t15 181t44 118t71 64t95 19zM142 405h278v63q0 59 -9.5 100t-27 66.5t-43.5 37t-59 11.5t-59 -11.5t-43.5 -37t-27 -66.5t-9.5 -100v-63zM281 57
q33 0 59 11.5t43.5 37t27 66.5t9.5 100v63h-278v-63q0 -59 9.5 -100t27 -66.5t43.5 -37t59 -11.5z" />
    <glyph glyph-name="iota" unicode="&#x3b9;" horiz-adv-x="295"
d="M270 0h-100q-42 0 -63.5 23.5t-21.5 61.5v431h80v-446h105v-70z" />
    <glyph glyph-name="kappa" unicode="&#x3ba;" horiz-adv-x="527"
d="M232 246l-67 -72v-174h-80v516h80v-253h4l50 59l153 165q15 17 30 23t36 6h49v-70h-59l-139 -150l221 -296h-97z" />
    <glyph glyph-name="lambda" unicode="&#x3bb;" horiz-adv-x="509"
d="M162 670h-104v70h95q38 0 57 -14t28 -43l199 -613h64v-70h-55q-38 0 -57 14t-28 43l-65 201l-47 178h-5l-58 -178l-101 -258h-79l206 516z" />
    <glyph glyph-name="uni03BC" unicode="&#x3bc;" horiz-adv-x="578"
d="M85 -200v716h80v-317q0 -139 118 -139q24 0 46.5 6t40 18.5t28 31t10.5 44.5v356h80v-446h59v-70h-54q-42 0 -63.5 23.5t-21.5 60.5h-4q-36 -96 -126 -96q-48 0 -80 25.5t-46 70.5h-4l17 -149v-135h-80z" />
    <glyph glyph-name="nu" unicode="&#x3bd;" horiz-adv-x="511"
d="M213 0l-149 446h-54v70h45q33 0 54 -12.5t32 -46.5l64 -198l53 -175h5l58 175l95 257h77l-187 -516h-93z" />
    <glyph glyph-name="xi" unicode="&#x3be;" horiz-adv-x="456"
d="M295 670q-54 0 -86.5 -33t-32.5 -95v-14q0 -53 28 -81t82 -28h87v-70h-87q-79 0 -112.5 -33t-33.5 -93v-14q0 -50 30.5 -80.5t99.5 -48.5l76 -20q35 -9 51 -28.5t16 -45.5q0 -13 -5 -33l-30 -112l-76 19l34 127l-76 19q-57 14 -96.5 32t-63.5 43t-35 58t-11 77
q0 66 40.5 112.5t112.5 55.5v4q-60 15 -88.5 51t-28.5 96q0 47 23.5 80t68.5 48v7h-137v70h383v-70h-133z" />
    <glyph glyph-name="omicron" unicode="&#x3bf;" horiz-adv-x="560"
d="M280 -12q-52 0 -95 19t-73.5 54.5t-47.5 85t-17 111.5q0 61 17 111t47.5 85.5t73.5 54.5t95 19t94.5 -19t73.5 -54.5t48 -85.5t17 -111q0 -62 -17 -111.5t-48 -85t-73.5 -54.5t-94.5 -19zM280 59q65 0 106 40t41 122v74q0 82 -41 122t-106 40t-106 -40t-41 -122v-74
q0 -82 41 -122t106 -40z" />
    <glyph glyph-name="pi" unicode="&#x3c0;" horiz-adv-x="622"
d="M487 70h64v-70h-59q-42 0 -63.5 23.5t-21.5 58.5v364h-208v-446h-80v446h-95v70h566v-70h-103v-376z" />
    <glyph glyph-name="rho" unicode="&#x3c1;" horiz-adv-x="552"
d="M58 296q0 48 14 90t42.5 73.5t70 50t97.5 18.5q109 0 164.5 -69.5t55.5 -196.5q0 -131 -56 -202.5t-156 -71.5q-51 0 -89.5 18.5t-58.5 52.5h-4v-259h-80v496zM270 60q74 0 110 41.5t36 119.5v74q0 78 -36.5 119.5t-102.5 41.5t-102.5 -41.5t-36.5 -119.5v-158
q0 -18 11 -32.5t29 -24t42 -15t50 -5.5z" />
    <glyph glyph-name="sigma1" unicode="&#x3c2;" horiz-adv-x="483"
d="M343 -13l-121 33q-88 23 -131.5 80.5t-43.5 159.5q0 63 15.5 112.5t44 84t69 53t90.5 18.5q68 0 114 -32t70 -89l-67 -34q-14 40 -45 62t-74 22q-61 0 -96 -43t-35 -112v-68q0 -114 128 -149l92 -25q35 -9 51 -28.5t16 -45.5q0 -13 -5 -33l-30 -112l-76 19z" />
    <glyph glyph-name="sigma" unicode="&#x3c3;" horiz-adv-x="583"
d="M420 446v-7q50 -23 71.5 -68.5t21.5 -118.5q0 -59 -17 -108t-48 -83.5t-73.5 -53.5t-94.5 -19t-95 19t-73.5 53.5t-47.5 83.5t-17 108t16 108t47 83.5t77 53.5t105 19h266v-70h-138zM292 446q-74 0 -116.5 -40.5t-42.5 -122.5v-62q0 -82 41 -122t106 -40t106 40t41 122
v62q0 55 -16 92t-49 71h-70z" />
    <glyph glyph-name="tau" unicode="&#x3c4;" horiz-adv-x="477"
d="M273 0q-42 0 -63.5 23.5t-21.5 61.5v361h-168v70h425v-70h-177v-376h115v-70h-110z" />
    <glyph glyph-name="upsilon" unicode="&#x3c5;" horiz-adv-x="568"
d="M160 234q0 -91 29 -133t95 -42t95 42t29 133v282h80v-270q0 -134 -51 -196t-153 -62t-153 62t-51 196v270h80v-282z" />
    <glyph glyph-name="phi" unicode="&#x3c6;" horiz-adv-x="715"
d="M307 -12q-56 0 -103 18.5t-81 53t-53.5 83t-19.5 107.5q0 107 38 176t107 102l45 -56q-54 -27 -79 -74.5t-25 -128.5v-39q0 -45 13.5 -77t36.5 -53t54.5 -31t66.5 -10v215q0 134 45.5 194t129.5 60q88 0 134.5 -60t46.5 -194q0 -140 -73 -213t-203 -73v-188h-80v188z
M387 59q43 0 78 9.5t60 29.5t38.5 52.5t13.5 79.5v69q0 45 -6.5 75t-19 48.5t-30 26.5t-39.5 8t-39.5 -8t-30 -26.5t-19 -48.5t-6.5 -75v-240z" />
    <glyph glyph-name="chi" unicode="&#x3c7;" horiz-adv-x="496"
d="M72 516q36 0 54 -12.5t32 -44.5l93 -219h3l134 276h88l-179 -344l128 -302h69v-70h-60q-36 0 -54.5 12.5t-31.5 44.5l-100 242h-3l-140 -299h-88l185 367l-121 279h-69v70h60z" />
    <glyph glyph-name="psi" unicode="&#x3c8;" horiz-adv-x="726"
d="M323 -200v188q-118 0 -180.5 71t-62.5 199v258h80v-282q0 -86 40 -130.5t123 -44.5v651h80v-651q83 0 123 44.5t40 130.5v282h80v-258q0 -128 -62.5 -199t-180.5 -71v-188h-80z" />
    <glyph glyph-name="omega" unicode="&#x3c9;" horiz-adv-x="736"
d="M408 217q0 -45 6.5 -75t19 -48.5t30 -26.5t39.5 -8t39.5 8t30 26.5t19 48.5t6.5 75v52q0 152 -104 203l45 56q70 -32 107.5 -100.5t37.5 -185.5q0 -67 -12 -115t-34.5 -79t-54 -45.5t-70.5 -14.5q-62 0 -96.5 35t-46.5 92h-4q-12 -57 -46.5 -92t-96.5 -35
q-39 0 -70.5 14.5t-54 45.5t-34.5 79t-12 115q0 113 38 183t107 103l45 -56q-54 -27 -79 -74.5t-25 -128.5v-52q0 -45 6.5 -75t19 -48.5t30 -26.5t39.5 -8t39.5 8t30 26.5t19 48.5t6.5 75v132h80v-132z" />
    <glyph glyph-name="iotadieresis" unicode="&#x3ca;" horiz-adv-x="295"
d="M270 0h-100q-42 0 -63.5 23.5t-21.5 61.5v431h80v-446h105v-70zM40 618q-26 0 -37.5 12.5t-11.5 33.5v11q0 21 11.5 33.5t37.5 12.5t37.5 -12.5t11.5 -33.5v-11q0 -21 -11.5 -33.5t-37.5 -12.5zM226 618q-26 0 -37.5 12.5t-11.5 33.5v11q0 21 11.5 33.5t37.5 12.5
t37.5 -12.5t11.5 -33.5v-11q0 -21 -11.5 -33.5t-37.5 -12.5z" />
    <glyph glyph-name="upsilondieresis" unicode="&#x3cb;" horiz-adv-x="568"
d="M160 234q0 -91 29 -133t95 -42t95 42t29 133v282h80v-270q0 -134 -51 -196t-153 -62t-153 62t-51 196v270h80v-282zM192 618q-26 0 -37.5 12.5t-11.5 33.5v11q0 21 11.5 33.5t37.5 12.5t37.5 -12.5t11.5 -33.5v-11q0 -21 -11.5 -33.5t-37.5 -12.5zM378 618
q-26 0 -37.5 12.5t-11.5 33.5v11q0 21 11.5 33.5t37.5 12.5t37.5 -12.5t11.5 -33.5v-11q0 -21 -11.5 -33.5t-37.5 -12.5z" />
    <glyph glyph-name="omicrontonos" unicode="&#x3cc;" horiz-adv-x="560"
d="M280 -12q-52 0 -95 19t-73.5 54.5t-47.5 85t-17 111.5q0 61 17 111t47.5 85.5t73.5 54.5t95 19t94.5 -19t73.5 -54.5t48 -85.5t17 -111q0 -62 -17 -111.5t-48 -85t-73.5 -54.5t-94.5 -19zM280 59q65 0 106 40t41 122v74q0 82 -41 122t-106 40t-106 -40t-41 -122v-74
q0 -82 41 -122t106 -40zM305 585l-57 7l29 188l80 -11z" />
    <glyph glyph-name="upsilontonos" unicode="&#x3cd;" horiz-adv-x="568"
d="M160 234q0 -91 29 -133t95 -42t95 42t29 133v282h80v-270q0 -134 -51 -196t-153 -62t-153 62t-51 196v270h80v-282zM309 585l-57 7l29 188l80 -11z" />
    <glyph glyph-name="omegatonos" unicode="&#x3ce;" horiz-adv-x="736"
d="M408 217q0 -45 6.5 -75t19 -48.5t30 -26.5t39.5 -8t39.5 8t30 26.5t19 48.5t6.5 75v52q0 152 -104 203l45 56q70 -32 107.5 -100.5t37.5 -185.5q0 -67 -12 -115t-34.5 -79t-54 -45.5t-70.5 -14.5q-62 0 -96.5 35t-46.5 92h-4q-12 -57 -46.5 -92t-96.5 -35
q-39 0 -70.5 14.5t-54 45.5t-34.5 79t-12 115q0 113 38 183t107 103l45 -56q-54 -27 -79 -74.5t-25 -128.5v-52q0 -45 6.5 -75t19 -48.5t30 -26.5t39.5 -8t39.5 8t30 26.5t19 48.5t6.5 75v132h80v-132zM392 585l-57 7l29 188l80 -11z" />
    <glyph glyph-name="uni0400" unicode="&#x400;" horiz-adv-x="583"
d="M93 0v698h426v-74h-342v-234h322v-74h-322v-242h342v-74h-426zM191 914l73 35l85 -170l-52 -24z" />
    <glyph glyph-name="uni0401" unicode="&#x401;" horiz-adv-x="583"
d="M93 0v698h426v-74h-342v-234h322v-74h-322v-242h342v-74h-426zM211 788q-26 0 -38 13t-12 34v12q0 21 12 34t38 13t38 -13t12 -34v-12q0 -21 -12 -34t-38 -13zM397 788q-26 0 -38 13t-12 34v12q0 21 12 34t38 13t38 -13t12 -34v-12q0 -21 -12 -34t-38 -13z" />
    <glyph glyph-name="uni0402" unicode="&#x402;" horiz-adv-x="786"
d="M509 -90h84q24 20 37.5 55.5t13.5 98.5v126q0 92 -42 133t-123 41q-47 0 -86 -6t-65 -17v-341h-84v624h-222v74h528v-74h-222v-209h5q27 11 66 17t83 6q126 0 186 -60.5t60 -187.5v-126q0 -120 -44.5 -174t-128.5 -54h-46v74z" />
    <glyph glyph-name="uni0403" unicode="&#x403;" horiz-adv-x="499"
d="M93 698h380v-74h-296v-624h-84v698zM288 755l-52 24l85 170l73 -35z" />
    <glyph glyph-name="uni0404" unicode="&#x404;" horiz-adv-x="631"
d="M344 -12q-138 0 -212 90.5t-74 266.5t74 270.5t212 94.5q93 0 152.5 -40t92.5 -113l-68 -41q-21 54 -64 86.5t-113 32.5q-48 0 -84.5 -17t-61 -48.5t-37.5 -75t-13 -97.5v-7h294v-74h-294v-23q0 -108 50 -169t146 -61q72 0 117 34.5t66 91.5l67 -42q-33 -74 -95 -116.5
t-155 -42.5z" />
    <glyph glyph-name="uni0405" unicode="&#x405;" horiz-adv-x="581"
d="M289 -12q-85 0 -145 32.5t-102 89.5l62 52q37 -49 82 -74.5t106 -25.5q75 0 114.5 36t39.5 96q0 50 -30 77t-99 43l-57 13q-96 22 -146.5 66.5t-50.5 125.5q0 46 17 82t47.5 60t73 36.5t93.5 12.5q79 0 135.5 -29t95.5 -85l-63 -46q-29 40 -70 63t-102 23
q-67 0 -105.5 -28.5t-38.5 -85.5q0 -50 32.5 -75.5t98.5 -40.5l57 -13q103 -23 149 -70t46 -125q0 -48 -16.5 -87t-47.5 -66t-75.5 -42t-100.5 -15z" />
    <glyph glyph-name="uni0406" unicode="&#x406;" horiz-adv-x="400"
d="M60 0v70h98v558h-98v70h280v-70h-98v-558h98v-70h-280z" />
    <glyph glyph-name="uni0407" unicode="&#x407;" horiz-adv-x="400"
d="M60 0v70h98v558h-98v70h280v-70h-98v-558h98v-70h-280zM108 788q-26 0 -38 13t-12 34v12q0 21 12 34t38 13t38 -13t12 -34v-12q0 -21 -12 -34t-38 -13zM294 788q-26 0 -38 13t-12 34v12q0 21 12 34t38 13t38 -13t12 -34v-12q0 -21 -12 -34t-38 -13z" />
    <glyph glyph-name="uni0408" unicode="&#x408;" horiz-adv-x="510"
d="M422 698v-517q0 -44 -14.5 -80t-41 -61t-63.5 -38.5t-81 -13.5q-81 0 -130.5 43.5t-63.5 115.5l76 18q10 -45 38 -73.5t82 -28.5t84 33t30 100v428h-240v74h324z" />
    <glyph glyph-name="uni0409" unicode="&#x409;" horiz-adv-x="1014"
d="M10 74h72q23 22 40 53.5t28 80.5t16 121t5 176v193h400v-280h208q94 0 144.5 -54.5t50.5 -154.5t-50.5 -154.5t-144.5 -54.5h-292v624h-236v-125q0 -108 -6.5 -184.5t-18.5 -130t-30 -87t-41 -56.5q-21 -21 -47 -31t-62 -10h-36v74zM779 74q50 0 77.5 27t27.5 82v52
q0 55 -27.5 82t-77.5 27h-208v-270h208z" />
    <glyph glyph-name="uni040A" unicode="&#x40a;" horiz-adv-x="1037"
d="M93 698h84v-308h333v308h84v-280h208q94 0 144.5 -54.5t50.5 -154.5t-50.5 -154.5t-144.5 -54.5h-292v316h-333v-316h-84v698zM802 74q51 0 78 27t27 82v52q0 55 -27 82t-78 27h-208v-270h208z" />
    <glyph glyph-name="uni040B" unicode="&#x40b;" horiz-adv-x="796"
d="M244 624h-222v74h528v-74h-222v-209h5q27 11 67 17t87 6q130 0 190.5 -60.5t60.5 -187.5v-190h-84v190q0 92 -42.5 133t-127.5 41q-50 0 -90 -6t-66 -17v-341h-84v624z" />
    <glyph glyph-name="uni040C" unicode="&#x40c;" horiz-adv-x="662"
d="M93 698h84v-309h136l140 239q23 38 45 54t54 16h46v-74h-63l-124 -212q-18 -30 -29.5 -40t-29.5 -16v-5q23 -5 40 -17t37 -47l130 -213h61v-74h-62q-24 0 -46 13.5t-45 51.5l-154 252h-136v-317h-84v698zM328 755l-52 24l85 170l73 -35z" />
    <glyph glyph-name="uni040D" unicode="&#x40d;" horiz-adv-x="707"
d="M93 698h82v-438l-8 -143h3l70 126l298 455h76v-698h-82v438l8 143h-3l-70 -126l-298 -455h-76v698zM239 914l73 35l85 -170l-52 -24z" />
    <glyph glyph-name="uni040E" unicode="&#x40e;" horiz-adv-x="595"
d="M144 74h101l33 83l-258 541h91l151 -318l52 -121h5l44 123l126 316h86l-244 -609q-11 -27 -22 -44.5t-26 -27t-35.5 -13.5t-48.5 -4h-55v74zM306 766q-54 0 -86 21.5t-51 56.5l-20 38l70 31l35 -82q12 -3 26 -4.5t26 -1.5t26 1.5t26 4.5l35 82l70 -31l-20 -38
q-19 -35 -51 -56.5t-86 -21.5z" />
    <glyph glyph-name="uni040F" unicode="&#x40f;" horiz-adv-x="693"
d="M308 0h-215v698h84v-624h339v624h84v-698h-215v-150h-77v150z" />
    <glyph glyph-name="uni0410" unicode="&#x410;" horiz-adv-x="641"
d="M530 0l-70 206h-282l-70 -206h-85l244 698h107l244 -698h-88zM321 620h-5l-118 -340h241z" />
    <glyph glyph-name="uni0411" unicode="&#x411;" horiz-adv-x="636"
d="M93 698h427v-74h-343v-206h208q94 0 144.5 -54.5t50.5 -154.5t-50.5 -154.5t-144.5 -54.5h-292v698zM385 74q50 0 77.5 27t27.5 82v52q0 55 -27.5 82t-77.5 27h-208v-270h208z" />
    <glyph glyph-name="uni0412" unicode="&#x412;" horiz-adv-x="653"
d="M93 698h287q87 0 136.5 -49t49.5 -131q0 -39 -11 -66t-28 -44.5t-37 -26t-37 -11.5v-6q19 -1 42.5 -10t44.5 -28.5t35.5 -50t14.5 -73.5t-13.5 -80t-37.5 -64t-57 -42.5t-72 -15.5h-317v698zM177 74h207q54 0 85 27.5t31 80.5v34q0 53 -31 80.5t-85 27.5h-207v-250z
M177 396h193q50 0 78 25t28 72v34q0 47 -28 72t-78 25h-193v-228z" />
    <glyph glyph-name="uni0413" unicode="&#x413;" horiz-adv-x="499"
d="M93 698h380v-74h-296v-624h-84v698z" />
    <glyph glyph-name="uni0414" unicode="&#x414;" horiz-adv-x="726"
d="M10 74h73q45 64 69 164t24 255v205h420v-624h98v-224h-77v150h-530v-150h-77v224zM512 74v550h-256v-137q0 -159 -20.5 -256.5t-54.5 -151.5v-5h331z" />
    <glyph glyph-name="uni0415" unicode="&#x415;" horiz-adv-x="583"
d="M93 0v698h426v-74h-342v-234h322v-74h-322v-242h342v-74h-426z" />
    <glyph glyph-name="uni0416" unicode="&#x416;" horiz-adv-x="978"
d="M42 74h63l108 209q17 34 33.5 48t39.5 20v5q-20 6 -36.5 20.5t-30.5 44.5l-94 203h-63v74h52q32 0 56.5 -16t43.5 -56l110 -237h123v309h84v-309h123l112 237q19 40 42.5 56t55.5 16h52v-74h-63l-96 -203q-14 -30 -29.5 -44.5t-35.5 -20.5v-5q23 -6 40.5 -20t34.5 -48
l106 -209h63v-74h-64q-29 0 -51 15.5t-43 57.5l-124 244h-123v-317h-84v317h-123l-126 -244q-22 -42 -42.5 -57.5t-49.5 -15.5h-64v74z" />
    <glyph glyph-name="uni0417" unicode="&#x417;" horiz-adv-x="593"
d="M281 -12q-85 0 -145 33.5t-99 90.5l61 49q32 -47 75.5 -72.5t107.5 -25.5q75 0 117 30.5t42 94.5v13q0 54 -36 86.5t-114 32.5h-105v74h99q74 0 107 30t33 90v14q0 51 -33.5 79t-102.5 28q-63 0 -102 -22t-63 -58l-65 42q38 54 91 83.5t139 29.5q114 0 170 -50t56 -133
q0 -72 -35.5 -112t-97.5 -53v-5q31 -4 58 -15t47 -31t32 -49.5t12 -68.5q0 -46 -17 -84t-49 -65t-78.5 -41.5t-104.5 -14.5z" />
    <glyph glyph-name="uni0418" unicode="&#x418;" horiz-adv-x="707"
d="M93 698h82v-438l-8 -143h3l70 126l298 455h76v-698h-82v438l8 143h-3l-70 -126l-298 -455h-76v698z" />
    <glyph glyph-name="uni0419" unicode="&#x419;" horiz-adv-x="707"
d="M93 698h82v-438l-8 -143h3l70 126l298 455h76v-698h-82v438l8 143h-3l-70 -126l-298 -455h-76v698zM351 766q-54 0 -86 21.5t-51 56.5l-20 38l70 31l35 -82q12 -3 26 -4.5t26 -1.5t26 1.5t26 4.5l35 82l70 -31l-20 -38q-19 -35 -51 -56.5t-86 -21.5z" />
    <glyph glyph-name="uni041A" unicode="&#x41a;" horiz-adv-x="662"
d="M93 698h84v-309h136l140 239q23 38 45 54t54 16h46v-74h-63l-124 -212q-18 -30 -29.5 -40t-29.5 -16v-5q23 -5 40 -17t37 -47l130 -213h61v-74h-62q-24 0 -46 13.5t-45 51.5l-154 252h-136v-317h-84v698z" />
    <glyph glyph-name="uni041B" unicode="&#x41b;" horiz-adv-x="684"
d="M10 74h72q23 22 40 53.5t28 80.5t16 121t5 176v193h420v-698h-84v624h-256v-125q0 -108 -6.5 -184.5t-18.5 -130t-30 -87t-41 -56.5q-21 -21 -47 -31t-62 -10h-36v74z" />
    <glyph glyph-name="uni041C" unicode="&#x41c;" horiz-adv-x="812"
d="M637 588h-5l-59 -117l-167 -304l-167 304l-59 117h-5v-588h-82v698h112l200 -376h5l201 376h108v-698h-82v588z" />
    <glyph glyph-name="uni041D" unicode="&#x41d;" horiz-adv-x="707"
d="M530 316h-353v-316h-84v698h84v-308h353v308h84v-698h-84v316z" />
    <glyph glyph-name="uni041E" unicode="&#x41e;" horiz-adv-x="708"
d="M354 -12q-68 0 -122.5 23.5t-93 69t-59.5 113t-21 155.5t21 155t59.5 113t93 69.5t122.5 23.5q67 0 122 -23.5t93.5 -69.5t59.5 -113t21 -155t-21 -155.5t-59.5 -113t-93.5 -69t-122 -23.5zM354 63q45 0 83 16t65.5 46t42.5 72t15 94v116q0 52 -15 94t-42.5 72t-65.5 46
t-83 16t-83 -16t-65.5 -46t-42.5 -72t-15 -94v-116q0 -52 15 -94t42.5 -72t65.5 -46t83 -16z" />
    <glyph glyph-name="uni041F" unicode="&#x41f;" horiz-adv-x="693"
d="M93 698h507v-698h-84v624h-339v-624h-84v698z" />
    <glyph glyph-name="uni0420" unicode="&#x420;" horiz-adv-x="606"
d="M93 0v698h278q94 0 144.5 -53.5t50.5 -146.5t-50.5 -146.5t-144.5 -53.5h-194v-298h-84zM177 372h194q50 0 77.5 26t27.5 74v52q0 48 -27.5 74t-77.5 26h-194v-252z" />
    <glyph glyph-name="uni0421" unicode="&#x421;" horiz-adv-x="621"
d="M339 -12q-133 0 -207 90.5t-74 266.5t74 270.5t207 94.5q88 0 147.5 -40t92.5 -113l-68 -41q-21 54 -64 86.5t-108 32.5q-45 0 -80.5 -17t-60 -48.5t-37.5 -75t-13 -97.5v-104q0 -108 50 -169t141 -61q67 0 112 34.5t66 91.5l67 -42q-33 -74 -95 -116.5t-150 -42.5z" />
    <glyph glyph-name="uni0422" unicode="&#x422;" horiz-adv-x="572"
d="M328 624v-624h-84v624h-222v74h528v-74h-222z" />
    <glyph glyph-name="uni0423" unicode="&#x423;" horiz-adv-x="595"
d="M144 74h101l33 83l-258 541h91l151 -318l52 -121h5l44 123l126 316h86l-244 -609q-11 -27 -22 -44.5t-26 -27t-35.5 -13.5t-48.5 -4h-55v74z" />
    <glyph glyph-name="uni0424" unicode="&#x424;" horiz-adv-x="844"
d="M380 61h-31q-71 0 -126.5 22t-94 60t-58.5 90.5t-20 114.5q0 61 20.5 114t59 91t94 60t126.5 22h30v90h84v-90h30q70 0 126 -22t94.5 -60t59 -91t20.5 -114q0 -62 -20.5 -114.5t-59 -90.5t-94.5 -60t-126 -22h-30v-90h-84v90zM382 131v434h-32q-47 0 -85.5 -14t-66.5 -39
t-43 -59t-15 -74v-62q0 -40 15 -74t42.5 -59t66 -39t85.5 -14h33zM494 131q47 0 85.5 14t66.5 39t43 59t15 74v62q0 40 -15 74t-43 59t-66.5 39t-85.5 14h-32v-434h32z" />
    <glyph glyph-name="uni0425" unicode="&#x425;" horiz-adv-x="613"
d="M589 0h-101l-183 293h-2l-183 -293h-96l228 355l-222 343h101l175 -278h2l179 278h96l-224 -340z" />
    <glyph glyph-name="uni0426" unicode="&#x426;" horiz-adv-x="730"
d="M621 0h-528v698h84v-624h339v624h84v-624h98v-224h-77v150z" />
    <glyph glyph-name="uni0427" unicode="&#x427;" horiz-adv-x="645"
d="M468 275h-5q-27 -11 -67 -17t-87 -6q-130 0 -190.5 60.5t-60.5 187.5v198h84v-198q0 -92 42.5 -133t127.5 -41q50 0 90 6t66 17v349h84v-698h-84v275z" />
    <glyph glyph-name="uni0428" unicode="&#x428;" horiz-adv-x="956"
d="M93 698h84v-624h259v624h84v-624h259v624h84v-698h-770v698z" />
    <glyph glyph-name="uni0429" unicode="&#x429;" horiz-adv-x="993"
d="M884 0h-791v698h84v-624h259v624h84v-624h259v624h84v-624h98v-224h-77v150z" />
    <glyph glyph-name="uni042A" unicode="&#x42a;" horiz-adv-x="741"
d="M204 624h-182v74h266v-280h218q94 0 144.5 -54.5t50.5 -154.5t-50.5 -154.5t-144.5 -54.5h-302v624zM506 74q50 0 77.5 27t27.5 82v52q0 55 -27.5 82t-77.5 27h-218v-270h218z" />
    <glyph glyph-name="uni042B" unicode="&#x42b;" horiz-adv-x="875"
d="M93 698h84v-280h208q94 0 144.5 -54.5t50.5 -154.5t-50.5 -154.5t-144.5 -54.5h-292v698zM385 74q50 0 77.5 27t27.5 82v52q0 55 -27.5 82t-77.5 27h-208v-270h208zM698 698h84v-698h-84v698z" />
    <glyph glyph-name="uni042C" unicode="&#x42c;" horiz-adv-x="630"
d="M93 698h84v-280h218q94 0 144.5 -54.5t50.5 -154.5t-50.5 -154.5t-144.5 -54.5h-302v698zM395 74q50 0 77.5 27t27.5 82v52q0 55 -27.5 82t-77.5 27h-218v-270h218z" />
    <glyph glyph-name="uni042D" unicode="&#x42d;" horiz-adv-x="631"
d="M189 390h294v15q0 108 -50 169t-146 61q-69 0 -112.5 -32.5t-64.5 -86.5l-68 41q33 73 93.5 113t151.5 40q138 0 212 -90.5t74 -266.5t-74 -270.5t-212 -94.5q-93 0 -155 42.5t-95 116.5l67 42q21 -57 66 -91.5t117 -34.5q48 0 84.5 17t61 48.5t37.5 75.5t13 98v14h-294
v74z" />
    <glyph glyph-name="uni042E" unicode="&#x42e;" horiz-adv-x="960"
d="M616 -12q-133 0 -205.5 83.5t-80.5 244.5h-153v-316h-84v698h84v-308h155q6 157 81 238.5t203 81.5q135 0 210.5 -90.5t75.5 -270.5t-75.5 -270.5t-210.5 -90.5zM616 63q91 0 143.5 59.5t52.5 168.5v116q0 109 -52.5 168.5t-143.5 59.5t-143.5 -59.5t-52.5 -168.5v-116
q0 -109 52.5 -168.5t143.5 -59.5z" />
    <glyph glyph-name="uni042F" unicode="&#x42f;" horiz-adv-x="640"
d="M41 74h60l86 167q8 16 15 27t14.5 19t17 13t21.5 8v5q-47 1 -81.5 15.5t-56.5 39t-32.5 58.5t-10.5 74q0 97 51 147.5t144 50.5h278v-698h-84v300h-153l-118 -230q-21 -41 -40.5 -55.5t-48.5 -14.5h-62v74zM463 372v252h-194q-51 0 -78 -26t-27 -74v-52q0 -48 27 -74
t78 -26h194z" />
    <glyph glyph-name="uni0430" unicode="&#x430;" horiz-adv-x="534"
d="M460 0q-45 0 -64.5 24t-24.5 60h-5q-17 -48 -56 -72t-93 -24q-82 0 -127.5 42t-45.5 114q0 73 53.5 112t166.5 39h102v51q0 55 -30 84t-92 29q-47 0 -78.5 -21t-52.5 -56l-48 45q21 42 67 71.5t116 29.5q94 0 146 -46t52 -128v-284h59v-70h-45zM230 56q30 0 55 7t43 20
t28 30t10 37v85h-106q-69 0 -100.5 -20t-31.5 -58v-21q0 -38 27.5 -59t74.5 -21z" />
    <glyph glyph-name="uni0431" unicode="&#x431;" horiz-adv-x="564"
d="M284 -12q-54 0 -97 18t-73 56t-46.5 98.5t-16.5 146.5q0 111 14.5 190t46.5 130t81.5 76.5t120.5 31.5l162 13v-81l-172 -14q-44 -4 -74 -17t-49.5 -40.5t-30 -72.5t-15.5 -112h4q23 53 59.5 79t96.5 26q49 0 90 -18t70 -51.5t45.5 -83t16.5 -112.5q0 -59 -17 -107
t-48 -83t-73.5 -54t-94.5 -19zM288 59q31 0 57 10t45 30t30 49t11 68v63q0 84 -41 125t-110 41q-72 0 -107.5 -35.5t-35.5 -92.5v-92q0 -84 41 -125t110 -41z" />
    <glyph glyph-name="uni0432" unicode="&#x432;" horiz-adv-x="558"
d="M85 516h260q63 0 99 -35.5t36 -95.5q0 -97 -101 -109v-4q60 -5 89.5 -37.5t29.5 -80.5q0 -31 -9.5 -59t-27.5 -49t-44 -33.5t-59 -12.5h-273v516zM334 66q36 0 57 19t21 54v23q0 35 -21 54t-57 19h-169v-169h169zM324 300q33 0 51.5 16.5t18.5 47.5v22q0 31 -18.5 47.5
t-51.5 16.5h-159v-150h159z" />
    <glyph glyph-name="uni0433" unicode="&#x433;" horiz-adv-x="435"
d="M85 516h326v-70h-246v-446h-80v516z" />
    <glyph glyph-name="uni0434" unicode="&#x434;" horiz-adv-x="597"
d="M8 70h59q31 50 50 125t19 172v149h349v-446h86v-210h-73v140h-417v-140h-73v210zM405 70v376h-193v-83q0 -103 -17.5 -175.5t-41.5 -117.5h252z" />
    <glyph glyph-name="uni0435" unicode="&#x435;" horiz-adv-x="549"
d="M279 -12q-53 0 -95.5 19t-73 54.5t-47 85t-16.5 111.5q0 61 16.5 111t47 85.5t73 54.5t95.5 19q52 0 93 -19t70 -52.5t44.5 -79.5t15.5 -101v-38h-371v-24q0 -33 10.5 -61.5t30 -49.5t48 -33t64.5 -12q49 0 85.5 23t56.5 66l57 -41q-25 -53 -78 -85.5t-126 -32.5z
M279 461q-33 0 -60 -11.5t-46.5 -32.5t-30.5 -49.5t-11 -62.5v-7h285v11q0 69 -37.5 110.5t-99.5 41.5z" />
    <glyph glyph-name="uni0436" unicode="&#x436;" horiz-adv-x="770"
d="M40 70h60l58 139q11 26 27 39t36 16v4q-20 6 -35 20t-26 39l-53 119h-60v70h47q30 0 52.5 -15t37.5 -48l69 -153h92v216h80v-216h92l69 153q15 33 37.5 48t52.5 15h47v-70h-60l-53 -119q-11 -25 -26 -39t-35 -20v-4q20 -3 36 -16t27 -39l58 -139h60v-70h-57
q-27 0 -49 14.5t-39 55.5l-68 162h-92v-232h-80v232h-92l-68 -162q-17 -41 -39 -55.5t-49 -14.5h-57v70z" />
    <glyph glyph-name="uni0437" unicode="&#x437;" horiz-adv-x="501"
d="M231 -12q-79 0 -126 27t-77 77l60 48q20 -38 55.5 -59.5t87.5 -21.5q63 0 93.5 23t30.5 59v12q0 39 -26.5 59.5t-74.5 20.5h-110v67h100q48 0 74 19t26 54v12q0 33 -26.5 52.5t-88.5 19.5q-51 0 -84 -20.5t-53 -55.5l-53 45q24 45 70.5 73.5t123.5 28.5q101 0 149 -37
t48 -102q0 -48 -25.5 -76t-73.5 -39v-4q55 -8 82.5 -39.5t27.5 -80.5q0 -75 -56.5 -118.5t-153.5 -43.5z" />
    <glyph glyph-name="uni0438" unicode="&#x438;" horiz-adv-x="588"
d="M85 516h78v-286l-8 -124h4l64 110l206 300h74v-516h-78v286l8 124h-4l-64 -110l-206 -300h-74v516z" />
    <glyph glyph-name="uni0439" unicode="&#x439;" horiz-adv-x="588"
d="M85 516h78v-286l-8 -124h4l64 110l206 300h74v-516h-78v286l8 124h-4l-64 -110l-206 -300h-74v516zM296 596q-54 0 -86 21.5t-51 56.5l-20 38l70 31l35 -82q12 -3 26 -4.5t26 -1.5t26 1.5t26 4.5l35 82l70 -31l-20 -38q-19 -35 -51 -56.5t-86 -21.5z" />
    <glyph glyph-name="uni043A" unicode="&#x43a;" horiz-adv-x="550"
d="M85 516h80v-216h103l100 158q11 18 21 29.5t20 17.5t21 8.5t25 2.5h47v-70h-62l-81 -128q-8 -13 -14 -21t-12 -13.5t-13 -9t-17 -6.5v-4q21 -3 36.5 -13.5t32.5 -40.5l79 -140h59v-70h-58q-26 0 -47.5 13.5t-41.5 49.5l-95 169h-103v-232h-80v516z" />
    <glyph glyph-name="uni043B" unicode="&#x43b;" horiz-adv-x="565"
d="M8 70h68q13 18 23 43t17 60t11 83t4 113v147h349v-516h-80v446h-193v-79q0 -75 -5.5 -131t-15 -96t-22.5 -65.5t-28 -40.5q-19 -19 -42 -26.5t-55 -7.5h-31v70z" />
    <glyph glyph-name="uni043C" unicode="&#x43c;" horiz-adv-x="696"
d="M85 516h105l157 -268h4l156 268h104v-516h-78v420h-5l-29 -56l-151 -256l-151 256l-29 56h-5v-420h-78v516z" />
    <glyph glyph-name="uni043D" unicode="&#x43d;" horiz-adv-x="588"
d="M85 516h80v-215h258v215h80v-516h-80v231h-258v-231h-80v516z" />
    <glyph glyph-name="uni043E" unicode="&#x43e;" horiz-adv-x="560"
d="M280 -12q-52 0 -95 19t-73.5 54.5t-47.5 85t-17 111.5q0 61 17 111t47.5 85.5t73.5 54.5t95 19t94.5 -19t73.5 -54.5t48 -85.5t17 -111q0 -62 -17 -111.5t-48 -85t-73.5 -54.5t-94.5 -19zM280 59q65 0 106 40t41 122v74q0 82 -41 122t-106 40t-106 -40t-41 -122v-74
q0 -82 41 -122t106 -40z" />
    <glyph glyph-name="uni043F" unicode="&#x43f;" horiz-adv-x="573"
d="M85 516h403v-516h-80v446h-243v-446h-80v516z" />
    <glyph glyph-name="uni0440" unicode="&#x440;" horiz-adv-x="580"
d="M85 516h80v-84h4q20 49 58.5 72.5t92.5 23.5q48 0 87 -19t66.5 -54t42 -85t14.5 -112t-14.5 -112t-42 -85t-66.5 -54t-87 -19q-105 0 -151 96h-4v-284h-80v716zM298 60q68 0 107 42.5t39 111.5v88q0 69 -39 111.5t-107 42.5q-27 0 -51.5 -7.5t-42.5 -20.5t-28.5 -31.5
t-10.5 -39.5v-192q0 -25 10.5 -44.5t28.5 -33t42.5 -20.5t51.5 -7z" />
    <glyph glyph-name="uni0441" unicode="&#x441;" horiz-adv-x="503"
d="M277 -12q-54 0 -97 19t-72.5 54t-45 85t-15.5 112t15.5 112t45 85t72.5 54t97 19q77 0 123.5 -33.5t69.5 -87.5l-67 -34q-14 40 -46 62t-80 22q-36 0 -63 -11.5t-45 -32t-27 -49t-9 -62.5v-88q0 -68 36.5 -111.5t107.5 -43.5q97 0 140 90l58 -39q-25 -56 -74.5 -89
t-123.5 -33z" />
    <glyph glyph-name="uni0442" unicode="&#x442;" horiz-adv-x="472"
d="M196 446h-176v70h432v-70h-176v-446h-80v446z" />
    <glyph glyph-name="uni0443" unicode="&#x443;" horiz-adv-x="499"
d="M403 516h79l-231 -636q-9 -23 -18 -38.5t-22 -24.5t-32.5 -13t-47.5 -4h-41v70h81l39 110l-193 536h80l124 -351l24 -84h5l28 84z" />
    <glyph glyph-name="uni0444" unicode="&#x444;" horiz-adv-x="750"
d="M335 54h-3q-20 -30 -46 -48t-64 -18q-87 0 -129 65.5t-42 204.5t42 204.5t129 65.5q38 0 64 -18t46 -48h3v248h80v-248h3q20 30 46 48t64 18q87 0 129 -65.5t42 -204.5t-42 -204.5t-129 -65.5q-38 0 -64 18t-46 48h-3v-254h-80v254zM243 59q93 0 93 70v258q0 70 -93 70
q-56 0 -81 -35.5t-25 -119.5v-88q0 -84 25 -119.5t81 -35.5zM507 59q55 0 80.5 35.5t25.5 119.5v88q0 84 -25.5 119.5t-80.5 35.5q-93 0 -93 -70v-258q0 -70 93 -70z" />
    <glyph glyph-name="uni0445" unicode="&#x445;" horiz-adv-x="507"
d="M21 0l191 260l-183 256h94l131 -192h3l136 192h89l-182 -250l186 -266h-94l-134 202h-3l-145 -202h-89z" />
    <glyph glyph-name="uni0446" unicode="&#x446;"
d="M501 0h-416v516h80v-446h243v446h80v-446h86v-210h-73v140z" />
    <glyph glyph-name="uni0447" unicode="&#x447;" horiz-adv-x="538"
d="M373 237h-5q-24 -27 -59 -44.5t-92 -17.5q-79 0 -123 39.5t-44 119.5v182h80v-175q0 -94 111 -94q57 0 94.5 15.5t37.5 47.5v206h80v-516h-80v237z" />
    <glyph glyph-name="uni0448" unicode="&#x448;" horiz-adv-x="798"
d="M85 516h80v-446h194v446h80v-446h194v446h80v-516h-628v516z" />
    <glyph glyph-name="uni0449" unicode="&#x449;" horiz-adv-x="825"
d="M726 0h-641v516h80v-446h194v446h80v-446h194v446h80v-446h86v-210h-73v140z" />
    <glyph glyph-name="uni044A" unicode="&#x44a;" horiz-adv-x="590"
d="M155 446h-135v70h215v-187h147q78 0 124 -44t46 -120q0 -78 -45 -121.5t-124 -43.5h-228v446zM371 70q45 0 70 17t25 57v42q0 40 -25 56.5t-70 16.5h-136v-189h136z" />
    <glyph glyph-name="uni044B" unicode="&#x44b;" horiz-adv-x="724"
d="M85 516h80v-187h137q78 0 124 -44t46 -121q0 -78 -45 -121t-124 -43h-218v516zM291 70q45 0 70 17t25 57v42q0 40 -25 56.5t-70 16.5h-126v-189h126zM559 516h80v-516h-80v516z" />
    <glyph glyph-name="uni044C" unicode="&#x44c;" horiz-adv-x="520"
d="M85 516h80v-187h147q78 0 124 -44t46 -121q0 -78 -45 -121t-124 -43h-228v516zM301 70q45 0 70 17t25 57v42q0 40 -25 56.5t-70 16.5h-136v-189h136z" />
    <glyph glyph-name="uni044D" unicode="&#x44d;" horiz-adv-x="511"
d="M154 294h224v8q0 69 -36.5 112t-111.5 43q-53 0 -88 -22.5t-56 -67.5l-58 39q25 56 74.5 89t127.5 33q56 0 99.5 -19t73.5 -54t45.5 -85t15.5 -112t-15.5 -112t-45.5 -85t-73.5 -54t-99.5 -19q-81 0 -127.5 33.5t-69.5 87.5l67 34q14 -40 46 -62t84 -22q75 0 111.5 43
t36.5 112v13h-224v67z" />
    <glyph glyph-name="uni044E" unicode="&#x44e;" horiz-adv-x="781"
d="M508 -12q-98 0 -158.5 64t-67.5 180h-117v-232h-80v516h80v-216h119q10 109 69.5 168.5t154.5 59.5q51 0 93 -18.5t71.5 -53t45.5 -84.5t16 -114t-16 -114t-45.5 -84.5t-71.5 -53t-93 -18.5zM508 59q64 0 102 38t38 124v74q0 86 -38 124t-102 38t-102 -38t-38 -124v-74
q0 -86 38 -124t102 -38z" />
    <glyph glyph-name="uni044F" unicode="&#x44f;" horiz-adv-x="535"
d="M39 70h57l33 76q11 26 27 39.5t36 16.5v4q-69 6 -104 45t-35 105q0 75 45 117.5t124 42.5h228v-516h-80v198h-134l-54 -127q-18 -42 -39.5 -56.5t-48.5 -14.5h-55v70zM370 266v180h-136q-45 0 -70 -17t-25 -57v-33q0 -40 25 -56.5t70 -16.5h136z" />
    <glyph glyph-name="uni0450" unicode="&#x450;" horiz-adv-x="549"
d="M279 -12q-53 0 -95.5 19t-73 54.5t-47 85t-16.5 111.5q0 61 16.5 111t47 85.5t73 54.5t95.5 19q52 0 93 -19t70 -52.5t44.5 -79.5t15.5 -101v-38h-371v-24q0 -33 10.5 -61.5t30 -49.5t48 -33t64.5 -12q49 0 85.5 23t56.5 66l57 -41q-25 -53 -78 -85.5t-126 -32.5z
M279 461q-33 0 -60 -11.5t-46.5 -32.5t-30.5 -49.5t-11 -62.5v-7h285v11q0 69 -37.5 110.5t-99.5 41.5zM167 744l73 35l85 -170l-52 -24z" />
    <glyph glyph-name="uni0451" unicode="&#x451;" horiz-adv-x="549"
d="M279 -12q-53 0 -95.5 19t-73 54.5t-47 85t-16.5 111.5q0 61 16.5 111t47 85.5t73 54.5t95.5 19q52 0 93 -19t70 -52.5t44.5 -79.5t15.5 -101v-38h-371v-24q0 -33 10.5 -61.5t30 -49.5t48 -33t64.5 -12q49 0 85.5 23t56.5 66l57 -41q-25 -53 -78 -85.5t-126 -32.5z
M279 461q-33 0 -60 -11.5t-46.5 -32.5t-30.5 -49.5t-11 -62.5v-7h285v11q0 69 -37.5 110.5t-99.5 41.5zM187 618q-26 0 -37.5 12.5t-11.5 33.5v11q0 21 11.5 33.5t37.5 12.5t37.5 -12.5t11.5 -33.5v-11q0 -21 -11.5 -33.5t-37.5 -12.5zM373 618q-26 0 -37.5 12.5t-11.5 33.5
v11q0 21 11.5 33.5t37.5 12.5t37.5 -12.5t11.5 -33.5v-11q0 -21 -11.5 -33.5t-37.5 -12.5z" />
    <glyph glyph-name="uni0452" unicode="&#x452;" horiz-adv-x="568"
d="M324 -130h84v447q0 139 -117 139q-24 0 -46.5 -6t-40.5 -18t-28.5 -30.5t-10.5 -43.5v-358h-80v608h-64v62h64v70h80v-70h150v-62h-150v-176h4q19 44 53.5 70t92.5 26q80 0 126.5 -51.5t46.5 -145.5v-413q0 -54 -27 -86t-84 -32h-53v70z" />
    <glyph glyph-name="uni0453" unicode="&#x453;" horiz-adv-x="435"
d="M85 516h326v-70h-246v-446h-80v516zM257 585l-52 24l85 170l73 -35z" />
    <glyph glyph-name="uni0454" unicode="&#x454;" horiz-adv-x="511"
d="M281 -12q-57 0 -100.5 19t-73 54t-45 85t-15.5 112t15.5 112t45 85t73 54t100.5 19q80 0 127 -33.5t70 -87.5l-67 -34q-14 40 -46.5 62t-83.5 22q-38 0 -66 -11.5t-46 -32t-27 -49t-9 -62.5v-8h224v-67h-224v-13q0 -34 9 -62.5t27 -49t46 -32t66 -11.5q101 0 144 90
l58 -39q-25 -56 -75 -89t-127 -33z" />
    <glyph glyph-name="uni0455" unicode="&#x455;" horiz-adv-x="487"
d="M240 -12q-72 0 -120.5 27.5t-83.5 73.5l57 46q30 -38 67 -58.5t86 -20.5q51 0 79.5 22t28.5 62q0 30 -19.5 51.5t-70.5 29.5l-41 6q-36 5 -66 15.5t-52.5 28t-35 43.5t-12.5 62q0 38 14 66.5t38.5 47.5t58.5 28.5t73 9.5q63 0 105.5 -22t74.5 -61l-53 -48
q-17 24 -50 43.5t-83 19.5t-75.5 -21.5t-25.5 -58.5q0 -38 25.5 -55t73.5 -25l40 -6q86 -13 122 -49.5t36 -95.5q0 -75 -51 -118t-140 -43z" />
    <glyph glyph-name="uni0456" unicode="&#x456;" horiz-adv-x="250"
d="M125 637q-26 0 -37.5 12.5t-11.5 32.5v13q0 20 11.5 32.5t37.5 12.5t37.5 -12.5t11.5 -32.5v-13q0 -20 -11.5 -32.5t-37.5 -12.5zM85 516h80v-516h-80v516z" />
    <glyph glyph-name="uni0457" unicode="&#x457;" horiz-adv-x="250"
d="M85 0v516h80v-516h-80zM33 618q-26 0 -37.5 12.5t-11.5 33.5v11q0 21 11.5 33.5t37.5 12.5t37.5 -12.5t11.5 -33.5v-11q0 -21 -11.5 -33.5t-37.5 -12.5zM219 618q-26 0 -37.5 12.5t-11.5 33.5v11q0 21 11.5 33.5t37.5 12.5t37.5 -12.5t11.5 -33.5v-11q0 -21 -11.5 -33.5
t-37.5 -12.5z" />
    <glyph glyph-name="uni0458" unicode="&#x458;" horiz-adv-x="250"
d="M85 516h80v-596q0 -54 -27 -87t-85 -33h-52v70h84v646zM125 637q-26 0 -37.5 12.5t-11.5 32.5v13q0 20 11.5 32.5t37.5 12.5t37.5 -12.5t11.5 -32.5v-13q0 -20 -11.5 -32.5t-37.5 -12.5z" />
    <glyph glyph-name="uni0459" unicode="&#x459;" horiz-adv-x="805"
d="M8 70h68q13 18 23 43t17 60t11 83t4 113v147h329v-187h137q78 0 124 -44t46 -121q0 -78 -45 -121t-124 -43h-218v446h-173v-79q0 -75 -5.5 -131t-15 -96t-22.5 -65.5t-28 -40.5q-19 -19 -42 -26.5t-55 -7.5h-31v70zM586 70q45 0 70 17t25 57v42q0 40 -25 56.5t-70 16.5
h-126v-189h126z" />
    <glyph glyph-name="uni045A" unicode="&#x45a;" horiz-adv-x="832"
d="M85 516h80v-215h242v215h80v-187h137q78 0 124 -44t46 -121q0 -78 -45 -121t-124 -43h-218v231h-242v-231h-80v516zM613 70q45 0 70 17t25 57v42q0 40 -25 56.5t-70 16.5h-126v-189h126z" />
    <glyph glyph-name="uni045B" unicode="&#x45b;" horiz-adv-x="568"
d="M85 0v608h-64v62h64v70h80v-70h150v-62h-150v-176h4q19 44 53.5 70t92.5 26q80 0 126.5 -51.5t46.5 -145.5v-331h-80v317q0 139 -117 139q-24 0 -46.5 -6t-40.5 -18t-28.5 -30.5t-10.5 -43.5v-358h-80z" />
    <glyph glyph-name="uni045C" unicode="&#x45c;" horiz-adv-x="550"
d="M85 516h80v-216h103l100 158q11 18 21 29.5t20 17.5t21 8.5t25 2.5h47v-70h-62l-81 -128q-8 -13 -14 -21t-12 -13.5t-13 -9t-17 -6.5v-4q21 -3 36.5 -13.5t32.5 -40.5l79 -140h59v-70h-58q-26 0 -47.5 13.5t-41.5 49.5l-95 169h-103v-232h-80v516zM287 585l-52 24l85 170
l73 -35z" />
    <glyph glyph-name="uni045D" unicode="&#x45d;" horiz-adv-x="588"
d="M85 516h78v-286l-8 -124h4l64 110l206 300h74v-516h-78v286l8 124h-4l-64 -110l-206 -300h-74v516zM183 744l73 35l85 -170l-52 -24z" />
    <glyph glyph-name="uni045E" unicode="&#x45e;" horiz-adv-x="499"
d="M403 516h79l-231 -636q-9 -23 -18 -38.5t-22 -24.5t-32.5 -13t-47.5 -4h-41v70h81l39 110l-193 536h80l124 -351l24 -84h5l28 84zM251 596q-54 0 -86 21.5t-51 56.5l-20 38l70 31l35 -82q12 -3 26 -4.5t26 -1.5t26 1.5t26 4.5l35 82l70 -31l-20 -38q-19 -35 -51 -56.5
t-86 -21.5z" />
    <glyph glyph-name="uni045F" unicode="&#x45f;" horiz-adv-x="573"
d="M250 0h-165v516h80v-446h243v446h80v-516h-165v-140h-73v140z" />
    <glyph glyph-name="uni0472" unicode="&#x472;" horiz-adv-x="708"
d="M354 -12q-68 0 -122.5 23.5t-93 69t-59.5 113t-21 155.5t21 155t59.5 113t93 69.5t122.5 23.5q67 0 122 -23.5t93.5 -69.5t59.5 -113t21 -155t-21 -155.5t-59.5 -113t-93.5 -69t-122 -23.5zM354 63q45 0 83 16t65.5 46t42.5 72t15 94v25h-412v-25q0 -52 15 -94t42.5 -72
t65.5 -46t83 -16zM148 390h412v17q0 52 -15 94t-42.5 72t-65.5 46t-83 16t-83 -16t-65.5 -46t-42.5 -72t-15 -94v-17z" />
    <glyph glyph-name="uni0473" unicode="&#x473;" horiz-adv-x="560"
d="M280 -12q-52 0 -95 19t-73.5 54.5t-47.5 85t-17 111.5q0 61 17 111t47.5 85.5t73.5 54.5t95 19t94.5 -19t73.5 -54.5t48 -85.5t17 -111q0 -62 -17 -111.5t-48 -85t-73.5 -54.5t-94.5 -19zM280 59q66 0 106.5 40t40.5 122v10h-294v-10q0 -82 40.5 -122t106.5 -40zM133 293
h294v2q0 82 -40.5 122t-106.5 40t-106.5 -40t-40.5 -122v-2z" />
    <glyph glyph-name="uni0490" unicode="&#x490;" horiz-adv-x="499"
d="M93 698h303v150h77v-224h-296v-624h-84v698z" />
    <glyph glyph-name="uni0491" unicode="&#x491;" horiz-adv-x="435"
d="M85 516h253v140h73v-210h-246v-446h-80v516z" />
    <glyph glyph-name="uni0492" unicode="&#x492;" horiz-adv-x="519"
d="M113 338h-99v64h99v296h380v-74h-296v-222h198v-64h-198v-338h-84v338z" />
    <glyph glyph-name="uni0493" unicode="&#x493;" horiz-adv-x="453"
d="M103 230h-74v62h74v224h326v-70h-246v-154h164v-62h-164v-230h-80v230z" />
    <glyph glyph-name="uni0494" unicode="&#x494;" horiz-adv-x="635"
d="M340 -90h84q32 21 50.5 63.5t18.5 110.5v70q0 92 -42 133t-123 41q-47 0 -86 -6t-65 -17v-305h-84v698h380v-74h-296v-245h5q27 11 66 17t83 6q126 0 186 -60.5t60 -187.5v-70q0 -60 -14 -106.5t-39.5 -78t-60.5 -47.5t-77 -16h-46v74z" />
    <glyph glyph-name="uni0495" unicode="&#x495;" horiz-adv-x="538"
d="M291 -130h86q14 17 22.5 49.5t8.5 91.5v95q0 68 -25.5 94.5t-85.5 26.5q-57 0 -94.5 -15.5t-37.5 -47.5v-164h-80v516h326v-70h-246v-209h5q24 27 59 44.5t92 17.5q82 0 124.5 -42.5t42.5 -143.5v-114q0 -103 -38.5 -151t-106.5 -48h-52v70z" />
    <glyph glyph-name="uni0496" unicode="&#x496;" horiz-adv-x="986"
d="M894 0h-22q-29 0 -51 15.5t-43 57.5l-124 244h-123v-317h-84v317h-123l-126 -244q-22 -42 -42.5 -57.5t-49.5 -15.5h-64v74h63l108 209q17 34 33.5 48t39.5 20v5q-20 6 -36.5 20.5t-30.5 44.5l-94 203h-63v74h52q32 0 56.5 -16t43.5 -56l110 -237h123v309h84v-309h123
l112 237q19 40 42.5 56t55.5 16h52v-74h-63l-96 -203q-14 -30 -29.5 -44.5t-35.5 -20.5v-5q23 -6 40.5 -20t34.5 -48l106 -209h98v-224h-77v150z" />
    <glyph glyph-name="uni0497" unicode="&#x497;" horiz-adv-x="775"
d="M683 0h-10q-27 0 -49 14t-39 56l-68 162h-92v-232h-80v232h-92l-68 -162q-17 -42 -39 -56t-49 -14h-57v70h60l58 139q11 26 27 39t36 16v4q-20 6 -35 20t-26 39l-53 119h-60v70h47q30 0 52.5 -15t37.5 -48l69 -153h92v216h80v-216h92l69 153q15 33 37.5 48t52.5 15h47
v-70h-60l-53 -119q-11 -25 -26 -39t-35 -20v-4q20 -3 36 -16t27 -39l58 -139h86v-210h-73v140z" />
    <glyph glyph-name="uni0498" unicode="&#x498;" horiz-adv-x="593"
d="M246 -10q-69 6 -121.5 38.5t-87.5 83.5l61 49q32 -47 75.5 -72.5t107.5 -25.5q75 0 117 30.5t42 94.5v13q0 54 -36 86.5t-114 32.5h-105v74h99q74 0 107 30t33 90v14q0 51 -33.5 79t-102.5 28q-63 0 -102 -22t-63 -58l-65 42q38 54 91 83.5t139 29.5q114 0 170 -50
t56 -133q0 -72 -35.5 -112t-97.5 -53v-5q31 -4 58 -15t47 -31t32 -49.5t12 -68.5q0 -85 -54.5 -138.5t-152.5 -64.5v-140h-77v140z" />
    <glyph glyph-name="uni0499" unicode="&#x499;" horiz-adv-x="501"
d="M195 -10q-63 6 -102 32t-65 70l60 48q20 -38 55.5 -59.5t87.5 -21.5q63 0 93.5 23t30.5 59v12q0 39 -26.5 59.5t-74.5 20.5h-110v67h100q48 0 74 19t26 54v12q0 33 -26.5 52.5t-88.5 19.5q-51 0 -84 -20.5t-53 -55.5l-53 45q24 45 70.5 73.5t123.5 28.5q101 0 149 -37
t48 -102q0 -48 -25.5 -76t-73.5 -39v-4q55 -8 82.5 -39.5t27.5 -80.5q0 -67 -46.5 -109.5t-126.5 -50.5v-130h-73v130z" />
    <glyph glyph-name="uni049A" unicode="&#x49a;" horiz-adv-x="670"
d="M580 0h-22q-24 0 -46 13.5t-45 51.5l-154 252h-136v-317h-84v698h84v-309h136l140 239q23 38 45 54t54 16h46v-74h-63l-124 -212q-18 -30 -29.5 -40t-29.5 -16v-5q23 -5 40 -17t37 -47l130 -213h98v-224h-77v150z" />
    <glyph glyph-name="uni049B" unicode="&#x49b;" horiz-adv-x="556"
d="M464 0h-12q-26 0 -47.5 13.5t-41.5 49.5l-95 169h-103v-232h-80v516h80v-216h103l100 158q11 18 21 29.5t20 17.5t21 8.5t25 2.5h47v-70h-62l-81 -128q-8 -13 -14 -21t-12 -13.5t-13 -9t-17 -6.5v-4q21 -3 36.5 -13.5t32.5 -40.5l79 -140h86v-210h-73v140z" />
    <glyph glyph-name="uni049C" unicode="&#x49c;" horiz-adv-x="692"
d="M93 698h84v-309h57v154h64v-154h55l130 238q22 40 44.5 55.5t54.5 15.5h46v-74h-63l-117 -214q-15 -28 -26.5 -38t-29.5 -16v-5q23 -5 39 -17.5t35 -45.5l123 -214h61v-74h-62q-27 0 -49 15.5t-43 52.5l-143 249h-55v-154h-64v154h-57v-317h-84v698z" />
    <glyph glyph-name="uni049D" unicode="&#x49d;" horiz-adv-x="580"
d="M85 516h80v-216h44v118h60v-118h39l90 158q21 37 40.5 47.5t46.5 10.5h47v-70h-62l-74 -128q-15 -26 -25.5 -35.5t-27.5 -14.5v-4q23 -3 37 -13t30 -41l71 -140h59v-70h-58q-26 0 -47.5 13t-40.5 50l-86 169h-39v-117h-60v117h-44v-232h-80v516z" />
    <glyph glyph-name="uni04A0" unicode="&#x4a0;" horiz-adv-x="773"
d="M204 624h-182v74h266v-309h136l140 239q23 38 45 54t54 16h46v-74h-63l-124 -212q-18 -30 -29.5 -40t-29.5 -16v-5q23 -5 40 -17t37 -47l130 -213h61v-74h-62q-24 0 -46 13.5t-45 51.5l-154 252h-136v-317h-84v624z" />
    <glyph glyph-name="uni04A1" unicode="&#x4a1;" horiz-adv-x="620"
d="M155 446h-135v70h215v-216h103l100 158q11 18 21 29.5t20 17.5t21 8.5t25 2.5h47v-70h-62l-81 -128q-8 -13 -14 -21t-12 -13.5t-13 -9t-17 -6.5v-4q21 -3 36.5 -13.5t32.5 -40.5l79 -140h59v-70h-58q-26 0 -47.5 13.5t-41.5 49.5l-95 169h-103v-232h-80v446z" />
    <glyph glyph-name="uni04A2" unicode="&#x4a2;" horiz-adv-x="744"
d="M635 0h-105v316h-353v-316h-84v698h84v-308h353v308h84v-624h98v-224h-77v150z" />
    <glyph glyph-name="uni04A3" unicode="&#x4a3;" horiz-adv-x="615"
d="M516 0h-93v231h-258v-231h-80v516h80v-215h258v215h80v-446h86v-210h-73v140z" />
    <glyph glyph-name="uni04A4" unicode="&#x4a4;" horiz-adv-x="916"
d="M93 698h84v-308h333v308h380v-74h-296v-624h-84v316h-333v-316h-84v698z" />
    <glyph glyph-name="uni04A5" unicode="&#x4a5;" horiz-adv-x="757"
d="M85 516h80v-215h242v215h326v-70h-246v-446h-80v231h-242v-231h-80v516z" />
    <glyph glyph-name="uni04AA" unicode="&#x4aa;" horiz-adv-x="621"
d="M302 -10q-116 12 -180 102t-64 253q0 176 74 270.5t207 94.5q88 0 147.5 -40t92.5 -113l-68 -41q-21 54 -64 86.5t-108 32.5q-45 0 -80.5 -17t-60 -48.5t-37.5 -75t-13 -97.5v-104q0 -108 50 -169t141 -61q67 0 112 34.5t66 91.5l67 -42q-29 -66 -81 -106.5t-124 -49.5
v-141h-77v140z" />
    <glyph glyph-name="uni04AB" unicode="&#x4ab;" horiz-adv-x="503"
d="M242 -9q-93 11 -144 82.5t-51 184.5q0 62 15.5 112t45 85t72.5 54t97 19q77 0 123.5 -33.5t69.5 -87.5l-67 -34q-14 40 -46 62t-80 22q-36 0 -63 -11.5t-45 -32t-27 -49t-9 -62.5v-88q0 -68 36.5 -111.5t107.5 -43.5q97 0 140 90l58 -39q-22 -48 -62 -79.5t-98 -39.5
v-131h-73v131z" />
    <glyph glyph-name="uni04AE" unicode="&#x4ae;" horiz-adv-x="593"
d="M253 0v276l-240 422h96l186 -336h3l186 336h96l-243 -419v-279h-84z" />
    <glyph glyph-name="uni04AF" unicode="&#x4af;" horiz-adv-x="492"
d="M206 0l-188 516h80l93 -257l53 -165h5l54 165l94 257h77l-188 -516v-200h-80v200z" />
    <glyph glyph-name="uni04B0" unicode="&#x4b0;" horiz-adv-x="593"
d="M253 212h-165v64h165l-240 422h96l187 -337h3l185 337h96l-243 -422h164v-64h-164v-212h-84v212z" />
    <glyph glyph-name="uni04B1" unicode="&#x4b1;" horiz-adv-x="492"
d="M206 -62h-124v62h124l-188 516h80l93 -257l53 -165h5l54 165l94 257h77l-188 -516h124v-62h-124v-138h-80v138z" />
    <glyph glyph-name="uni04B2" unicode="&#x4b2;" horiz-adv-x="644"
d="M562 0h-74l-183 293h-2l-183 -293h-96l228 355l-222 343h101l175 -278h2l179 278h96l-224 -340l182 -284h98v-224h-77v150z" />
    <glyph glyph-name="uni04B3" unicode="&#x4b3;" horiz-adv-x="531"
d="M450 0h-58l-134 202h-3l-145 -202h-89l191 260l-183 256h94l131 -192h3l136 192h89l-182 -250l137 -196h86v-210h-73v140z" />
    <glyph glyph-name="uni04B6" unicode="&#x4b6;" horiz-adv-x="682"
d="M573 0h-105v275h-5q-27 -11 -67 -17t-87 -6q-130 0 -190.5 60.5t-60.5 187.5v198h84v-198q0 -92 42.5 -133t127.5 -41q50 0 90 6t66 17v349h84v-624h98v-224h-77v150z" />
    <glyph glyph-name="uni04B7" unicode="&#x4b7;" horiz-adv-x="565"
d="M466 0h-93v237h-5q-24 -27 -59 -44.5t-92 -17.5q-79 0 -123 39.5t-44 119.5v182h80v-175q0 -94 111 -94q57 0 94.5 15.5t37.5 47.5v206h80v-446h86v-210h-73v140z" />
    <glyph glyph-name="uni04B8" unicode="&#x4b8;" horiz-adv-x="645"
d="M468 275h-5q-48 -18 -125 -23v-140h-64v141q-112 8 -164 68.5t-52 178.5v198h84v-198q0 -81 33 -122.5t99 -49.5v165h64v-167q82 4 130 23v349h84v-698h-84v275z" />
    <glyph glyph-name="uni04B9" unicode="&#x4b9;" horiz-adv-x="538"
d="M373 235h-5q-15 -18 -37.5 -33t-48.5 -21v-92h-60v86q-85 0 -128.5 39.5t-43.5 119.5v182h80v-175q0 -86 92 -93v144h60v-144q41 3 66 19.5t25 42.5v206h80v-516h-80v235z" />
    <glyph glyph-name="uni04BA" unicode="&#x4ba;" horiz-adv-x="645"
d="M93 698h84v-275h5q27 11 67 17t87 6q130 0 190.5 -60.5t60.5 -187.5v-198h-84v198q0 92 -42.5 133t-127.5 41q-50 0 -90 -6t-66 -17v-349h-84v698z" />
    <glyph glyph-name="uni04BB" unicode="&#x4bb;" horiz-adv-x="568"
d="M85 740h80v-308h4q19 44 53.5 70t92.5 26q80 0 126.5 -51.5t46.5 -145.5v-331h-80v317q0 139 -117 139q-24 0 -46.5 -6t-40.5 -18t-28.5 -30.5t-10.5 -43.5v-358h-80v740z" />
    <glyph glyph-name="uni04C0" unicode="&#x4c0;" horiz-adv-x="400"
d="M60 0v70h98v558h-98v70h280v-70h-98v-558h98v-70h-280z" />
    <glyph glyph-name="uni04C1" unicode="&#x4c1;" horiz-adv-x="978"
d="M42 74h63l108 209q17 34 33.5 48t39.5 20v5q-20 6 -36.5 20.5t-30.5 44.5l-94 203h-63v74h52q32 0 56.5 -16t43.5 -56l110 -237h123v309h84v-309h123l112 237q19 40 42.5 56t55.5 16h52v-74h-63l-96 -203q-14 -30 -29.5 -44.5t-35.5 -20.5v-5q23 -6 40.5 -20t34.5 -48
l106 -209h63v-74h-64q-29 0 -51 15.5t-43 57.5l-124 244h-123v-317h-84v317h-123l-126 -244q-22 -42 -42.5 -57.5t-49.5 -15.5h-64v74zM488 766q-54 0 -86 21.5t-51 56.5l-20 38l70 31l35 -82q12 -3 26 -4.5t26 -1.5t26 1.5t26 4.5l35 82l70 -31l-20 -38q-19 -35 -51 -56.5
t-86 -21.5z" />
    <glyph glyph-name="uni04C2" unicode="&#x4c2;" horiz-adv-x="770"
d="M40 70h60l58 139q11 26 27 39t36 16v4q-20 6 -35 20t-26 39l-53 119h-60v70h47q30 0 52.5 -15t37.5 -48l69 -153h92v216h80v-216h92l69 153q15 33 37.5 48t52.5 15h47v-70h-60l-53 -119q-11 -25 -26 -39t-35 -20v-4q20 -3 36 -16t27 -39l58 -139h60v-70h-57
q-27 0 -49 14.5t-39 55.5l-68 162h-92v-232h-80v232h-92l-68 -162q-17 -41 -39 -55.5t-49 -14.5h-57v70zM385 596q-54 0 -86 21.5t-51 56.5l-20 38l70 31l35 -82q12 -3 26 -4.5t26 -1.5t26 1.5t26 4.5l35 82l70 -31l-20 -38q-19 -35 -51 -56.5t-86 -21.5z" />
    <glyph glyph-name="uni04CF" unicode="&#x4cf;" horiz-adv-x="250"
d="M85 740h80v-740h-80v740z" />
    <glyph glyph-name="uni04D0" unicode="&#x4d0;" horiz-adv-x="641"
d="M530 0l-70 206h-282l-70 -206h-85l244 698h107l244 -698h-88zM321 620h-5l-118 -340h241zM321 766q-54 0 -86 21.5t-51 56.5l-20 38l70 31l35 -82q12 -3 26 -4.5t26 -1.5t26 1.5t26 4.5l35 82l70 -31l-20 -38q-19 -35 -51 -56.5t-86 -21.5z" />
    <glyph glyph-name="uni04D1" unicode="&#x4d1;" horiz-adv-x="534"
d="M460 0q-45 0 -64.5 24t-24.5 60h-5q-17 -48 -56 -72t-93 -24q-82 0 -127.5 42t-45.5 114q0 73 53.5 112t166.5 39h102v51q0 55 -30 84t-92 29q-47 0 -78.5 -21t-52.5 -56l-48 45q21 42 67 71.5t116 29.5q94 0 146 -46t52 -128v-284h59v-70h-45zM230 56q30 0 55 7t43 20
t28 30t10 37v85h-106q-69 0 -100.5 -20t-31.5 -58v-21q0 -38 27.5 -59t74.5 -21zM253 596q-54 0 -86 21.5t-51 56.5l-20 38l70 31l35 -82q12 -3 26 -4.5t26 -1.5t26 1.5t26 4.5l35 82l70 -31l-20 -38q-19 -35 -51 -56.5t-86 -21.5z" />
    <glyph glyph-name="uni04D2" unicode="&#x4d2;" horiz-adv-x="641"
d="M530 0l-70 206h-282l-70 -206h-85l244 698h107l244 -698h-88zM321 620h-5l-118 -340h241zM229 788q-26 0 -38 13t-12 34v12q0 21 12 34t38 13t38 -13t12 -34v-12q0 -21 -12 -34t-38 -13zM415 788q-26 0 -38 13t-12 34v12q0 21 12 34t38 13t38 -13t12 -34v-12
q0 -21 -12 -34t-38 -13z" />
    <glyph glyph-name="uni04D3" unicode="&#x4d3;" horiz-adv-x="534"
d="M460 0q-45 0 -64.5 24t-24.5 60h-5q-17 -48 -56 -72t-93 -24q-82 0 -127.5 42t-45.5 114q0 73 53.5 112t166.5 39h102v51q0 55 -30 84t-92 29q-47 0 -78.5 -21t-52.5 -56l-48 45q21 42 67 71.5t116 29.5q94 0 146 -46t52 -128v-284h59v-70h-45zM230 56q30 0 55 7t43 20
t28 30t10 37v85h-106q-69 0 -100.5 -20t-31.5 -58v-21q0 -38 27.5 -59t74.5 -21zM160 618q-26 0 -37.5 12.5t-11.5 33.5v11q0 21 11.5 33.5t37.5 12.5t37.5 -12.5t11.5 -33.5v-11q0 -21 -11.5 -33.5t-37.5 -12.5zM346 618q-26 0 -37.5 12.5t-11.5 33.5v11q0 21 11.5 33.5
t37.5 12.5t37.5 -12.5t11.5 -33.5v-11q0 -21 -11.5 -33.5t-37.5 -12.5z" />
    <glyph glyph-name="uni04D4" unicode="&#x4d4;" horiz-adv-x="907"
d="M417 205h-225l-102 -205h-86l357 698h482v-74h-343v-234h323v-74h-323v-242h343v-74h-426v205zM404 624l-177 -345h190v345h-13z" />
    <glyph glyph-name="uni04D5" unicode="&#x4d5;" horiz-adv-x="864"
d="M260 238q-69 -2 -100.5 -22.5t-31.5 -58.5v-21q0 -38 27.5 -59t75.5 -21q29 0 53.5 7t42.5 20t28.5 30t10.5 37v88h-106zM731 298v11q0 69 -37.5 110.5t-99.5 41.5q-33 0 -60 -11.5t-46.5 -32.5t-30.5 -49.5t-11 -62.5v-7h285zM599 58q99 0 142 88l57 -40
q-25 -54 -76.5 -86t-118.5 -32q-41 0 -74.5 11.5t-58 29t-39.5 38t-19 37.5h-6q-3 -17 -17.5 -37t-38.5 -37.5t-58 -29.5t-77 -12q-78 0 -124.5 41.5t-46.5 112.5q0 75 55 115.5t165 40.5h102v48q0 55 -30 84t-89 29q-50 0 -81 -20t-53 -56l-48 44q20 41 66.5 71t117.5 30
q44 0 73.5 -12.5t48 -30t27.5 -37.5t13 -35h6q4 17 19 37t39 37.5t56.5 29t71.5 11.5q49 0 88.5 -19t67.5 -52.5t43 -79.5t15 -101v-38h-371v-24q0 -33 10.5 -61.5t30 -49.5t48 -33t64.5 -12z" />
    <glyph glyph-name="uni04D6" unicode="&#x4d6;" horiz-adv-x="583"
d="M93 0v698h426v-74h-342v-234h322v-74h-322v-242h342v-74h-426zM303 766q-54 0 -86 21.5t-51 56.5l-20 38l70 31l35 -82q12 -3 26 -4.5t26 -1.5t26 1.5t26 4.5l35 82l70 -31l-20 -38q-19 -35 -51 -56.5t-86 -21.5z" />
    <glyph glyph-name="uni04D7" unicode="&#x4d7;" horiz-adv-x="549"
d="M279 -12q-53 0 -95.5 19t-73 54.5t-47 85t-16.5 111.5q0 61 16.5 111t47 85.5t73 54.5t95.5 19q52 0 93 -19t70 -52.5t44.5 -79.5t15.5 -101v-38h-371v-24q0 -33 10.5 -61.5t30 -49.5t48 -33t64.5 -12q49 0 85.5 23t56.5 66l57 -41q-25 -53 -78 -85.5t-126 -32.5z
M279 461q-33 0 -60 -11.5t-46.5 -32.5t-30.5 -49.5t-11 -62.5v-7h285v11q0 69 -37.5 110.5t-99.5 41.5zM280 596q-54 0 -86 21.5t-51 56.5l-20 38l70 31l35 -82q12 -3 26 -4.5t26 -1.5t26 1.5t26 4.5l35 82l70 -31l-20 -38q-19 -35 -51 -56.5t-86 -21.5z" />
    <glyph glyph-name="uni04D8" unicode="&#x4d8;" horiz-adv-x="708"
d="M58 371h503v30q0 55 -14.5 98.5t-41 73.5t-63.5 46t-83 16q-68 0 -121 -37t-79 -100l-70 34q15 38 41 70.5t61 56.5t77.5 37.5t91.5 13.5q70 0 124 -25t91 -71.5t56 -113.5t19 -151q0 -85 -20.5 -152t-59 -113.5t-93.5 -71t-124 -24.5q-138 0 -216.5 90.5t-78.5 270.5v22
zM353 63q43 0 81 16.5t66.5 47.5t44.5 74t16 96v5h-416v-5q0 -53 16 -96t44.5 -74t66 -47.5t81.5 -16.5z" />
    <glyph glyph-name="uni04D9" unicode="&#x4d9;" horiz-adv-x="549"
d="M418 278v24q0 33 -10.5 61.5t-30 49.5t-48 33t-64.5 12q-49 0 -85.5 -23t-56.5 -66l-57 41q25 53 78 85.5t126 32.5q52 0 95 -19t73.5 -54.5t47 -85.5t16.5 -111q0 -62 -16.5 -111.5t-47 -85t-73.5 -54.5t-95 -19t-93 19t-70 52.5t-44.5 79.5t-15.5 101v38h371zM133 207
q0 -69 37.5 -110.5t99.5 -41.5q33 0 60 11.5t46.5 32.5t30.5 49.5t11 62.5v7h-285v-11z" />
    <glyph glyph-name="uni04DC" unicode="&#x4dc;" horiz-adv-x="978"
d="M42 74h63l108 209q17 34 33.5 48t39.5 20v5q-20 6 -36.5 20.5t-30.5 44.5l-94 203h-63v74h52q32 0 56.5 -16t43.5 -56l110 -237h123v309h84v-309h123l112 237q19 40 42.5 56t55.5 16h52v-74h-63l-96 -203q-14 -30 -29.5 -44.5t-35.5 -20.5v-5q23 -6 40.5 -20t34.5 -48
l106 -209h63v-74h-64q-29 0 -51 15.5t-43 57.5l-124 244h-123v-317h-84v317h-123l-126 -244q-22 -42 -42.5 -57.5t-49.5 -15.5h-64v74zM396 788q-26 0 -38 13t-12 34v12q0 21 12 34t38 13t38 -13t12 -34v-12q0 -21 -12 -34t-38 -13zM582 788q-26 0 -38 13t-12 34v12
q0 21 12 34t38 13t38 -13t12 -34v-12q0 -21 -12 -34t-38 -13z" />
    <glyph glyph-name="uni04DD" unicode="&#x4dd;" horiz-adv-x="770"
d="M40 70h60l58 139q11 26 27 39t36 16v4q-20 6 -35 20t-26 39l-53 119h-60v70h47q30 0 52.5 -15t37.5 -48l69 -153h92v216h80v-216h92l69 153q15 33 37.5 48t52.5 15h47v-70h-60l-53 -119q-11 -25 -26 -39t-35 -20v-4q20 -3 36 -16t27 -39l58 -139h60v-70h-57
q-27 0 -49 14.5t-39 55.5l-68 162h-92v-232h-80v232h-92l-68 -162q-17 -41 -39 -55.5t-49 -14.5h-57v70zM292 618q-26 0 -37.5 12.5t-11.5 33.5v11q0 21 11.5 33.5t37.5 12.5t37.5 -12.5t11.5 -33.5v-11q0 -21 -11.5 -33.5t-37.5 -12.5zM478 618q-26 0 -37.5 12.5
t-11.5 33.5v11q0 21 11.5 33.5t37.5 12.5t37.5 -12.5t11.5 -33.5v-11q0 -21 -11.5 -33.5t-37.5 -12.5z" />
    <glyph glyph-name="uni04DE" unicode="&#x4de;" horiz-adv-x="593"
d="M281 -12q-85 0 -145 33.5t-99 90.5l61 49q32 -47 75.5 -72.5t107.5 -25.5q75 0 117 30.5t42 94.5v13q0 54 -36 86.5t-114 32.5h-105v74h99q74 0 107 30t33 90v14q0 51 -33.5 79t-102.5 28q-63 0 -102 -22t-63 -58l-65 42q38 54 91 83.5t139 29.5q114 0 170 -50t56 -133
q0 -72 -35.5 -112t-97.5 -53v-5q31 -4 58 -15t47 -31t32 -49.5t12 -68.5q0 -46 -17 -84t-49 -65t-78.5 -41.5t-104.5 -14.5zM196 788q-26 0 -38 13t-12 34v12q0 21 12 34t38 13t38 -13t12 -34v-12q0 -21 -12 -34t-38 -13zM382 788q-26 0 -38 13t-12 34v12q0 21 12 34t38 13
t38 -13t12 -34v-12q0 -21 -12 -34t-38 -13z" />
    <glyph glyph-name="uni04DF" unicode="&#x4df;" horiz-adv-x="501"
d="M231 -12q-79 0 -126 27t-77 77l60 48q20 -38 55.5 -59.5t87.5 -21.5q63 0 93.5 23t30.5 59v12q0 39 -26.5 59.5t-74.5 20.5h-110v67h100q48 0 74 19t26 54v12q0 33 -26.5 52.5t-88.5 19.5q-51 0 -84 -20.5t-53 -55.5l-53 45q24 45 70.5 73.5t123.5 28.5q101 0 149 -37
t48 -102q0 -48 -25.5 -76t-73.5 -39v-4q55 -8 82.5 -39.5t27.5 -80.5q0 -75 -56.5 -118.5t-153.5 -43.5zM138 618q-26 0 -37.5 12.5t-11.5 33.5v11q0 21 11.5 33.5t37.5 12.5t37.5 -12.5t11.5 -33.5v-11q0 -21 -11.5 -33.5t-37.5 -12.5zM324 618q-26 0 -37.5 12.5
t-11.5 33.5v11q0 21 11.5 33.5t37.5 12.5t37.5 -12.5t11.5 -33.5v-11q0 -21 -11.5 -33.5t-37.5 -12.5z" />
    <glyph glyph-name="uni04E2" unicode="&#x4e2;" horiz-adv-x="707"
d="M93 698h82v-438l-8 -143h3l70 126l298 455h76v-698h-82v438l8 143h-3l-70 -126l-298 -455h-76v698zM212 875h280v-68h-280v68z" />
    <glyph glyph-name="uni04E3" unicode="&#x4e3;" horiz-adv-x="588"
d="M85 516h78v-286l-8 -124h4l64 110l206 300h74v-516h-78v286l8 124h-4l-64 -110l-206 -300h-74v516zM156 705h280v-68h-280v68z" />
    <glyph glyph-name="uni04E4" unicode="&#x4e4;" horiz-adv-x="707"
d="M93 698h82v-438l-8 -143h3l70 126l298 455h76v-698h-82v438l8 143h-3l-70 -126l-298 -455h-76v698zM259 788q-26 0 -38 13t-12 34v12q0 21 12 34t38 13t38 -13t12 -34v-12q0 -21 -12 -34t-38 -13zM445 788q-26 0 -38 13t-12 34v12q0 21 12 34t38 13t38 -13t12 -34v-12
q0 -21 -12 -34t-38 -13z" />
    <glyph glyph-name="uni04E5" unicode="&#x4e5;" horiz-adv-x="588"
d="M85 516h78v-286l-8 -124h4l64 110l206 300h74v-516h-78v286l8 124h-4l-64 -110l-206 -300h-74v516zM203 618q-26 0 -37.5 12.5t-11.5 33.5v11q0 21 11.5 33.5t37.5 12.5t37.5 -12.5t11.5 -33.5v-11q0 -21 -11.5 -33.5t-37.5 -12.5zM389 618q-26 0 -37.5 12.5t-11.5 33.5
v11q0 21 11.5 33.5t37.5 12.5t37.5 -12.5t11.5 -33.5v-11q0 -21 -11.5 -33.5t-37.5 -12.5z" />
    <glyph glyph-name="uni04E6" unicode="&#x4e6;" horiz-adv-x="708"
d="M354 -12q-68 0 -122.5 23.5t-93 69t-59.5 113t-21 155.5t21 155t59.5 113t93 69.5t122.5 23.5q67 0 122 -23.5t93.5 -69.5t59.5 -113t21 -155t-21 -155.5t-59.5 -113t-93.5 -69t-122 -23.5zM354 63q45 0 83 16t65.5 46t42.5 72t15 94v116q0 52 -15 94t-42.5 72t-65.5 46
t-83 16t-83 -16t-65.5 -46t-42.5 -72t-15 -94v-116q0 -52 15 -94t42.5 -72t65.5 -46t83 -16zM261 788q-26 0 -38 13t-12 34v12q0 21 12 34t38 13t38 -13t12 -34v-12q0 -21 -12 -34t-38 -13zM447 788q-26 0 -38 13t-12 34v12q0 21 12 34t38 13t38 -13t12 -34v-12
q0 -21 -12 -34t-38 -13z" />
    <glyph glyph-name="uni04E7" unicode="&#x4e7;" horiz-adv-x="560"
d="M280 -12q-52 0 -95 19t-73.5 54.5t-47.5 85t-17 111.5q0 61 17 111t47.5 85.5t73.5 54.5t95 19t94.5 -19t73.5 -54.5t48 -85.5t17 -111q0 -62 -17 -111.5t-48 -85t-73.5 -54.5t-94.5 -19zM280 59q65 0 106 40t41 122v74q0 82 -41 122t-106 40t-106 -40t-41 -122v-74
q0 -82 41 -122t106 -40zM188 618q-26 0 -37.5 12.5t-11.5 33.5v11q0 21 11.5 33.5t37.5 12.5t37.5 -12.5t11.5 -33.5v-11q0 -21 -11.5 -33.5t-37.5 -12.5zM374 618q-26 0 -37.5 12.5t-11.5 33.5v11q0 21 11.5 33.5t37.5 12.5t37.5 -12.5t11.5 -33.5v-11q0 -21 -11.5 -33.5
t-37.5 -12.5z" />
    <glyph glyph-name="uni04E8" unicode="&#x4e8;" horiz-adv-x="708"
d="M354 -12q-68 0 -122.5 23.5t-93 69t-59.5 113t-21 155.5t21 155t59.5 113t93 69.5t122.5 23.5q67 0 122 -23.5t93.5 -69.5t59.5 -113t21 -155t-21 -155.5t-59.5 -113t-93.5 -69t-122 -23.5zM354 63q45 0 83 16t65.5 46t42.5 72t15 94v25h-412v-25q0 -52 15 -94t42.5 -72
t65.5 -46t83 -16zM148 390h412v17q0 52 -15 94t-42.5 72t-65.5 46t-83 16t-83 -16t-65.5 -46t-42.5 -72t-15 -94v-17z" />
    <glyph glyph-name="uni04E9" unicode="&#x4e9;" horiz-adv-x="560"
d="M280 -12q-52 0 -95 19t-73.5 54.5t-47.5 85t-17 111.5q0 61 17 111t47.5 85.5t73.5 54.5t95 19t94.5 -19t73.5 -54.5t48 -85.5t17 -111q0 -62 -17 -111.5t-48 -85t-73.5 -54.5t-94.5 -19zM280 59q66 0 106.5 40t40.5 122v10h-294v-10q0 -82 40.5 -122t106.5 -40zM133 293
h294v2q0 82 -40.5 122t-106.5 40t-106.5 -40t-40.5 -122v-2z" />
    <glyph glyph-name="uni04EE" unicode="&#x4ee;" horiz-adv-x="595"
d="M144 74h101l33 83l-258 541h91l151 -318l52 -121h5l44 123l126 316h86l-244 -609q-11 -27 -22 -44.5t-26 -27t-35.5 -13.5t-48.5 -4h-55v74zM167 875h280v-68h-280v68z" />
    <glyph glyph-name="uni04EF" unicode="&#x4ef;" horiz-adv-x="499"
d="M403 516h79l-231 -636q-9 -23 -18 -38.5t-22 -24.5t-32.5 -13t-47.5 -4h-41v70h81l39 110l-193 536h80l124 -351l24 -84h5l28 84zM111 705h280v-68h-280v68z" />
    <glyph glyph-name="uni04F0" unicode="&#x4f0;" horiz-adv-x="595"
d="M144 74h101l33 83l-258 541h91l151 -318l52 -121h5l44 123l126 316h86l-244 -609q-11 -27 -22 -44.5t-26 -27t-35.5 -13.5t-48.5 -4h-55v74zM214 788q-26 0 -38 13t-12 34v12q0 21 12 34t38 13t38 -13t12 -34v-12q0 -21 -12 -34t-38 -13zM400 788q-26 0 -38 13t-12 34v12
q0 21 12 34t38 13t38 -13t12 -34v-12q0 -21 -12 -34t-38 -13z" />
    <glyph glyph-name="uni04F1" unicode="&#x4f1;" horiz-adv-x="499"
d="M403 516h79l-231 -636q-9 -23 -18 -38.5t-22 -24.5t-32.5 -13t-47.5 -4h-41v70h81l39 110l-193 536h80l124 -351l24 -84h5l28 84zM158 618q-26 0 -37.5 12.5t-11.5 33.5v11q0 21 11.5 33.5t37.5 12.5t37.5 -12.5t11.5 -33.5v-11q0 -21 -11.5 -33.5t-37.5 -12.5zM344 618
q-26 0 -37.5 12.5t-11.5 33.5v11q0 21 11.5 33.5t37.5 12.5t37.5 -12.5t11.5 -33.5v-11q0 -21 -11.5 -33.5t-37.5 -12.5z" />
    <glyph glyph-name="uni04F2" unicode="&#x4f2;" horiz-adv-x="595"
d="M144 74h101l33 83l-258 541h91l151 -318l52 -121h5l44 123l126 316h86l-244 -609q-11 -27 -22 -44.5t-26 -27t-35.5 -13.5t-48.5 -4h-55v74zM234 756l-48 22l85 170l69 -33zM394 756l-48 22l85 170l69 -33z" />
    <glyph glyph-name="uni04F3" unicode="&#x4f3;" horiz-adv-x="499"
d="M403 516h79l-231 -636q-9 -23 -18 -38.5t-22 -24.5t-32.5 -13t-47.5 -4h-41v70h81l39 110l-193 536h80l124 -351l24 -84h5l28 84zM178 586l-48 22l85 170l69 -33zM338 586l-48 22l85 170l69 -33z" />
    <glyph glyph-name="uni04F4" unicode="&#x4f4;" horiz-adv-x="645"
d="M468 275h-5q-27 -11 -67 -17t-87 -6q-130 0 -190.5 60.5t-60.5 187.5v198h84v-198q0 -92 42.5 -133t127.5 -41q50 0 90 6t66 17v349h84v-698h-84v275zM212 788q-26 0 -38 13t-12 34v12q0 21 12 34t38 13t38 -13t12 -34v-12q0 -21 -12 -34t-38 -13zM398 788q-26 0 -38 13
t-12 34v12q0 21 12 34t38 13t38 -13t12 -34v-12q0 -21 -12 -34t-38 -13z" />
    <glyph glyph-name="uni04F5" unicode="&#x4f5;" horiz-adv-x="538"
d="M373 237h-5q-24 -27 -59 -44.5t-92 -17.5q-79 0 -123 39.5t-44 119.5v182h80v-175q0 -94 111 -94q57 0 94.5 15.5t37.5 47.5v206h80v-516h-80v237zM159 618q-26 0 -37.5 12.5t-11.5 33.5v11q0 21 11.5 33.5t37.5 12.5t37.5 -12.5t11.5 -33.5v-11q0 -21 -11.5 -33.5
t-37.5 -12.5zM345 618q-26 0 -37.5 12.5t-11.5 33.5v11q0 21 11.5 33.5t37.5 12.5t37.5 -12.5t11.5 -33.5v-11q0 -21 -11.5 -33.5t-37.5 -12.5z" />
    <glyph glyph-name="uni04F8" unicode="&#x4f8;" horiz-adv-x="875"
d="M93 698h84v-280h208q94 0 144.5 -54.5t50.5 -154.5t-50.5 -154.5t-144.5 -54.5h-292v698zM385 74q50 0 77.5 27t27.5 82v52q0 55 -27.5 82t-77.5 27h-208v-270h208zM698 698h84v-698h-84v698zM344 788q-26 0 -38 13t-12 34v12q0 21 12 34t38 13t38 -13t12 -34v-12
q0 -21 -12 -34t-38 -13zM530 788q-26 0 -38 13t-12 34v12q0 21 12 34t38 13t38 -13t12 -34v-12q0 -21 -12 -34t-38 -13z" />
    <glyph glyph-name="uni04F9" unicode="&#x4f9;" horiz-adv-x="724"
d="M85 516h80v-187h137q78 0 124 -44t46 -121q0 -78 -45 -121t-124 -43h-218v516zM291 70q45 0 70 17t25 57v42q0 40 -25 56.5t-70 16.5h-126v-189h126zM559 516h80v-516h-80v516zM269 618q-26 0 -37.5 12.5t-11.5 33.5v11q0 21 11.5 33.5t37.5 12.5t37.5 -12.5t11.5 -33.5
v-11q0 -21 -11.5 -33.5t-37.5 -12.5zM455 618q-26 0 -37.5 12.5t-11.5 33.5v11q0 21 11.5 33.5t37.5 12.5t37.5 -12.5t11.5 -33.5v-11q0 -21 -11.5 -33.5t-37.5 -12.5z" />
    <glyph glyph-name="uni0E3F" unicode="&#xe3f;" horiz-adv-x="644"
d="M347 -82h-62v103h-192v656h192v103h62v-103h24q86 0 135.5 -46t49.5 -123q0 -33 -9.5 -57.5t-25.5 -41.5t-37 -27t-45 -14v-6q24 -4 49.5 -12.5t46 -25.5t33.5 -44.5t13 -68.5t-14 -75.5t-38 -60t-57 -40t-72 -14.5h-53v-103zM286 393v210h-110v-210h110zM346 393h27
q50 0 73 22.5t23 67.5v30q0 45 -23 67.5t-73 22.5h-27v-210zM286 95v229h-110v-229h110zM346 95h31q54 0 85.5 24t31.5 73v35q0 49 -31.5 73t-85.5 24h-31v-229z" />
    <glyph glyph-name="Wgrave" unicode="&#x1e80;" horiz-adv-x="891"
d="M190 0l-170 698h89l75 -336l58 -261h2l65 261l88 336h96l85 -336l65 -260h3l60 260l79 336h86l-179 -698h-93l-91 348l-64 256h-2l-66 -256l-93 -348h-93zM333 914l73 35l85 -170l-52 -24z" />
    <glyph glyph-name="wgrave" unicode="&#x1e81;" horiz-adv-x="768"
d="M31 516h78l55 -223l55 -226h2l63 226l65 223h71l67 -223l64 -226h2l53 226l56 223h75l-137 -516h-99l-72 248l-45 157h-2l-44 -157l-72 -248h-97zM271 744l73 35l85 -170l-52 -24z" />
    <glyph glyph-name="Wacute" unicode="&#x1e82;" horiz-adv-x="891"
d="M190 0l-170 698h89l75 -336l58 -261h2l65 261l88 336h96l85 -336l65 -260h3l60 260l79 336h86l-179 -698h-93l-91 348l-64 256h-2l-66 -256l-93 -348h-93zM453 755l-52 24l85 170l73 -35z" />
    <glyph glyph-name="wacute" unicode="&#x1e83;" horiz-adv-x="768"
d="M31 516h78l55 -223l55 -226h2l63 226l65 223h71l67 -223l64 -226h2l53 226l56 223h75l-137 -516h-99l-72 248l-45 157h-2l-44 -157l-72 -248h-97zM391 585l-52 24l85 170l73 -35z" />
    <glyph glyph-name="Wdieresis" unicode="&#x1e84;" horiz-adv-x="891"
d="M190 0l-170 698h89l75 -336l58 -261h2l65 261l88 336h96l85 -336l65 -260h3l60 260l79 336h86l-179 -698h-93l-91 348l-64 256h-2l-66 -256l-93 -348h-93zM353 788q-26 0 -38 13t-12 34v12q0 21 12 34t38 13t38 -13t12 -34v-12q0 -21 -12 -34t-38 -13zM539 788
q-26 0 -38 13t-12 34v12q0 21 12 34t38 13t38 -13t12 -34v-12q0 -21 -12 -34t-38 -13z" />
    <glyph glyph-name="wdieresis" unicode="&#x1e85;" horiz-adv-x="768"
d="M31 516h78l55 -223l55 -226h2l63 226l65 223h71l67 -223l64 -226h2l53 226l56 223h75l-137 -516h-99l-72 248l-45 157h-2l-44 -157l-72 -248h-97zM291 618q-26 0 -37.5 12.5t-11.5 33.5v11q0 21 11.5 33.5t37.5 12.5t37.5 -12.5t11.5 -33.5v-11q0 -21 -11.5 -33.5
t-37.5 -12.5zM477 618q-26 0 -37.5 12.5t-11.5 33.5v11q0 21 11.5 33.5t37.5 12.5t37.5 -12.5t11.5 -33.5v-11q0 -21 -11.5 -33.5t-37.5 -12.5z" />
    <glyph glyph-name="uni1E9E" unicode="&#x1e9e;" horiz-adv-x="700"
d="M648 196q0 -99 -59.5 -153.5t-160.5 -54.5q-67 0 -115.5 22.5t-83.5 70.5l58 49q54 -71 141 -71q63 0 96.5 33t33.5 89v30q0 56 -33.5 88.5t-96.5 32.5h-94v77l185 215h-342v-624h-84v698h511v-82l-181 -211v-4q105 -2 165 -55t60 -150z" />
    <glyph glyph-name="uni1EA0" unicode="&#x1ea0;" horiz-adv-x="641"
d="M530 0l-70 206h-282l-70 -206h-85l244 698h107l244 -698h-88zM321 620h-5l-118 -340h241zM322 -169q-26 0 -38.5 12.5t-12.5 33.5v11q0 21 12.5 33.5t38.5 12.5t38.5 -12.5t12.5 -33.5v-11q0 -21 -12.5 -33.5t-38.5 -12.5z" />
    <glyph glyph-name="uni1EA1" unicode="&#x1ea1;" horiz-adv-x="534"
d="M460 0q-45 0 -64.5 24t-24.5 60h-5q-17 -48 -56 -72t-93 -24q-82 0 -127.5 42t-45.5 114q0 73 53.5 112t166.5 39h102v51q0 55 -30 84t-92 29q-47 0 -78.5 -21t-52.5 -56l-48 45q21 42 67 71.5t116 29.5q94 0 146 -46t52 -128v-284h59v-70h-45zM230 56q30 0 55 7t43 20
t28 30t10 37v85h-106q-69 0 -100.5 -20t-31.5 -58v-21q0 -38 27.5 -59t74.5 -21zM245 -169q-26 0 -38.5 12.5t-12.5 33.5v11q0 21 12.5 33.5t38.5 12.5t38.5 -12.5t12.5 -33.5v-11q0 -21 -12.5 -33.5t-38.5 -12.5z" />
    <glyph glyph-name="uni1EA2" unicode="&#x1ea2;" horiz-adv-x="641"
d="M530 0l-70 206h-282l-70 -206h-85l244 698h107l244 -698h-88zM321 620h-5l-118 -340h241zM238 935h109q38 0 54 -16t16 -39q0 -22 -13 -48t-36 -55l-24 -30l-46 23l58 104h-118v61z" />
    <glyph glyph-name="uni1EA3" unicode="&#x1ea3;" horiz-adv-x="534"
d="M460 0q-45 0 -64.5 24t-24.5 60h-5q-17 -48 -56 -72t-93 -24q-82 0 -127.5 42t-45.5 114q0 73 53.5 112t166.5 39h102v51q0 55 -30 84t-92 29q-47 0 -78.5 -21t-52.5 -56l-48 45q21 42 67 71.5t116 29.5q94 0 146 -46t52 -128v-284h59v-70h-45zM230 56q30 0 55 7t43 20
t28 30t10 37v85h-106q-69 0 -100.5 -20t-31.5 -58v-21q0 -38 27.5 -59t74.5 -21zM168 765h109q38 0 54 -16t16 -39q0 -22 -13 -48t-36 -55l-24 -30l-46 23l58 104h-118v61z" />
    <glyph glyph-name="uni1EA4" unicode="&#x1ea4;" horiz-adv-x="641"
d="M530 0l-70 206h-282l-70 -206h-85l244 698h107l244 -698h-88zM321 620h-5l-118 -340h241zM476 868l-49 23l85 170l70 -34zM372 915l110 -134l-41 -30l-119 112l-119 -112l-41 30l110 134h100z" />
    <glyph glyph-name="uni1EA5" unicode="&#x1ea5;" horiz-adv-x="534"
d="M460 0q-45 0 -64.5 24t-24.5 60h-5q-17 -48 -56 -72t-93 -24q-82 0 -127.5 42t-45.5 114q0 73 53.5 112t166.5 39h102v51q0 55 -30 84t-92 29q-47 0 -78.5 -21t-52.5 -56l-48 45q21 42 67 71.5t116 29.5q94 0 146 -46t52 -128v-284h59v-70h-45zM230 56q30 0 55 7t43 20
t28 30t10 37v85h-106q-69 0 -100.5 -20t-31.5 -58v-21q0 -38 27.5 -59t74.5 -21zM406 698l-49 23l85 170l70 -34zM302 745l110 -134l-41 -30l-119 112l-119 -112l-41 30l110 134h100z" />
    <glyph glyph-name="uni1EA6" unicode="&#x1ea6;" horiz-adv-x="641"
d="M530 0l-70 206h-282l-70 -206h-85l244 698h107l244 -698h-88zM321 620h-5l-118 -340h241zM62 1027l70 34l85 -170l-49 -23zM372 915l110 -134l-41 -30l-119 112l-119 -112l-41 30l110 134h100z" />
    <glyph glyph-name="uni1EA7" unicode="&#x1ea7;" horiz-adv-x="534"
d="M460 0q-45 0 -64.5 24t-24.5 60h-5q-17 -48 -56 -72t-93 -24q-82 0 -127.5 42t-45.5 114q0 73 53.5 112t166.5 39h102v51q0 55 -30 84t-92 29q-47 0 -78.5 -21t-52.5 -56l-48 45q21 42 67 71.5t116 29.5q94 0 146 -46t52 -128v-284h59v-70h-45zM230 56q30 0 55 7t43 20
t28 30t10 37v85h-106q-69 0 -100.5 -20t-31.5 -58v-21q0 -38 27.5 -59t74.5 -21zM-8 857l70 34l85 -170l-49 -23zM302 745l110 -134l-41 -30l-119 112l-119 -112l-41 30l110 134h100z" />
    <glyph glyph-name="uni1EA8" unicode="&#x1ea8;" horiz-adv-x="641"
d="M530 0l-70 206h-282l-70 -206h-85l244 698h107l244 -698h-88zM321 620h-5l-118 -340h241zM372 1050h109q38 0 54 -16t16 -39q0 -22 -13 -48t-36 -55l-24 -30l-44 23l60 107h-122v58zM372 915l110 -134l-41 -30l-119 112l-119 -112l-41 30l110 134h100z" />
    <glyph glyph-name="uni1EA9" unicode="&#x1ea9;" horiz-adv-x="534"
d="M460 0q-45 0 -64.5 24t-24.5 60h-5q-17 -48 -56 -72t-93 -24q-82 0 -127.5 42t-45.5 114q0 73 53.5 112t166.5 39h102v51q0 55 -30 84t-92 29q-47 0 -78.5 -21t-52.5 -56l-48 45q21 42 67 71.5t116 29.5q94 0 146 -46t52 -128v-284h59v-70h-45zM230 56q30 0 55 7t43 20
t28 30t10 37v85h-106q-69 0 -100.5 -20t-31.5 -58v-21q0 -38 27.5 -59t74.5 -21zM302 880h109q38 0 54 -16t16 -39q0 -22 -13 -48t-36 -55l-24 -30l-44 23l60 107h-122v58zM302 745l110 -134l-41 -30l-119 112l-119 -112l-41 30l110 134h100z" />
    <glyph glyph-name="uni1EAA" unicode="&#x1eaa;" horiz-adv-x="641"
d="M530 0l-70 206h-282l-70 -206h-85l244 698h107l244 -698h-88zM321 620h-5l-118 -340h241zM250 1054q26 0 45 -9t35 -17q24 -13 40.5 -18.5t29.5 -5.5q17 0 30 7t28 20l31 -36q-14 -20 -37 -36.5t-58 -16.5q-26 0 -45 9t-35 17q-24 13 -40.5 18.5t-29.5 5.5q-17 0 -30 -7
t-28 -20l-31 36q14 20 37 36.5t58 16.5zM372 915l110 -134l-41 -30l-119 112l-119 -112l-41 30l110 134h100z" />
    <glyph glyph-name="uni1EAB" unicode="&#x1eab;" horiz-adv-x="534"
d="M460 0q-45 0 -64.5 24t-24.5 60h-5q-17 -48 -56 -72t-93 -24q-82 0 -127.5 42t-45.5 114q0 73 53.5 112t166.5 39h102v51q0 55 -30 84t-92 29q-47 0 -78.5 -21t-52.5 -56l-48 45q21 42 67 71.5t116 29.5q94 0 146 -46t52 -128v-284h59v-70h-45zM230 56q30 0 55 7t43 20
t28 30t10 37v85h-106q-69 0 -100.5 -20t-31.5 -58v-21q0 -38 27.5 -59t74.5 -21zM180 884q26 0 45 -9t35 -17q24 -13 40.5 -18.5t29.5 -5.5q17 0 30 7t28 20l31 -36q-14 -20 -37 -36.5t-58 -16.5q-26 0 -45 9t-35 17q-24 13 -40.5 18.5t-29.5 5.5q-17 0 -30 -7t-28 -20
l-31 36q14 20 37 36.5t58 16.5zM302 745l110 -134l-41 -30l-119 112l-119 -112l-41 30l110 134h100z" />
    </font>
</defs>
</svg>
